<?xml version="1.0" standalone="no"?>
<!DOCTYPE svg PUBLIC "-//W3C//DTD SVG 1.1//EN" "http://www.w3.org/Graphics/SVG/1.1/DTD/svg11.dtd" >
<svg xmlns="http://www.w3.org/2000/svg" xmlns:xlink="http://www.w3.org/1999/xlink" version="1.1">
<metadata>
Created by FontForge 20161003 at Tue Nov 29 10:14:23 2016
 By www-data
Copyright (C) 2010, 2014 Hoefler &#38; Co. http://www.typography.com/
</metadata>
<defs>
<font id="GothamSSmBold" horiz-adv-x="420" >
  <font-face 
    font-family="GothamSSmBold"
    font-weight="400"
    font-stretch="normal"
    units-per-em="1000"
    panose-1="0 0 0 0 0 0 0 0 0 0"
    ascent="800"
    descent="-200"
    x-height="556"
    cap-height="728"
    bbox="-233 -304 1244 1056"
    underline-thickness="50"
    underline-position="-150"
    unicode-range="U+0020-FB04"
  />
<missing-glyph horiz-adv-x="500" 
d="M0 -200v1000h500v-1000h-500zM71 750l179 -390l179 390h-358zM450 676l-172 -376l172 -376v752zM50 -76l172 376l-172 376v-752zM250 240l-179 -390h358z" />
    <glyph glyph-name="f_f" unicode="ff" horiz-adv-x="800" 
d="M500 0v426h-67v125h67v36q0 90 44 136q43 43 127 43q63 0 111 -15v-126q-39 13 -73 13q-60 0 -60 -64v-24h132v-124h-130v-426h-151zM104 0v426h-67v125h67v36q0 90 44 136q43 43 127 43q63 0 111 -15v-126q-39 13 -73 13q-60 0 -60 -64v-24h132v-124h-130v-426h-151z
" />
    <glyph glyph-name="fi" unicode="fi" horiz-adv-x="715" 
d="M475 622v136h160v-136h-160zM104 0v426h-67v125h67v36q0 90 44 136q43 43 127 43q63 0 111 -15v-126q-39 13 -73 13q-60 0 -60 -64v-24h132v-124h-130v-426h-151zM480 0v556h151v-556h-151z" />
    <glyph glyph-name="fl" unicode="fl" horiz-adv-x="715" 
d="M480 0v759h151v-759h-151zM104 0v426h-67v125h67v36q0 90 44 136q43 43 127 43q63 0 111 -15v-126q-39 13 -73 13q-60 0 -60 -64v-24h132v-124h-130v-426h-151z" />
    <glyph glyph-name="f_f_i" unicode="ffi" horiz-adv-x="1111" 
d="M871 622v136h160v-136h-160zM500 0v426h-67v125h67v36q0 90 44 136q43 43 127 43q63 0 111 -15v-126q-39 13 -73 13q-60 0 -60 -64v-24h132v-124h-130v-426h-151zM104 0v426h-67v125h67v36q0 90 44 136q43 43 127 43q63 0 111 -15v-126q-39 13 -73 13q-60 0 -60 -64v-24
h132v-124h-130v-426h-151zM876 0v556h151v-556h-151z" />
    <glyph glyph-name="f_f_l" unicode="ffl" horiz-adv-x="1111" 
d="M876 0v759h151v-759h-151zM500 0v426h-67v125h67v36q0 90 44 136q43 43 127 43q63 0 111 -15v-126q-39 13 -73 13q-60 0 -60 -64v-24h132v-124h-130v-426h-151zM104 0v426h-67v125h67v36q0 90 44 136q43 43 127 43q63 0 111 -15v-126q-39 13 -73 13q-60 0 -60 -64v-24
h132v-124h-130v-426h-151z" />
    <glyph glyph-name=".notdef" horiz-adv-x="500" 
d="M0 -200v1000h500v-1000h-500zM71 750l179 -390l179 390h-358zM450 676l-172 -376l172 -376v752zM50 -76l172 376l-172 376v-752zM250 240l-179 -390h358z" />
    <glyph glyph-name=".null" horiz-adv-x="0" 
 />
    <glyph glyph-name="nonmarkingreturn" horiz-adv-x="333" 
 />
    <glyph glyph-name="space" unicode=" " horiz-adv-x="320" 
 />
    <glyph glyph-name="exclam" unicode="!" horiz-adv-x="340" 
d="M128 244l-47 460v24h178v-24l-47 -460h-84zM89 0v162h162v-162h-162z" />
    <glyph glyph-name="quotedbl" unicode="&#x22;" horiz-adv-x="542" 
d="M64 400l20 328h168v-5l-111 -323h-77zM306 400l20 328h168v-5l-111 -323h-77z" />
    <glyph glyph-name="numbersign" unicode="#" horiz-adv-x="736" 
d="M301 450l-28 -168h161l28 168h-161zM658 286v-128h-117l-27 -158h-132l27 158h-154l-27 -158h-132l27 158h-82v128h104l27 160h-94v128h116l27 154h132l-27 -154h154l27 154h132l-27 -154h83v-128h-105l-27 -160h95z" />
    <glyph glyph-name="dollar" unicode="$" horiz-adv-x="679" 
d="M224 532q0 -27 16.5 -45t60.5 -34v150q-77 -10 -77 -69v-2zM476 199q0 29 -17.5 47.5t-62.5 33.5v-154q80 11 80 71v2zM595 648l-68 -116q-67 44 -131 62v-166q119 -32 172.5 -83.5t53.5 -137.5v-2q0 -86 -60 -139.5t-161 -64.5v-103h-105v105q-138 17 -245 100l78 113
q92 -70 172 -85v173q-117 31 -170 80.5t-53 138.5v2q0 85 59.5 139t158.5 64v60h105v-62q103 -14 194 -78z" />
    <glyph glyph-name="percent" unicode="%" horiz-adv-x="900" 
d="M226 364q-77 0 -126 53t-49 131v2q0 79 49.5 132.5t127.5 53.5q77 0 126 -53t49 -131v-2q0 -78 -49.5 -132t-127.5 -54zM415 391l241 337h120l-291 -391l-241 -337h-120zM226 645q-32 0 -50.5 -27t-18.5 -66v-2q0 -39 20 -66.5t51 -27.5q32 0 50.5 26.5t18.5 65.5v2
q0 39 -20 67t-51 28zM672 -8q-77 0 -126 53t-49 131v2q0 78 49.5 132t127.5 54q77 0 126 -53.5t49 -130.5v-2q0 -78 -50 -132t-127 -54zM674 83q32 0 50.5 27t18.5 66v2q0 39 -20 66.5t-51 27.5q-32 0 -50.5 -26.5t-18.5 -65.5v-2q0 -39 20 -67t51 -28z" />
    <glyph glyph-name="ampersand" unicode="&#x26;" horiz-adv-x="732" 
d="M585 -15l-86 88q-100 -83 -216 -83q-105 0 -174 57.5t-69 151.5v2q0 136 145 201q-53 72 -53 147v2q0 78 59.5 133.5t158.5 55.5q90 0 146.5 -52t56.5 -129v-2q0 -131 -155 -190l103 -103q38 61 72 128l113 -62q-51 -95 -96 -156l108 -109zM318 448q100 36 100 100v2
q0 32 -19.5 51t-51.5 19q-34 0 -54 -21t-20 -55v-2q0 -43 45 -94zM301 116q56 0 112 46l-144 146q-74 -37 -74 -101v-2q0 -40 29.5 -64.5t76.5 -24.5z" />
    <glyph glyph-name="quotesingle" unicode="'" horiz-adv-x="302" 
d="M64 400l20 328h170v-5l-111 -323h-79z" />
    <glyph glyph-name="parenleft" unicode="(" horiz-adv-x="470" 
d="M354 -147q-145 79 -216.5 188t-71.5 257v1q0 290 288 445l67 -101q-108 -74 -156 -154.5t-48 -190.5v-1q0 -109 48.5 -189.5t155.5 -153.5z" />
    <glyph glyph-name="parenright" unicode=")" horiz-adv-x="470" 
d="M116 -147l-67 101q108 74 156 154t48 190v1q0 109 -48.5 190t-155.5 154l67 101q288 -157 288 -446v-1q0 -289 -288 -444z" />
    <glyph glyph-name="asterisk" unicode="*" horiz-adv-x="455" 
d="M186 389l16 125l-101 -77l-42 73l116 50l-116 49l42 73l101 -77l-16 125h83l-16 -125l101 77l43 -73l-117 -49l117 -50l-43 -73l-101 77l16 -125h-83z" />
    <glyph glyph-name="plus" unicode="+" horiz-adv-x="672" 
d="M265 108v189h-190v138h190v189h142v-189h191v-138h-191v-189h-142z" />
    <glyph glyph-name="comma" unicode="," horiz-adv-x="302" 
d="M46 -165l-13 63q107 12 99 102h-62v162h162v-137q0 -97 -46.5 -142.5t-139.5 -47.5z" />
    <glyph glyph-name="hyphen" unicode="-" horiz-adv-x="432" 
d="M57 248v147h318v-147h-318z" />
    <glyph glyph-name="period" unicode="." horiz-adv-x="302" 
d="M70 0v162h162v-162h-162z" />
    <glyph glyph-name="slash" unicode="/" horiz-adv-x="557" 
d="M-24 -133l462 963h129l-462 -963h-129z" />
    <glyph glyph-name="zero" unicode="0" horiz-adv-x="766" 
d="M382 -12q-143 0 -232 106.5t-89 267.5v2q0 160 90 268t233 108q142 0 231.5 -106.5t89.5 -267.5v-2q0 -160 -90 -268t-233 -108zM384 126q74 0 118.5 67t44.5 169v2q0 102 -46 170t-119 68t-118 -66.5t-45 -169.5v-2q0 -103 45.5 -170.5t119.5 -67.5z" />
    <glyph glyph-name="one" unicode="1" horiz-adv-x="441" 
d="M189 0v577l-128 -32l-32 126l207 62h105v-733h-152z" />
    <glyph glyph-name="two" unicode="2" horiz-adv-x="654" 
d="M55 0v122l244 201q73 61 100.5 98t27.5 81q0 47 -28 73t-74 26q-42 0 -75.5 -23.5t-76.5 -76.5l-108 86q57 79 117 115t153 36q112 0 180.5 -61t68.5 -162v-2q0 -44 -10.5 -79.5t-37.5 -69.5t-58 -62.5t-85 -70.5l-125 -98h323v-133h-536z" />
    <glyph glyph-name="three" unicode="3" horiz-adv-x="653" 
d="M327 -12q-176 0 -282 126l106 100q78 -89 178 -89q48 0 78 25.5t30 67.5v2q0 46 -39 71.5t-108 25.5h-65l-25 97l179 182h-292v132h490v-116l-188 -182q87 -14 143 -62.5t56 -141.5v-2q0 -104 -71 -170t-190 -66z" />
    <glyph glyph-name="four" unicode="4" horiz-adv-x="723" 
d="M421 0v158h-358l-26 109l401 466h130v-450h99v-125h-99v-158h-147zM218 283h203v239z" />
    <glyph glyph-name="five" unicode="5" horiz-adv-x="662" 
d="M321 -12q-157 0 -271 109l93 111q89 -81 176 -81q58 0 92 28t34 78v2q0 48 -36.5 75.5t-96.5 27.5q-59 0 -124 -28l-90 60l21 358h445v-135h-313l-9 -135q52 14 100 14q113 0 183.5 -58t70.5 -174v-2q0 -114 -75 -182t-200 -68z" />
    <glyph glyph-name="six" unicode="6" horiz-adv-x="695" 
d="M356 -12q-130 0 -209 77q-86 88 -86 276v2q0 177 81.5 287t236.5 110q126 0 226 -80l-81 -119q-39 31 -72.5 45.5t-77.5 14.5q-41 0 -71.5 -18t-47 -47.5t-24.5 -58.5t-10 -59h1q66 54 155 54q112 0 183.5 -61t71.5 -170v-3q0 -110 -78.5 -180t-197.5 -70zM350 119
q60 0 94.5 31.5t34.5 80.5v3q0 48 -35.5 79t-95.5 31t-94.5 -31t-34.5 -79v-2q0 -49 35.5 -81t95.5 -32z" />
    <glyph glyph-name="seven" unicode="7" horiz-adv-x="650" 
d="M96 0l326 595h-347v133h521v-116l-326 -612h-174z" />
    <glyph glyph-name="eight" unicode="8" horiz-adv-x="663" 
d="M332 -10q-122 0 -201.5 58t-79.5 151v2q0 122 121 176q-96 56 -96 160v2q0 85 71.5 142t184.5 57t184 -56.5t71 -142.5v-2q0 -103 -95 -160q60 -30 90 -70t30 -102v-2q0 -98 -78.5 -155.5t-201.5 -57.5zM332 429q49 0 79 25.5t30 66.5v2q0 37 -30 62.5t-79 25.5
q-50 0 -80 -25.5t-30 -61.5v-2q0 -41 30.5 -67t79.5 -26zM332 117q60 0 95.5 26.5t35.5 67.5v2q0 43 -37 68t-94 25q-58 0 -95 -25t-37 -68v-2q0 -40 35.5 -67t96.5 -27z" />
    <glyph glyph-name="nine" unicode="9" horiz-adv-x="695" 
d="M347 378q60 0 94.5 32t34.5 81v2q0 51 -36 83.5t-96 32.5t-94 -32t-34 -84v-2q0 -51 35.5 -82t95.5 -31zM321 127q41 0 72 18t47.5 47t24.5 57t10 57h-1q-58 -56 -152 -56q-119 0 -189 62.5t-70 171.5v2q0 110 77.5 182t198.5 72q71 0 119 -18.5t90 -59.5q86 -86 86 -275
v-2q0 -181 -83 -289t-233 -108q-135 0 -238 86l81 117q79 -64 160 -64z" />
    <glyph glyph-name="colon" unicode=":" horiz-adv-x="312" 
d="M75 394v162h162v-162h-162zM75 0v162h162v-162h-162z" />
    <glyph glyph-name="semicolon" unicode=";" horiz-adv-x="312" 
d="M75 394v162h162v-162h-162zM51 -165l-13 63q107 12 99 102h-62v162h162v-137q0 -97 -46.5 -142.5t-139.5 -47.5z" />
    <glyph glyph-name="less" unicode="&#x3c;" horiz-adv-x="672" 
d="M577 75l-503 222v138l503 222v-141l-356 -149l356 -149v-143z" />
    <glyph glyph-name="equal" unicode="=" horiz-adv-x="672" 
d="M81 431v138h511v-138h-511zM81 163v138h511v-138h-511z" />
    <glyph glyph-name="greater" unicode="&#x3e;" horiz-adv-x="672" 
d="M96 75v141l355 149l-355 149v143l502 -222v-138z" />
    <glyph glyph-name="question" unicode="?" horiz-adv-x="573" 
d="M211 244l-23 169l5 5q184 7 184 99v2q0 37 -26.5 58t-73.5 21q-87 0 -159 -74l-92 100q101 113 254 113q114 0 182 -56.5t68 -157.5v-2q0 -169 -206 -209l-11 -68h-102zM178 0v162h162v-162h-162z" />
    <glyph glyph-name="at" unicode="@" horiz-adv-x="1027" 
d="M523 -168q-130 0 -237 61t-167 165t-60 227q0 188 133 321.5t323 133.5q93 0 177.5 -34.5t144.5 -91t95.5 -131.5t35.5 -154q0 -125 -58.5 -193t-147.5 -68q-105 0 -158 65q-69 -65 -155 -65q-81 0 -135.5 55t-54.5 145q0 108 70 184.5t163 76.5t145 -72l11 56l119 -19
l-49 -276q-3 -18 -3 -35q0 -29 20.5 -48t56.5 -19q58 0 95.5 56t37.5 157q0 147 -119 258.5t-291 111.5q-116 0 -211 -55.5t-148.5 -150.5t-53.5 -208q0 -174 119.5 -293t301.5 -119q135 0 255 69l21 -32q-129 -78 -276 -78zM483 172q47 0 82 35q46 46 46 118q0 45 -28 72.5
t-71 27.5q-46 0 -84 -36q-45 -45 -45 -114q0 -48 27.5 -75.5t72.5 -27.5z" />
    <glyph glyph-name="A" unicode="A" horiz-adv-x="830" 
d="M310 302h205l-102 247zM30 0l314 733h142l313 -733h-161l-68 166h-315l-68 -166h-157z" />
    <glyph glyph-name="B" unicode="B" horiz-adv-x="759" 
d="M93 0v728h335q125 0 191 -64q49 -50 49 -124v-2q0 -104 -97 -158q68 -25 103 -66.5t35 -111.5v-2q0 -98 -73 -149t-199 -51h-344zM515 513v2q0 37 -28.5 57.5t-80.5 20.5h-164v-162h154q119 0 119 82zM556 220q0 83 -125 83h-189v-168h195q119 0 119 83v2z" />
    <glyph glyph-name="C" unicode="C" horiz-adv-x="776" 
d="M433 -12q-160 0 -266.5 108t-106.5 266v2q0 158 107 267t272 109q97 0 164 -28.5t123 -83.5l-98 -113q-92 84 -190 84q-93 0 -155 -68t-62 -165v-2q0 -98 61.5 -166.5t155.5 -68.5q59 0 102.5 21.5t92.5 65.5l98 -99q-61 -64 -130 -96.5t-168 -32.5z" />
    <glyph glyph-name="D" unicode="D" horiz-adv-x="821" 
d="M93 0v728h281q170 0 278.5 -103.5t108.5 -258.5v-2q0 -156 -108.5 -260t-278.5 -104h-281zM374 589h-128v-450h128q101 0 163.5 62t62.5 161v2q0 99 -62.5 162t-163.5 63z" />
    <glyph glyph-name="E" unicode="E" horiz-adv-x="705" 
d="M93 0v728h547v-137h-395v-156h348v-137h-348v-161h400v-137h-552z" />
    <glyph glyph-name="F" unicode="F" horiz-adv-x="690" 
d="M93 0v728h551v-140h-398v-163h352v-140h-352v-285h-153z" />
    <glyph glyph-name="G" unicode="G" horiz-adv-x="823" 
d="M442 -12q-169 0 -275.5 105.5t-106.5 268.5v2q0 157 108.5 266.5t272.5 109.5q93 0 159 -24t126 -75l-97 -117q-47 39 -90 57t-103 18q-90 0 -152.5 -68.5t-62.5 -164.5v-2q0 -103 63.5 -170t162.5 -67q92 0 156 46v111h-166v133h315v-314q-135 -115 -310 -115z" />
    <glyph glyph-name="H" unicode="H" horiz-adv-x="798" 
d="M93 0v728h153v-291h306v291h154v-728h-154v295h-306v-295h-153z" />
    <glyph glyph-name="I" unicode="I" horiz-adv-x="354" 
d="M100 0v728h154v-728h-154z" />
    <glyph glyph-name="J" unicode="J" horiz-adv-x="594" 
d="M257 -10q-145 0 -237 110l98 108q65 -76 135 -76q48 0 75 31t27 94v471h157v-477q0 -126 -68 -194q-66 -67 -187 -67z" />
    <glyph glyph-name="K" unicode="K" horiz-adv-x="766" 
d="M93 0v728h153v-328l304 328h189l-299 -310l312 -418h-185l-231 313l-90 -93v-220h-153z" />
    <glyph glyph-name="L" unicode="L" horiz-adv-x="651" 
d="M93 0v728h153v-588h367v-140h-520z" />
    <glyph glyph-name="M" unicode="M" horiz-adv-x="911" 
d="M93 0v728h165l197 -315l198 315h165v-728h-153v485l-210 -318h-4l-208 315v-482h-150z" />
    <glyph glyph-name="N" unicode="N" horiz-adv-x="830" 
d="M93 0v728h141l351 -459v459h152v-728h-131l-362 474v-474h-151z" />
    <glyph glyph-name="O" unicode="O" horiz-adv-x="892" 
d="M445 -12q-166 0 -275.5 108.5t-109.5 265.5v2q0 157 110.5 266.5t276.5 109.5t275.5 -108.5t109.5 -265.5v-2q0 -157 -110.5 -266.5t-276.5 -109.5zM447 129q97 0 160.5 67.5t63.5 165.5v2q0 98 -64.5 166.5t-161.5 68.5t-160.5 -67.5t-63.5 -165.5v-2q0 -98 64.5 -166.5
t161.5 -68.5z" />
    <glyph glyph-name="P" unicode="P" horiz-adv-x="703" 
d="M93 0v728h295q128 0 203 -69t75 -181v-2q0 -121 -83 -187.5t-210 -66.5h-127v-222h-153zM246 359h132q61 0 97 32t36 82v2q0 55 -36.5 84.5t-99.5 29.5h-129v-230z" />
    <glyph glyph-name="Q" unicode="Q" horiz-adv-x="892" 
d="M842 87l-98 -109l-82 74q-98 -64 -217 -64q-166 0 -275.5 108.5t-109.5 265.5v2q0 157 110.5 266.5t276.5 109.5t275.5 -108.5t109.5 -265.5v-2q0 -116 -66 -212zM447 129q55 0 102 22l-120 103l98 110l121 -110q23 49 23 108v2q0 98 -64.5 166.5t-161.5 68.5
t-160.5 -67.5t-63.5 -165.5v-2q0 -98 64.5 -166.5t161.5 -68.5z" />
    <glyph glyph-name="R" unicode="R" horiz-adv-x="760" 
d="M246 373h168q59 0 93.5 29t34.5 78v2q0 52 -34.5 79.5t-96.5 27.5h-165v-216zM93 0v728h331q138 0 212 -74q61 -61 61 -164v-2q0 -85 -42.5 -142t-116.5 -83l182 -263h-180l-161 237h-133v-237h-153z" />
    <glyph glyph-name="S" unicode="S" horiz-adv-x="674" 
d="M351 -10q-179 0 -308 116l91 109q108 -90 220 -90q51 0 80.5 20t29.5 54v2q0 33 -30 53t-120 43q-126 31 -184 77t-58 145v2q0 97 71 157t183 60q154 0 269 -92l-81 -116q-102 73 -191 73q-46 0 -72 -19.5t-26 -48.5v-2q0 -37 31 -56t129 -44q119 -30 175.5 -79
t56.5 -138v-2q0 -105 -73 -164.5t-193 -59.5z" />
    <glyph glyph-name="T" unicode="T" horiz-adv-x="681" 
d="M264 0v586h-224v142h601v-142h-223v-586h-154z" />
    <glyph glyph-name="U" unicode="U" horiz-adv-x="794" 
d="M395 -11q-148 0 -231 82.5t-83 239.5v417h154v-412q0 -90 42.5 -138t119.5 -48t120 46t43 134v418h153v-411q0 -162 -84 -245t-234 -83z" />
    <glyph glyph-name="V" unicode="V" horiz-adv-x="788" 
d="M326 -5l-296 733h170l196 -522l196 522h166l-296 -733h-136z" />
    <glyph glyph-name="W" unicode="W" horiz-adv-x="1174" 
d="M286 -5l-250 733h165l156 -502l166 504h132l166 -504l155 502h161l-249 -733h-134l-167 485l-167 -485h-134z" />
    <glyph glyph-name="X" unicode="X" horiz-adv-x="769" 
d="M546 728h175l-245 -355l255 -373h-180l-169 256l-170 -256h-175l256 370l-245 358h180l158 -242z" />
    <glyph glyph-name="Y" unicode="Y" horiz-adv-x="753" 
d="M299 0v287l-281 441h180l179 -298l183 298h175l-282 -438v-290h-154z" />
    <glyph glyph-name="Z" unicode="Z" horiz-adv-x="743" 
d="M70 0v116l406 477h-393v135h591v-116l-406 -477h406v-135h-604z" />
    <glyph glyph-name="bracketleft" unicode="[" horiz-adv-x="489" 
d="M91 -135v863h333v-119h-187v-625h187v-119h-333z" />
    <glyph glyph-name="backslash" unicode="\" horiz-adv-x="557" 
d="M453 -133l-463 963h129l463 -963h-129z" />
    <glyph glyph-name="bracketright" unicode="]" horiz-adv-x="489" 
d="M65 -135v119h188v625h-188v119h333v-863h-333z" />
    <glyph glyph-name="asciicircum" unicode="^" horiz-adv-x="528" 
d="M57 513l155 215h104l155 -215h-111l-97 125l-97 -125h-109z" />
    <glyph glyph-name="underscore" unicode="_" horiz-adv-x="632" 
d="M2 -166v116h628v-116h-628z" />
    <glyph glyph-name="grave" unicode="`" horiz-adv-x="528" 
d="M255 619l-134 124l132 57l114 -181h-112z" />
    <glyph glyph-name="a" unicode="a" horiz-adv-x="623" 
d="M280 95q57 0 92.5 28.5t35.5 73.5v30q-49 21 -106 21q-53 0 -83 -21t-30 -59v-2q0 -33 25 -52t66 -19zM235 -11q-82 0 -137.5 45.5t-55.5 125.5v2q0 88 61 132.5t164 44.5q71 0 139 -22v10q0 105 -123 105q-72 0 -155 -31l-38 116q102 45 215 45q123 0 187 -62
q60 -60 60 -176v-324h-147v62q-65 -73 -170 -73z" />
    <glyph glyph-name="b" unicode="b" horiz-adv-x="709" 
d="M404 -11q-105 0 -176 86v-75h-152v759h152v-286q68 93 176 93q104 0 179 -77.5t75 -209.5v-2q0 -133 -74.5 -210.5t-179.5 -77.5zM366 119q59 0 99.5 43.5t40.5 114.5v2q0 70 -41 114t-99 44t-99 -44t-41 -114v-2q0 -70 41 -114t99 -44z" />
    <glyph glyph-name="c" unicode="c" horiz-adv-x="602" 
d="M338 -12q-124 0 -206.5 83.5t-82.5 203.5v2q0 120 82.5 204.5t208.5 84.5q138 0 222 -94l-94 -100q-60 63 -129 63q-61 0 -100.5 -45.5t-39.5 -110.5v-2q0 -68 40.5 -113.5t105.5 -45.5q67 0 131 61l89 -89q-45 -50 -97.5 -76t-129.5 -26z" />
    <glyph glyph-name="d" unicode="d" horiz-adv-x="709" 
d="M343 119q58 0 99 44t41 114v2q0 70 -41 114t-99 44q-59 0 -99.5 -43.5t-40.5 -114.5v-2q0 -70 41 -114t99 -44zM305 -11q-104 0 -179 77.5t-75 210.5v2q0 133 74.5 210t179.5 77q106 0 176 -85v278h152v-759h-152v82q-68 -93 -176 -93z" />
    <glyph glyph-name="e" unicode="e" horiz-adv-x="644" 
d="M338 -12q-125 0 -207 80t-82 207v2q0 121 77.5 205t196.5 84q131 0 200.5 -87t69.5 -214q0 -12 -2 -40h-391q11 -56 47.5 -85.5t92.5 -29.5q76 0 138 58l87 -77q-84 -103 -227 -103zM198 320h247q-8 57 -39.5 90.5t-82.5 33.5q-50 0 -83 -33.5t-42 -90.5z" />
    <glyph glyph-name="f" unicode="f" horiz-adv-x="404" 
d="M104 0v426h-67v125h67v36q0 90 44 136q43 43 127 43q63 0 111 -15v-126q-39 13 -73 13q-60 0 -60 -64v-24h132v-124h-130v-426h-151z" />
    <glyph glyph-name="g" unicode="g" horiz-adv-x="709" 
d="M342 171q60 0 100.5 37.5t40.5 96.5v2q0 58 -40.5 95.5t-100.5 37.5t-99.5 -37t-39.5 -96v-2q0 -59 39.5 -96.5t99.5 -37.5zM325 -168q-137 0 -246 59l52 114q91 -52 190 -52q162 0 162 155v30q-38 -46 -81 -69.5t-103 -23.5q-103 0 -175.5 70.5t-72.5 189.5v2
q0 118 73 188.5t175 70.5q106 0 182 -85v75h152v-433q0 -146 -71 -217q-74 -74 -237 -74z" />
    <glyph glyph-name="h" unicode="h" horiz-adv-x="655" 
d="M76 0v759h152v-283q69 90 165 90q90 0 140.5 -55.5t50.5 -151.5v-359h-152v311q0 57 -26 87.5t-74 30.5t-76 -30.5t-28 -87.5v-311h-152z" />
    <glyph glyph-name="i" unicode="i" horiz-adv-x="319" 
d="M79 622v136h160v-136h-160zM84 0v556h151v-556h-151z" />
    <glyph glyph-name="j" unicode="j" horiz-adv-x="319" 
d="M79 622v136h160v-136h-160zM60 -170q-36 0 -67 7v119q26 -4 34 -4q57 0 57 66v538h151v-550q0 -176 -175 -176z" />
    <glyph glyph-name="k" unicode="k" horiz-adv-x="622" 
d="M76 0v759h152v-414l194 211h182l-214 -221l221 -335h-176l-147 231l-60 -64v-167h-152z" />
    <glyph glyph-name="l" unicode="l" horiz-adv-x="319" 
d="M84 0v759h151v-759h-151z" />
    <glyph glyph-name="m" unicode="m" horiz-adv-x="996" 
d="M76 0v556h152v-80q69 90 165 90q112 0 158 -90q74 90 184 90q90 0 139.5 -53t49.5 -153v-360h-152v311q0 118 -96 118q-47 0 -73.5 -30.5t-26.5 -87.5v-311h-152v311q0 57 -25 87.5t-71 30.5t-73 -31t-27 -87v-311h-152z" />
    <glyph glyph-name="n" unicode="n" horiz-adv-x="655" 
d="M76 0v556h152v-80q69 90 165 90q90 0 140.5 -55.5t50.5 -151.5v-359h-152v311q0 57 -26 87.5t-74 30.5t-76 -30.5t-28 -87.5v-311h-152z" />
    <glyph glyph-name="o" unicode="o" horiz-adv-x="697" 
d="M347 -12q-127 0 -212.5 83t-85.5 204v2q0 120 86.5 204.5t214.5 84.5q127 0 212.5 -83.5t85.5 -203.5v-2q0 -121 -86 -205t-215 -84zM350 118q67 0 107.5 45.5t40.5 111.5v2q0 65 -42.5 111.5t-108.5 46.5q-67 0 -107.5 -45t-40.5 -111v-2q0 -65 42.5 -112t108.5 -47z
" />
    <glyph glyph-name="p" unicode="p" horiz-adv-x="709" 
d="M366 119q59 0 99.5 43.5t40.5 114.5v2q0 70 -41 114t-99 44t-99 -44t-41 -114v-2q0 -70 41 -114t99 -44zM76 -166v722h152v-83q68 93 176 93q104 0 179 -77.5t75 -209.5v-2q0 -133 -74.5 -210.5t-179.5 -77.5t-176 86v-241h-152z" />
    <glyph glyph-name="q" unicode="q" horiz-adv-x="709" 
d="M481 -166v248q-68 -93 -176 -93q-104 0 -179 77.5t-75 210.5v2q0 133 74.5 210t179.5 77q106 0 176 -85v75h152v-722h-152zM343 119q58 0 99 44t41 114v2q0 70 -41 114t-99 44q-59 0 -99.5 -43.5t-40.5 -114.5v-2q0 -70 41 -114t99 -44z" />
    <glyph glyph-name="r" unicode="r" horiz-adv-x="442" 
d="M76 0v556h152v-115q55 130 181 125v-159h-8q-82 0 -127.5 -50.5t-45.5 -149.5v-207h-152z" />
    <glyph glyph-name="s" unicode="s" horiz-adv-x="530" 
d="M270 -10q-132 0 -238 83l66 101q91 -67 176 -67q71 0 71 45v2q0 6 -1.5 11t-6 9.5l-8.5 8.5t-12.5 7.5t-14 6.5t-17 6.5t-17.5 5.5t-19.5 6t-20.5 6q-35 10 -60.5 21t-52.5 30t-41 48t-14 67v2q0 81 58 128t145 47q110 0 206 -64l-58 -105q-89 52 -152 52
q-29 0 -45.5 -11.5t-16.5 -30.5v-2q0 -20 24 -33t74 -30l18 -6q36 -11 60.5 -22.5t52 -30t42 -47t14.5 -64.5v-2q0 -88 -58.5 -133t-153.5 -45z" />
    <glyph glyph-name="t" unicode="t" horiz-adv-x="439" 
d="M264 -9q-78 0 -120 37.5t-42 128.5v269h-67v130h67v144h152v-144h134v-130h-134v-244q0 -57 54 -57q42 0 78 19v-122q-54 -31 -122 -31z" />
    <glyph glyph-name="u" unicode="u" horiz-adv-x="655" 
d="M262 -11q-89 0 -139.5 55.5t-50.5 152.5v359h151v-311q0 -57 26 -87.5t74 -30.5t76 30.5t28 87.5v311h152v-556h-152v80q-68 -91 -165 -91z" />
    <glyph glyph-name="v" unicode="v" horiz-adv-x="631" 
d="M247 -4l-221 560h161l129 -380l131 380h158l-221 -560h-137z" />
    <glyph glyph-name="w" unicode="w" horiz-adv-x="903" 
d="M203 -4l-172 560h154l93 -346l109 348h130l109 -349l96 347h151l-175 -560h-137l-110 349l-112 -349h-136z" />
    <glyph glyph-name="x" unicode="x" horiz-adv-x="614" 
d="M200 556l108 -167l110 167h159l-189 -271l197 -285h-163l-117 179l-117 -179h-159l197 283l-189 273h163z" />
    <glyph glyph-name="y" unicode="y" horiz-adv-x="631" 
d="M319 171l126 385h158l-215 -570q-33 -86 -73 -121t-110 -35q-72 0 -138 38l51 110q37 -21 69 -21q22 0 35 8.5t25 32.5l-221 558h161z" />
    <glyph glyph-name="z" unicode="z" horiz-adv-x="593" 
d="M56 0v106l294 327h-284v123h474v-107l-295 -326h295v-123h-484z" />
    <glyph glyph-name="braceleft" unicode="{" horiz-adv-x="517" 
d="M437 -147q-137 24 -189.5 73t-52.5 134q0 7 1.5 35t1.5 37q0 60 -26.5 84.5t-88.5 24.5h-27v115h27q62 0 88.5 24.5t26.5 84.5q0 9 -1.5 37t-1.5 35q0 85 52.5 134t189.5 73l26 -101q-81 -23 -105 -49t-24 -79q0 -10 1.5 -38t1.5 -39q0 -104 -109 -140q109 -34 109 -140
q0 -10 -1.5 -38.5t-1.5 -38.5q0 -52 24 -78t105 -49z" />
    <glyph glyph-name="bar" unicode="|" horiz-adv-x="368" 
d="M124 -133v963h120v-963h-120z" />
    <glyph glyph-name="braceright" unicode="}" horiz-adv-x="517" 
d="M80 -147l-26 101q81 23 105 49t24 78q0 10 -1.5 38.5t-1.5 38.5q0 106 109 140q-109 36 -109 140q0 11 1.5 39t1.5 38q0 53 -24 79t-105 49l26 101q137 -24 189.5 -73t52.5 -134q0 -7 -1.5 -35t-1.5 -37q0 -60 26.5 -84.5t88.5 -24.5h27v-115h-27q-62 0 -88.5 -24.5
t-26.5 -84.5q0 -9 1.5 -37t1.5 -35q0 -85 -52.5 -134t-189.5 -73z" />
    <glyph glyph-name="asciitilde" unicode="~" horiz-adv-x="535" 
d="M352 244q-33 0 -93 23q-43 18 -62 18q-23 0 -35 -11.5t-24 -39.5l-81 25q20 71 48 106t78 35q40 0 94 -23q46 -18 61 -18q23 0 35 11.5t24 39.5l81 -25q-19 -70 -47.5 -105.5t-78.5 -35.5z" />
    <glyph glyph-name="uni00A0" unicode="&#xa0;" horiz-adv-x="320" 
 />
    <glyph glyph-name="exclamdown" unicode="&#xa1;" horiz-adv-x="340" 
d="M89 566v162h162v-162h-162zM81 0v24l47 460h84l47 -460v-24h-178z" />
    <glyph glyph-name="cent" unicode="&#xa2;" horiz-adv-x="612" 
d="M201 369q0 -99 70 -139l58 297h-1q-55 -4 -91.5 -49t-35.5 -107v-2zM470 734l-18 -92q67 -22 115 -77l-90 -97q-30 29 -55 41l-59 -297h1q61 6 117 60l86 -87q-94 -104 -224 -105h-1l-17 -86h-104l20 103q-83 30 -135 103.5t-52 166.5v2q0 121 82.5 205.5t207.5 84.5h6
l15 75h105z" />
    <glyph glyph-name="sterling" unicode="&#xa3;" horiz-adv-x="678" 
d="M67 0v100l80 26v154h-80v127h80v87q0 114 62 178q66 66 183 66q146 0 233 -119l-117 -93q-29 36 -54.5 53t-59.5 17q-39 0 -63 -25q-29 -27 -29 -81v-83h242v-127h-242v-147h321v-133h-556z" />
    <glyph glyph-name="yen" unicode="&#xa5;" horiz-adv-x="721" 
d="M94 273v108h152l-226 347h177l165 -276l168 276h172l-227 -347h153v-108h-193v-67h193v-108h-193v-98h-148v98h-193v108h193v67h-193z" />
    <glyph glyph-name="section" unicode="&#xa7;" horiz-adv-x="665" 
d="M408 298q28 0 45 13t17 35v2q0 21 -25 35t-83 28q-73 19 -105 19q-27 0 -44.5 -13t-17.5 -35v-2q0 -21 25.5 -35t83.5 -28q72 -19 104 -19zM507 247q47 -34 47 -96v-2q0 -73 -56 -116t-156 -43q-152 0 -242 98l83 83q76 -70 156 -70q71 0 71 40v2q0 19 -25 32.5t-94 28.5
q-124 27 -176.5 62t-52.5 92v2q0 88 96 121q-46 35 -46 96v2q0 74 56 116.5t155 42.5q152 0 242 -98l-83 -83q-75 70 -155 70q-34 0 -53 -11t-19 -29v-2q0 -19 23.5 -32t95.5 -29q125 -27 177 -61.5t52 -92.5v-2q0 -88 -96 -121z" />
    <glyph glyph-name="dieresis" unicode="&#xa8;" horiz-adv-x="528" 
d="M84 619v137h147v-137h-147zM297 619v137h147v-137h-147z" />
    <glyph glyph-name="copyright" unicode="&#xa9;" horiz-adv-x="871" 
d="M435 -12q-158 0 -267 109.5t-109 264.5v2q0 155 110.5 265.5t267.5 110.5t266 -109.5t109 -264.5v-2q0 -155 -110 -265.5t-267 -110.5zM435 28q141 0 237.5 98.5t96.5 237.5v2q0 140 -95.5 237t-236.5 97q-142 0 -238.5 -98.5t-96.5 -237.5v-2q0 -140 95.5 -237
t237.5 -97zM440 163q-87 0 -145.5 59t-58.5 145v2q0 86 58.5 146.5t148.5 60.5q95 0 157 -62l-55 -64q-52 45 -102 45t-83 -36t-33 -89v-2q0 -51 32.5 -87.5t83.5 -36.5q52 0 104 47l56 -57q-66 -71 -163 -71z" />
    <glyph glyph-name="ordfeminine" unicode="&#xaa;" horiz-adv-x="414" 
d="M189 475q31 0 51 15.5t20 39.5v17q-31 11 -59 11q-60 0 -60 -43v-2q0 -17 13 -27.5t35 -10.5zM164 416q-45 0 -75 24.5t-30 68.5v2q0 49 33.5 73.5t90.5 24.5q38 0 76 -12v5q0 57 -68 57q-42 0 -85 -17l-21 64q53 25 118 25q69 0 103 -34q33 -33 33 -97v-178h-81v34
q-34 -40 -94 -40zM56 289v67h287v-67h-287z" />
    <glyph glyph-name="guillemotleft" unicode="&#xab;" horiz-adv-x="671" 
d="M231 44l-184 230v8l184 230l106 -52l-126 -181l126 -181zM510 44l-184 230v8l184 230l106 -52l-126 -181l126 -181z" />
    <glyph glyph-name="registered" unicode="&#xae;" horiz-adv-x="394" 
d="M197 374q-76 0 -128.5 53.5t-52.5 127.5v1q0 75 53 128.5t128 53.5q76 0 128.5 -53t52.5 -128v-1q0 -74 -53 -128t-128 -54zM197 394q67 0 113.5 47.5t46.5 114.5v1q0 67 -46 114.5t-114 47.5t-114 -48t-46 -115v-1q0 -67 46 -114t114 -47zM171 563h35q30 0 30 24v1
q0 10 -8 16.5t-22 5.5h-35v-47zM119 464v191h90q37 0 58.5 -16t21.5 -48v-1q0 -21 -11 -37t-29 -22l46 -67h-61l-39 58h-24v-58h-52z" />
    <glyph glyph-name="macron" unicode="&#xaf;" horiz-adv-x="528" 
d="M79 625v106h370v-106h-370z" />
    <glyph glyph-name="degree" unicode="&#xb0;" horiz-adv-x="505" 
d="M253 385q-71 0 -125 52t-54 122v2q0 70 54 121.5t125 51.5t124.5 -51.5t53.5 -121.5v-2q0 -70 -53.5 -122t-124.5 -52zM253 462q41 0 68.5 28.5t27.5 68.5v2q0 40 -27.5 68.5t-68.5 28.5t-69 -28.5t-28 -68.5v-2q0 -40 28 -68.5t69 -28.5z" />
    <glyph glyph-name="plusminus" unicode="&#xb1;" horiz-adv-x="672" 
d="M592 393l-189 1l1 -186h-136l1 186l-189 -1v132l189 -1l-1 186h136l-1 -186l189 1v-132zM592 0h-512v126h512v-126z" />
    <glyph glyph-name="two.sup" unicode="&#xb2;" 
d="M57 437v75l139 114q39 32 54.5 52t15.5 44q0 23 -16 36t-40 13q-46 0 -90 -56l-63 51q33 44 68.5 65.5t89.5 21.5q64 0 103.5 -34t39.5 -89q0 -42 -19 -72t-67 -68l-96 -76h184v-77h-303z" />
    <glyph glyph-name="three.sup" unicode="&#xb3;" 
d="M206 427q-91 0 -161 63l51 65q54 -49 111 -49q26 0 44.5 14.5t18.5 37.5q0 25 -21 38.5t-56 13.5h-48l-14 55l110 99h-169v78h280v-68l-117 -100q55 -5 89.5 -33.5t34.5 -79.5q0 -60 -41.5 -97t-111.5 -37z" />
    <glyph glyph-name="acute" unicode="&#xb4;" horiz-adv-x="528" 
d="M161 619l114 181l132 -57l-134 -124h-112z" />
    <glyph glyph-name="mu" unicode="&#xb5;" horiz-adv-x="704" 
d="M676 122v-117q-38 -11 -82 -11q-101 0 -134 69q-45 -70 -124 -70q-41 0 -77 19.5t-52 56.5h-2q20 -84 20 -124v-111h-149v722h152v-315q0 -57 27 -88t75 -31q49 0 77.5 31t28.5 88v315h152v-385q1 -28 14.5 -40t40.5 -12q19 0 33 3z" />
    <glyph glyph-name="paragraph" unicode="&#xb6;" horiz-adv-x="615" 
d="M369 0v242h-24q-136 0 -219.5 62.5t-83.5 178.5v2q0 113 78.5 178t207.5 65h195v-728h-154z" />
    <glyph glyph-name="periodcentered" unicode="&#xb7;" horiz-adv-x="302" 
d="M70 241v161h162v-161h-162z" />
    <glyph glyph-name="cedilla" unicode="&#xb8;" horiz-adv-x="528" 
d="M257 -178l-128 53l100 145h109z" />
    <glyph glyph-name="one.sup" unicode="&#xb9;" horiz-adv-x="342" 
d="M240 437h-87v318l-79 -29l-25 72l126 50h65v-411z" />
    <glyph glyph-name="ordmasculine" unicode="&#xba;" horiz-adv-x="414" 
d="M206 415q-68 0 -113.5 45.5t-45.5 111.5v2q0 66 46.5 112.5t114.5 46.5t113 -45.5t45 -111.5v-3q0 -66 -46 -112t-114 -46zM208 488q34 0 54.5 24.5t20.5 59.5v2q0 35 -21.5 60.5t-55.5 25.5t-55 -24.5t-21 -59.5v-3q0 -35 22 -60t56 -25zM57 289v67h300v-67h-300z" />
    <glyph glyph-name="guillemotright" unicode="&#xbb;" horiz-adv-x="671" 
d="M161 44l-106 52l126 181l-126 181l106 54l184 -230v-8zM439 44l-106 52l126 181l-126 181l106 54l184 -230v-8z" />
    <glyph glyph-name="onequarter" unicode="&#xbc;" horiz-adv-x="867" 
d="M242 323h-87v318l-79 -30l-25 73l126 49h65v-410zM131 0l264 381l230 347h84l-264 -381l-230 -347h-84zM771 84v-86h-80v86h-196l-8 83l196 243h88v-257h55v-69h-55zM692 152v162l-129 -162h129z" />
    <glyph glyph-name="onehalf" unicode="&#xbd;" horiz-adv-x="867" 
d="M242 323h-87v318l-79 -30l-25 73l126 49h65v-410zM121 0l264 381l230 347h84l-264 -381l-230 -347h-84zM511 0v75l139 114q39 32 54.5 52t15.5 44q0 23 -16 36t-40 13q-46 0 -90 -56l-63 51q33 44 68.5 65.5t89.5 21.5q64 0 103.5 -34t39.5 -89q0 -42 -19 -72t-67 -68
l-96 -76h184v-77h-303z" />
    <glyph glyph-name="threequarters" unicode="&#xbe;" horiz-adv-x="945" 
d="M204 0l264 381l230 347h84l-264 -381l-230 -347h-84zM208 312q-90 0 -161 64l51 65q54 -49 111 -49q26 0 44.5 14.5t18.5 37.5q0 25 -21 38.5t-56 13.5h-48l-14 55l110 98h-169v79h280v-68l-117 -101q55 -4 89.5 -32.5t34.5 -79.5q0 -61 -41.5 -98t-111.5 -37zM849 84
v-86h-80v86h-196l-8 83l196 243h88v-257h55v-69h-55zM770 152v162l-129 -162h129z" />
    <glyph glyph-name="questiondown" unicode="&#xbf;" horiz-adv-x="573" 
d="M233 566v162h163v-162h-163zM294 -9q-114 0 -182.5 56.5t-68.5 157.5v2q0 169 206 209l12 68h101l24 -169l-6 -5q-184 -7 -184 -99v-2q0 -37 27 -58t74 -21q86 0 158 74l92 -100q-101 -113 -253 -113z" />
    <glyph glyph-name="Agrave" unicode="&#xc0;" horiz-adv-x="830" 
d="M476 796h-116l-140 103l132 58zM310 302h205l-102 247zM30 0l314 733h142l313 -733h-161l-68 166h-315l-68 -166h-157z" />
    <glyph glyph-name="Aacute" unicode="&#xc1;" horiz-adv-x="830" 
d="M353 796l124 161l132 -58l-140 -103h-116zM310 302h205l-102 247zM30 0l314 733h142l313 -733h-161l-68 166h-315l-68 -166h-157z" />
    <glyph glyph-name="Acircumflex" unicode="&#xc2;" horiz-adv-x="830" 
d="M212 792l131 150h144l131 -150h-122l-82 58l-82 -58h-120zM310 302h205l-102 247zM30 0l314 733h142l313 -733h-161l-68 166h-315l-68 -166h-157z" />
    <glyph glyph-name="Atilde" unicode="&#xc3;" horiz-adv-x="830" 
d="M507 796q-39 0 -99 24q-44 16 -61 16q-23 0 -35.5 -11.5t-24.5 -39.5l-82 26q19 70 48.5 105t79.5 35q39 0 99 -24q47 -17 61 -17q22 0 35 12t25 39l81 -25q-19 -70 -48 -105t-79 -35zM310 302h205l-102 247zM30 0l314 733h142l313 -733h-161l-68 166h-315l-68 -166h-157
z" />
    <glyph glyph-name="Adieresis" unicode="&#xc4;" horiz-adv-x="830" 
d="M229 796v129h148v-129h-148zM453 796v129h148v-129h-148zM310 302h205l-102 247zM30 0l314 733h142l313 -733h-161l-68 166h-315l-68 -166h-157z" />
    <glyph glyph-name="Aring" unicode="&#xc5;" horiz-adv-x="830" 
d="M415 714q29 0 47.5 17t18.5 41q0 25 -18.5 42t-47.5 17t-47.5 -17t-18.5 -42t18.5 -41.5t47.5 -16.5zM310 302h205l-102 247zM30 0l295 690q-38 32 -38 82q0 49 37.5 81.5t90.5 32.5t90.5 -32.5t37.5 -81.5q0 -50 -39 -82l295 -690h-161l-68 166h-315l-68 -166h-157z" />
    <glyph glyph-name="AE" unicode="&#xc6;" horiz-adv-x="1095" 
d="M332 302h176v293h-19zM14 0l395 728h621v-137h-369v-156h322v-137h-322v-161h374v-137h-527v166h-248l-89 -166h-157z" />
    <glyph glyph-name="Ccedilla" unicode="&#xc7;" horiz-adv-x="776" 
d="M391 -178l-128 53l84 122q-127 28 -207 129t-80 236v2q0 158 107 267t272 109q97 0 164 -28.5t123 -83.5l-98 -113q-92 84 -190 84q-93 0 -155 -68t-62 -165v-2q0 -98 61.5 -166.5t155.5 -68.5q59 0 102.5 21.5t92.5 65.5l98 -99q-56 -60 -120 -92t-152 -36z" />
    <glyph glyph-name="Egrave" unicode="&#xc8;" horiz-adv-x="705" 
d="M430 786h-116l-140 103l132 58zM93 0v728h547v-137h-395v-156h348v-137h-348v-161h400v-137h-552z" />
    <glyph glyph-name="Eacute" unicode="&#xc9;" horiz-adv-x="705" 
d="M307 786l124 161l132 -58l-140 -103h-116zM93 0v728h547v-137h-395v-156h348v-137h-348v-161h400v-137h-552z" />
    <glyph glyph-name="Ecircumflex" unicode="&#xca;" horiz-adv-x="705" 
d="M165 786l131 150h144l131 -150h-122l-82 58l-82 -58h-120zM93 0v728h547v-137h-395v-156h348v-137h-348v-161h400v-137h-552z" />
    <glyph glyph-name="Edieresis" unicode="&#xcb;" horiz-adv-x="705" 
d="M182 786v129h148v-129h-148zM406 786v129h148v-129h-148zM93 0v728h547v-137h-395v-156h348v-137h-348v-161h400v-137h-552z" />
    <glyph glyph-name="Igrave" unicode="&#xcc;" horiz-adv-x="354" 
d="M238 786h-116l-140 103l132 58zM100 0v728h154v-728h-154z" />
    <glyph glyph-name="Iacute" unicode="&#xcd;" horiz-adv-x="354" 
d="M115 786l124 161l132 -58l-140 -103h-116zM100 0v728h154v-728h-154z" />
    <glyph glyph-name="Icircumflex" unicode="&#xce;" horiz-adv-x="354" 
d="M-26 786l131 150h144l131 -150h-122l-82 58l-82 -58h-120zM100 0v728h154v-728h-154z" />
    <glyph glyph-name="Idieresis" unicode="&#xcf;" horiz-adv-x="354" 
d="M-9 786v129h148v-129h-148zM215 786v129h148v-129h-148zM100 0v728h154v-728h-154z" />
    <glyph glyph-name="Eth" unicode="&#xd0;" horiz-adv-x="852" 
d="M124 0v313h-78v106h78v309h281q170 0 278.5 -103.5t108.5 -258.5v-2q0 -156 -108.5 -260t-278.5 -104h-281zM439 313h-161v-174h127q102 0 164 62t62 161v2q0 100 -62.5 162.5t-163.5 62.5h-127v-170h161v-106z" />
    <glyph glyph-name="Ntilde" unicode="&#xd1;" horiz-adv-x="830" 
d="M507 786q-39 0 -99 24q-44 16 -61 16q-23 0 -35.5 -11.5t-24.5 -39.5l-82 26q19 70 48.5 105t79.5 35q39 0 99 -24q47 -17 61 -17q22 0 35 12t25 39l81 -25q-19 -70 -48 -105t-79 -35zM93 0v728h141l351 -459v459h152v-728h-131l-362 474v-474h-151z" />
    <glyph glyph-name="Ograve" unicode="&#xd2;" horiz-adv-x="892" 
d="M508 796h-116l-140 103l132 58zM445 -12q-166 0 -275.5 108.5t-109.5 265.5v2q0 157 110.5 266.5t276.5 109.5t275.5 -108.5t109.5 -265.5v-2q0 -157 -110.5 -266.5t-276.5 -109.5zM447 129q97 0 160.5 67.5t63.5 165.5v2q0 98 -64.5 166.5t-161.5 68.5t-160.5 -67.5
t-63.5 -165.5v-2q0 -98 64.5 -166.5t161.5 -68.5z" />
    <glyph glyph-name="Oacute" unicode="&#xd3;" horiz-adv-x="892" 
d="M384 796l124 161l132 -58l-140 -103h-116zM445 -12q-166 0 -275.5 108.5t-109.5 265.5v2q0 157 110.5 266.5t276.5 109.5t275.5 -108.5t109.5 -265.5v-2q0 -157 -110.5 -266.5t-276.5 -109.5zM447 129q97 0 160.5 67.5t63.5 165.5v2q0 98 -64.5 166.5t-161.5 68.5
t-160.5 -67.5t-63.5 -165.5v-2q0 -98 64.5 -166.5t161.5 -68.5z" />
    <glyph glyph-name="Ocircumflex" unicode="&#xd4;" horiz-adv-x="892" 
d="M243 796l131 150h144l131 -150h-122l-82 58l-82 -58h-120zM445 -12q-166 0 -275.5 108.5t-109.5 265.5v2q0 157 110.5 266.5t276.5 109.5t275.5 -108.5t109.5 -265.5v-2q0 -157 -110.5 -266.5t-276.5 -109.5zM447 129q97 0 160.5 67.5t63.5 165.5v2q0 98 -64.5 166.5
t-161.5 68.5t-160.5 -67.5t-63.5 -165.5v-2q0 -98 64.5 -166.5t161.5 -68.5z" />
    <glyph glyph-name="Otilde" unicode="&#xd5;" horiz-adv-x="892" 
d="M538 796q-39 0 -99 24q-44 16 -61 16q-23 0 -35.5 -11.5t-24.5 -39.5l-82 26q19 70 48.5 105t79.5 35q39 0 99 -24q47 -17 61 -17q22 0 35 12t25 39l81 -25q-19 -70 -48 -105t-79 -35zM445 -12q-166 0 -275.5 108.5t-109.5 265.5v2q0 157 110.5 266.5t276.5 109.5
t275.5 -108.5t109.5 -265.5v-2q0 -157 -110.5 -266.5t-276.5 -109.5zM447 129q97 0 160.5 67.5t63.5 165.5v2q0 98 -64.5 166.5t-161.5 68.5t-160.5 -67.5t-63.5 -165.5v-2q0 -98 64.5 -166.5t161.5 -68.5z" />
    <glyph glyph-name="Odieresis" unicode="&#xd6;" horiz-adv-x="892" 
d="M260 796v129h148v-129h-148zM484 796v129h148v-129h-148zM445 -12q-166 0 -275.5 108.5t-109.5 265.5v2q0 157 110.5 266.5t276.5 109.5t275.5 -108.5t109.5 -265.5v-2q0 -157 -110.5 -266.5t-276.5 -109.5zM447 129q97 0 160.5 67.5t63.5 165.5v2q0 98 -64.5 166.5
t-161.5 68.5t-160.5 -67.5t-63.5 -165.5v-2q0 -98 64.5 -166.5t161.5 -68.5z" />
    <glyph glyph-name="multiply" unicode="&#xd7;" horiz-adv-x="672" 
d="M498 109l-163 167l-163 -167l-93 93l167 163l-167 163l95 95l163 -167l163 167l93 -93l-167 -163l167 -163z" />
    <glyph glyph-name="Oslash" unicode="&#xd8;" horiz-adv-x="892" 
d="M693 733h147l-102 -118q94 -105 94 -249v-2q0 -157 -110.5 -266.5t-276.5 -109.5q-114 0 -204 53l-42 -46h-147l102 118q-94 105 -94 249v2q0 157 110.5 266.5t276.5 109.5q111 0 203 -54zM218 364q0 -74 39 -135l298 345q-50 28 -110 28q-98 0 -162.5 -69t-64.5 -167v-2
zM447 126q98 0 162.5 69t64.5 167v2q0 75 -39 134l-298 -344q50 -28 110 -28z" />
    <glyph glyph-name="Ugrave" unicode="&#xd9;" horiz-adv-x="794" 
d="M459 786h-116l-140 103l132 58zM395 -11q-148 0 -231 82.5t-83 239.5v417h154v-412q0 -90 42.5 -138t119.5 -48t120 46t43 134v418h153v-411q0 -162 -84 -245t-234 -83z" />
    <glyph glyph-name="Uacute" unicode="&#xda;" horiz-adv-x="794" 
d="M336 786l124 161l132 -58l-140 -103h-116zM395 -11q-148 0 -231 82.5t-83 239.5v417h154v-412q0 -90 42.5 -138t119.5 -48t120 46t43 134v418h153v-411q0 -162 -84 -245t-234 -83z" />
    <glyph glyph-name="Ucircumflex" unicode="&#xdb;" horiz-adv-x="794" 
d="M194 786l131 150h144l131 -150h-122l-82 58l-82 -58h-120zM395 -11q-148 0 -231 82.5t-83 239.5v417h154v-412q0 -90 42.5 -138t119.5 -48t120 46t43 134v418h153v-411q0 -162 -84 -245t-234 -83z" />
    <glyph glyph-name="Udieresis" unicode="&#xdc;" horiz-adv-x="794" 
d="M211 786v129h148v-129h-148zM435 786v129h148v-129h-148zM395 -11q-148 0 -231 82.5t-83 239.5v417h154v-412q0 -90 42.5 -138t119.5 -48t120 46t43 134v418h153v-411q0 -162 -84 -245t-234 -83z" />
    <glyph glyph-name="Yacute" unicode="&#xdd;" horiz-adv-x="753" 
d="M315 786l124 161l132 -58l-140 -103h-116zM299 0v287l-281 441h180l179 -298l183 298h175l-282 -438v-290h-154z" />
    <glyph glyph-name="Thorn" unicode="&#xde;" horiz-adv-x="708" 
d="M93 0v728h153v-108h142q128 0 203 -68.5t75 -181.5v-2q0 -121 -83 -187.5t-210 -66.5h-127v-114h-153zM246 251h132q61 0 97 32t36 82v2q0 55 -36.5 84.5t-99.5 29.5h-129v-230z" />
    <glyph glyph-name="germandbls" unicode="&#xdf;" horiz-adv-x="653" 
d="M314 -2v114q67 3 103 28.5t36 70.5v2q0 43 -38 69.5t-101 35.5v100q97 57 97 132v2q0 40 -23.5 63t-64.5 23q-43 0 -69.5 -29.5t-26.5 -79.5v-529h-151v523q0 114 68.5 178.5t185.5 64.5q108 0 169.5 -56t61.5 -144v-2q0 -62 -26 -101.5t-73 -69.5q141 -59 141 -185v-2
q0 -102 -78 -157.5t-211 -50.5z" />
    <glyph glyph-name="agrave" unicode="&#xe0;" horiz-adv-x="623" 
d="M261 619l-134 124l132 57l114 -181h-112zM280 95q57 0 92.5 28.5t35.5 73.5v30q-49 21 -106 21q-53 0 -83 -21t-30 -59v-2q0 -33 25 -52t66 -19zM235 -11q-82 0 -137.5 45.5t-55.5 125.5v2q0 88 61 132.5t164 44.5q71 0 139 -22v10q0 105 -123 105q-72 0 -155 -31
l-38 116q102 45 215 45q123 0 187 -62q60 -60 60 -176v-324h-147v62q-65 -73 -170 -73z" />
    <glyph glyph-name="aacute" unicode="&#xe1;" horiz-adv-x="623" 
d="M253 619l114 181l132 -57l-134 -124h-112zM280 95q57 0 92.5 28.5t35.5 73.5v30q-49 21 -106 21q-53 0 -83 -21t-30 -59v-2q0 -33 25 -52t66 -19zM235 -11q-82 0 -137.5 45.5t-55.5 125.5v2q0 88 61 132.5t164 44.5q71 0 139 -22v10q0 105 -123 105q-72 0 -155 -31
l-38 116q102 45 215 45q123 0 187 -62q60 -60 60 -176v-324h-147v62q-65 -73 -170 -73z" />
    <glyph glyph-name="acircumflex" unicode="&#xe2;" horiz-adv-x="623" 
d="M115 619l126 161h144l126 -161h-117l-82 69l-82 -69h-115zM280 95q57 0 92.5 28.5t35.5 73.5v30q-49 21 -106 21q-53 0 -83 -21t-30 -59v-2q0 -33 25 -52t66 -19zM235 -11q-82 0 -137.5 45.5t-55.5 125.5v2q0 88 61 132.5t164 44.5q71 0 139 -22v10q0 105 -123 105
q-72 0 -155 -31l-38 116q102 45 215 45q123 0 187 -62q60 -60 60 -176v-324h-147v62q-65 -73 -170 -73z" />
    <glyph glyph-name="atilde" unicode="&#xe3;" horiz-adv-x="623" 
d="M402 619q-39 0 -93 23q-45 17 -61 17q-23 0 -35.5 -12t-23.5 -39l-82 25q20 71 48.5 106t78.5 35q39 0 93 -23q48 -18 61 -18q23 0 35.5 12t23.5 40l82 -25q-20 -71 -48.5 -106t-78.5 -35zM280 95q57 0 92.5 28.5t35.5 73.5v30q-49 21 -106 21q-53 0 -83 -21t-30 -59v-2
q0 -33 25 -52t66 -19zM235 -11q-82 0 -137.5 45.5t-55.5 125.5v2q0 88 61 132.5t164 44.5q71 0 139 -22v10q0 105 -123 105q-72 0 -155 -31l-38 116q102 45 215 45q123 0 187 -62q60 -60 60 -176v-324h-147v62q-65 -73 -170 -73z" />
    <glyph glyph-name="adieresis" unicode="&#xe4;" horiz-adv-x="623" 
d="M133 619v137h147v-137h-147zM346 619v137h147v-137h-147zM280 95q57 0 92.5 28.5t35.5 73.5v30q-49 21 -106 21q-53 0 -83 -21t-30 -59v-2q0 -33 25 -52t66 -19zM235 -11q-82 0 -137.5 45.5t-55.5 125.5v2q0 88 61 132.5t164 44.5q71 0 139 -22v10q0 105 -123 105
q-72 0 -155 -31l-38 116q102 45 215 45q123 0 187 -62q60 -60 60 -176v-324h-147v62q-65 -73 -170 -73z" />
    <glyph glyph-name="aring" unicode="&#xe5;" horiz-adv-x="623" 
d="M313 617q-52 0 -88.5 35t-36.5 85t36.5 85.5t88.5 35.5t88.5 -35.5t36.5 -85.5t-36.5 -85t-88.5 -35zM313 668q28 0 48.5 20.5t20.5 48.5q0 29 -20 49t-49 20t-49 -20t-20 -49q0 -28 20.5 -48.5t48.5 -20.5zM280 95q57 0 92.5 28.5t35.5 73.5v30q-49 21 -106 21
q-53 0 -83 -21t-30 -59v-2q0 -33 25 -52t66 -19zM235 -11q-82 0 -137.5 45.5t-55.5 125.5v2q0 88 61 132.5t164 44.5q71 0 139 -22v10q0 105 -123 105q-72 0 -155 -31l-38 116q102 45 215 45q123 0 187 -62q60 -60 60 -176v-324h-147v62q-65 -73 -170 -73z" />
    <glyph glyph-name="ae" unicode="&#xe6;" horiz-adv-x="997" 
d="M551 320h247q-7 56 -39 90t-83 34q-50 0 -83 -33.5t-42 -90.5zM252 -11q-92 0 -151 46t-59 125v2q0 88 61 132.5t164 44.5q70 0 138 -22v10q0 105 -122 105q-72 0 -155 -31l-38 116q98 45 214 45q134 0 190 -74q73 78 186 78q86 0 147.5 -43t90 -109.5t28.5 -148.5
q0 -12 -2 -40h-391q11 -56 48 -85.5t93 -29.5q76 0 138 58l87 -77q-84 -103 -227 -103q-132 0 -213 86q-112 -85 -227 -85zM279 97q78 0 147 56q-16 36 -20 75q-51 20 -104 20t-83 -21t-30 -59v-2q0 -31 26 -50t64 -19z" />
    <glyph glyph-name="ccedilla" unicode="&#xe7;" horiz-adv-x="602" 
d="M295 -178l-128 53l86 125q-92 26 -148 101.5t-56 173.5v2q0 120 82.5 204.5t208.5 84.5q138 0 222 -94l-94 -100q-60 63 -129 63q-61 0 -100.5 -45.5t-39.5 -110.5v-2q0 -68 40.5 -113.5t105.5 -45.5q67 0 131 61l89 -89q-83 -94 -202 -101z" />
    <glyph glyph-name="egrave" unicode="&#xe8;" horiz-adv-x="644" 
d="M269 619l-134 124l132 57l114 -181h-112zM338 -12q-125 0 -207 80t-82 207v2q0 121 77.5 205t196.5 84q131 0 200.5 -87t69.5 -214q0 -12 -2 -40h-391q11 -56 47.5 -85.5t92.5 -29.5q76 0 138 58l87 -77q-84 -103 -227 -103zM198 320h247q-8 57 -39.5 90.5t-82.5 33.5
q-50 0 -83 -33.5t-42 -90.5z" />
    <glyph glyph-name="eacute" unicode="&#xe9;" horiz-adv-x="644" 
d="M261 619l114 181l132 -57l-134 -124h-112zM338 -12q-125 0 -207 80t-82 207v2q0 121 77.5 205t196.5 84q131 0 200.5 -87t69.5 -214q0 -12 -2 -40h-391q11 -56 47.5 -85.5t92.5 -29.5q76 0 138 58l87 -77q-84 -103 -227 -103zM198 320h247q-8 57 -39.5 90.5t-82.5 33.5
q-50 0 -83 -33.5t-42 -90.5z" />
    <glyph glyph-name="ecircumflex" unicode="&#xea;" horiz-adv-x="644" 
d="M123 619l126 161h144l126 -161h-117l-82 69l-82 -69h-115zM338 -12q-125 0 -207 80t-82 207v2q0 121 77.5 205t196.5 84q131 0 200.5 -87t69.5 -214q0 -12 -2 -40h-391q11 -56 47.5 -85.5t92.5 -29.5q76 0 138 58l87 -77q-84 -103 -227 -103zM198 320h247
q-8 57 -39.5 90.5t-82.5 33.5q-50 0 -83 -33.5t-42 -90.5z" />
    <glyph glyph-name="edieresis" unicode="&#xeb;" horiz-adv-x="644" 
d="M141 619v137h147v-137h-147zM354 619v137h147v-137h-147zM338 -12q-125 0 -207 80t-82 207v2q0 121 77.5 205t196.5 84q131 0 200.5 -87t69.5 -214q0 -12 -2 -40h-391q11 -56 47.5 -85.5t92.5 -29.5q76 0 138 58l87 -77q-84 -103 -227 -103zM198 320h247
q-8 57 -39.5 90.5t-82.5 33.5q-50 0 -83 -33.5t-42 -90.5z" />
    <glyph glyph-name="igrave" unicode="&#xec;" horiz-adv-x="319" 
d="M107 619l-134 124l132 57l114 -181h-112zM84 0v556h151v-556h-151z" />
    <glyph glyph-name="iacute" unicode="&#xed;" horiz-adv-x="319" 
d="M100 619l114 181l132 -57l-134 -124h-112zM84 0v556h151v-556h-151z" />
    <glyph glyph-name="icircumflex" unicode="&#xee;" horiz-adv-x="319" 
d="M-39 619l126 161h144l126 -161h-117l-82 69l-82 -69h-115zM84 0v556h151v-556h-151z" />
    <glyph glyph-name="idieresis" unicode="&#xef;" horiz-adv-x="319" 
d="M-21 619v137h147v-137h-147zM192 619v137h147v-137h-147zM84 0v556h151v-556h-151z" />
    <glyph glyph-name="eth" unicode="&#xf0;" horiz-adv-x="698" 
d="M560 682l-78 -21q165 -172 165 -357v-2q0 -133 -81.5 -223.5t-218.5 -90.5q-128 0 -213 84.5t-85 210.5v2q0 113 72 191t176 78q69 0 132 -40q-30 48 -91 109l-129 -34l-27 81l81 21q-43 34 -91 68h202l36 -30l124 32zM350 118q67 0 107.5 44.5t40.5 110.5v2
q0 65 -42.5 110.5t-108.5 45.5q-68 0 -108 -44t-40 -110v-2q0 -65 42.5 -111t108.5 -46z" />
    <glyph glyph-name="ntilde" unicode="&#xf1;" horiz-adv-x="655" 
d="M418 619q-39 0 -93 23q-45 17 -61 17q-23 0 -35.5 -12t-23.5 -39l-82 25q20 71 48.5 106t78.5 35q39 0 93 -23q48 -18 61 -18q23 0 35.5 12t23.5 40l82 -25q-20 -71 -48.5 -106t-78.5 -35zM76 0v556h152v-80q69 90 165 90q90 0 140.5 -55.5t50.5 -151.5v-359h-152v311
q0 57 -26 87.5t-74 30.5t-76 -30.5t-28 -87.5v-311h-152z" />
    <glyph glyph-name="ograve" unicode="&#xf2;" horiz-adv-x="697" 
d="M296 619l-134 124l132 57l114 -181h-112zM347 -12q-127 0 -212.5 83t-85.5 204v2q0 120 86.5 204.5t214.5 84.5q127 0 212.5 -83.5t85.5 -203.5v-2q0 -121 -86 -205t-215 -84zM350 118q67 0 107.5 45.5t40.5 111.5v2q0 65 -42.5 111.5t-108.5 46.5q-67 0 -107.5 -45
t-40.5 -111v-2q0 -65 42.5 -112t108.5 -47z" />
    <glyph glyph-name="oacute" unicode="&#xf3;" horiz-adv-x="697" 
d="M289 619l114 181l132 -57l-134 -124h-112zM347 -12q-127 0 -212.5 83t-85.5 204v2q0 120 86.5 204.5t214.5 84.5q127 0 212.5 -83.5t85.5 -203.5v-2q0 -121 -86 -205t-215 -84zM350 118q67 0 107.5 45.5t40.5 111.5v2q0 65 -42.5 111.5t-108.5 46.5q-67 0 -107.5 -45
t-40.5 -111v-2q0 -65 42.5 -112t108.5 -47z" />
    <glyph glyph-name="ocircumflex" unicode="&#xf4;" horiz-adv-x="697" 
d="M151 619l126 161h144l126 -161h-117l-82 69l-82 -69h-115zM347 -12q-127 0 -212.5 83t-85.5 204v2q0 120 86.5 204.5t214.5 84.5q127 0 212.5 -83.5t85.5 -203.5v-2q0 -121 -86 -205t-215 -84zM350 118q67 0 107.5 45.5t40.5 111.5v2q0 65 -42.5 111.5t-108.5 46.5
q-67 0 -107.5 -45t-40.5 -111v-2q0 -65 42.5 -112t108.5 -47z" />
    <glyph glyph-name="otilde" unicode="&#xf5;" horiz-adv-x="697" 
d="M438 619q-39 0 -93 23q-45 17 -61 17q-23 0 -35.5 -12t-23.5 -39l-82 25q20 71 48.5 106t78.5 35q39 0 93 -23q48 -18 61 -18q23 0 35.5 12t23.5 40l82 -25q-20 -71 -48.5 -106t-78.5 -35zM347 -12q-127 0 -212.5 83t-85.5 204v2q0 120 86.5 204.5t214.5 84.5
q127 0 212.5 -83.5t85.5 -203.5v-2q0 -121 -86 -205t-215 -84zM350 118q67 0 107.5 45.5t40.5 111.5v2q0 65 -42.5 111.5t-108.5 46.5q-67 0 -107.5 -45t-40.5 -111v-2q0 -65 42.5 -112t108.5 -47z" />
    <glyph glyph-name="odieresis" unicode="&#xf6;" horiz-adv-x="697" 
d="M169 619v137h147v-137h-147zM382 619v137h147v-137h-147zM347 -12q-127 0 -212.5 83t-85.5 204v2q0 120 86.5 204.5t214.5 84.5q127 0 212.5 -83.5t85.5 -203.5v-2q0 -121 -86 -205t-215 -84zM350 118q67 0 107.5 45.5t40.5 111.5v2q0 65 -42.5 111.5t-108.5 46.5
q-67 0 -107.5 -45t-40.5 -111v-2q0 -65 42.5 -112t108.5 -47z" />
    <glyph glyph-name="divide" unicode="&#xf7;" horiz-adv-x="672" 
d="M257 515v146h158v-146h-158zM598 302h-523v128h523v-128zM257 71v146h158v-146h-158z" />
    <glyph glyph-name="oslash" unicode="&#xf8;" horiz-adv-x="697" 
d="M530 561h134l-85 -97q69 -80 69 -185v-2q0 -121 -86 -205t-215 -84q-85 0 -151 37l-29 -30h-134l83 95q-67 78 -67 185v2q0 120 86.5 204.5t214.5 84.5q84 0 150 -37zM195 277q0 -43 18 -79l199 227q-31 14 -65 14q-69 0 -110.5 -46t-41.5 -114v-2zM350 114
q69 0 110.5 46.5t41.5 114.5v2q0 41 -19 79l-198 -228q30 -14 65 -14z" />
    <glyph glyph-name="ugrave" unicode="&#xf9;" horiz-adv-x="655" 
d="M273 619l-134 124l132 57l114 -181h-112zM262 -11q-89 0 -139.5 55.5t-50.5 152.5v359h151v-311q0 -57 26 -87.5t74 -30.5t76 30.5t28 87.5v311h152v-556h-152v80q-68 -91 -165 -91z" />
    <glyph glyph-name="uacute" unicode="&#xfa;" horiz-adv-x="655" 
d="M265 619l114 181l132 -57l-134 -124h-112zM262 -11q-89 0 -139.5 55.5t-50.5 152.5v359h151v-311q0 -57 26 -87.5t74 -30.5t76 30.5t28 87.5v311h152v-556h-152v80q-68 -91 -165 -91z" />
    <glyph glyph-name="ucircumflex" unicode="&#xfb;" horiz-adv-x="655" 
d="M127 619l126 161h144l126 -161h-117l-82 69l-82 -69h-115zM262 -11q-89 0 -139.5 55.5t-50.5 152.5v359h151v-311q0 -57 26 -87.5t74 -30.5t76 30.5t28 87.5v311h152v-556h-152v80q-68 -91 -165 -91z" />
    <glyph glyph-name="udieresis" unicode="&#xfc;" horiz-adv-x="655" 
d="M145 619v137h147v-137h-147zM358 619v137h147v-137h-147zM262 -11q-89 0 -139.5 55.5t-50.5 152.5v359h151v-311q0 -57 26 -87.5t74 -30.5t76 30.5t28 87.5v311h152v-556h-152v80q-68 -91 -165 -91z" />
    <glyph glyph-name="yacute" unicode="&#xfd;" horiz-adv-x="631" 
d="M255 619l114 181l132 -57l-134 -124h-112zM319 171l126 385h158l-215 -570q-33 -86 -73 -121t-110 -35q-72 0 -138 38l51 110q37 -21 69 -21q22 0 35 8.5t25 32.5l-221 558h161z" />
    <glyph glyph-name="thorn" unicode="&#xfe;" horiz-adv-x="709" 
d="M366 119q59 0 99.5 43.5t40.5 114.5v2q0 70 -41 114t-99 44t-99 -44t-41 -114v-2q0 -70 41 -114t99 -44zM76 -166v925h152v-286q68 93 176 93q104 0 179 -77.5t75 -209.5v-2q0 -133 -74.5 -210.5t-179.5 -77.5t-176 86v-241h-152z" />
    <glyph glyph-name="ydieresis" unicode="&#xff;" horiz-adv-x="631" 
d="M135 619v137h147v-137h-147zM348 619v137h147v-137h-147zM319 171l126 385h158l-215 -570q-33 -86 -73 -121t-110 -35q-72 0 -138 38l51 110q37 -21 69 -21q22 0 35 8.5t25 32.5l-221 558h161z" />
    <glyph glyph-name="Amacron" unicode="&#x100;" horiz-adv-x="830" 
d="M220 802v108h390v-108h-390zM310 302h205l-102 247zM30 0l314 733h142l313 -733h-161l-68 166h-315l-68 -166h-157z" />
    <glyph glyph-name="amacron" unicode="&#x101;" horiz-adv-x="623" 
d="M128 625v106h370v-106h-370zM280 95q57 0 92.5 28.5t35.5 73.5v30q-49 21 -106 21q-53 0 -83 -21t-30 -59v-2q0 -33 25 -52t66 -19zM235 -11q-82 0 -137.5 45.5t-55.5 125.5v2q0 88 61 132.5t164 44.5q71 0 139 -22v10q0 105 -123 105q-72 0 -155 -31l-38 116
q102 45 215 45q123 0 187 -62q60 -60 60 -176v-324h-147v62q-65 -73 -170 -73z" />
    <glyph glyph-name="Abreve" unicode="&#x102;" horiz-adv-x="830" 
d="M415 794q-82 0 -134.5 40t-59.5 112h104q20 -52 90 -52t90 52h104q-7 -72 -59.5 -112t-134.5 -40zM310 302h205l-102 247zM30 0l314 733h142l313 -733h-161l-68 166h-315l-68 -166h-157z" />
    <glyph glyph-name="abreve" unicode="&#x103;" horiz-adv-x="623" 
d="M313 617q-82 0 -133.5 43t-58.5 119h102q22 -63 90 -63t90 63h102q-7 -76 -58.5 -119t-133.5 -43zM280 95q57 0 92.5 28.5t35.5 73.5v30q-49 21 -106 21q-53 0 -83 -21t-30 -59v-2q0 -33 25 -52t66 -19zM235 -11q-82 0 -137.5 45.5t-55.5 125.5v2q0 88 61 132.5t164 44.5
q71 0 139 -22v10q0 105 -123 105q-72 0 -155 -31l-38 116q102 45 215 45q123 0 187 -62q60 -60 60 -176v-324h-147v62q-65 -73 -170 -73z" />
    <glyph glyph-name="Aogonek" unicode="&#x104;" horiz-adv-x="830" 
d="M807 -103v-68q-16 -2 -44 -2q-65 0 -102 25t-37 64q0 40 36 84h-22l-68 166h-315l-68 -166h-157l314 733h142l313 -733h-38q-27 -31 -27 -60q0 -45 73 -43zM310 302h205l-102 247z" />
    <glyph glyph-name="aogonek" unicode="&#x105;" horiz-adv-x="623" 
d="M556 -103v-68q-16 -2 -44 -2q-65 0 -102 25t-37 64q0 40 36 84h-4v62q-65 -73 -170 -73q-82 0 -137.5 45.5t-55.5 125.5v2q0 88 61 132.5t164 44.5q71 0 139 -22v10q0 105 -123 105q-72 0 -155 -31l-38 116q102 45 215 45q123 0 187 -62q60 -60 60 -176v-324h-42
q-27 -31 -27 -60q0 -45 73 -43zM280 95q57 0 92.5 28.5t35.5 73.5v30q-49 21 -106 21q-53 0 -83 -21t-30 -59v-2q0 -33 25 -52t66 -19z" />
    <glyph glyph-name="Cacute" unicode="&#x106;" horiz-adv-x="776" 
d="M364 796l124 161l132 -58l-140 -103h-116zM433 -12q-160 0 -266.5 108t-106.5 266v2q0 158 107 267t272 109q97 0 164 -28.5t123 -83.5l-98 -113q-92 84 -190 84q-93 0 -155 -68t-62 -165v-2q0 -98 61.5 -166.5t155.5 -68.5q59 0 102.5 21.5t92.5 65.5l98 -99
q-61 -64 -130 -96.5t-168 -32.5z" />
    <glyph glyph-name="cacute" unicode="&#x107;" horiz-adv-x="602" 
d="M274 619l114 181l132 -57l-134 -124h-112zM338 -12q-124 0 -206.5 83.5t-82.5 203.5v2q0 120 82.5 204.5t208.5 84.5q138 0 222 -94l-94 -100q-60 63 -129 63q-61 0 -100.5 -45.5t-39.5 -110.5v-2q0 -68 40.5 -113.5t105.5 -45.5q67 0 131 61l89 -89q-45 -50 -97.5 -76
t-129.5 -26z" />
    <glyph glyph-name="Cdotaccent" unicode="&#x10a;" horiz-adv-x="776" 
d="M350 796v129h152v-129h-152zM433 -12q-160 0 -266.5 108t-106.5 266v2q0 158 107 267t272 109q97 0 164 -28.5t123 -83.5l-98 -113q-92 84 -190 84q-93 0 -155 -68t-62 -165v-2q0 -98 61.5 -166.5t155.5 -68.5q59 0 102.5 21.5t92.5 65.5l98 -99q-61 -64 -130 -96.5
t-168 -32.5z" />
    <glyph glyph-name="cdotaccent" unicode="&#x10b;" horiz-adv-x="602" 
d="M257 619v137h152v-137h-152zM338 -12q-124 0 -206.5 83.5t-82.5 203.5v2q0 120 82.5 204.5t208.5 84.5q138 0 222 -94l-94 -100q-60 63 -129 63q-61 0 -100.5 -45.5t-39.5 -110.5v-2q0 -68 40.5 -113.5t105.5 -45.5q67 0 131 61l89 -89q-45 -50 -97.5 -76t-129.5 -26z
" />
    <glyph glyph-name="Ccaron" unicode="&#x10c;" horiz-adv-x="776" 
d="M629 946l-131 -150h-144l-131 150h122l82 -58l82 58h120zM433 -12q-160 0 -266.5 108t-106.5 266v2q0 158 107 267t272 109q97 0 164 -28.5t123 -83.5l-98 -113q-92 84 -190 84q-93 0 -155 -68t-62 -165v-2q0 -98 61.5 -166.5t155.5 -68.5q59 0 102.5 21.5t92.5 65.5
l98 -99q-61 -64 -130 -96.5t-168 -32.5z" />
    <glyph glyph-name="ccaron" unicode="&#x10d;" horiz-adv-x="602" 
d="M531 780l-126 -161h-144l-126 161h117l82 -69l82 69h115zM338 -12q-124 0 -206.5 83.5t-82.5 203.5v2q0 120 82.5 204.5t208.5 84.5q138 0 222 -94l-94 -100q-60 63 -129 63q-61 0 -100.5 -45.5t-39.5 -110.5v-2q0 -68 40.5 -113.5t105.5 -45.5q67 0 131 61l89 -89
q-45 -50 -97.5 -76t-129.5 -26z" />
    <glyph glyph-name="Dcaron" unicode="&#x10e;" horiz-adv-x="821" 
d="M600 936l-131 -150h-144l-131 150h122l82 -58l82 58h120zM93 0v728h281q170 0 278.5 -103.5t108.5 -258.5v-2q0 -156 -108.5 -260t-278.5 -104h-281zM374 589h-128v-450h128q101 0 163.5 62t62.5 161v2q0 99 -62.5 162t-163.5 63z" />
    <glyph glyph-name="dcaron" unicode="&#x10f;" horiz-adv-x="709" 
d="M686 547l11 213h110v-3l-61 -210h-60zM343 119q58 0 99 44t41 114v2q0 70 -41 114t-99 44q-59 0 -99.5 -43.5t-40.5 -114.5v-2q0 -70 41 -114t99 -44zM305 -11q-104 0 -179 77.5t-75 210.5v2q0 133 74.5 210t179.5 77q106 0 176 -85v278h152v-759h-152v82
q-68 -93 -176 -93z" />
    <glyph glyph-name="Dcroat" unicode="&#x110;" horiz-adv-x="852" 
d="M124 0v313h-78v106h78v309h281q170 0 278.5 -103.5t108.5 -258.5v-2q0 -156 -108.5 -260t-278.5 -104h-281zM439 313h-161v-174h127q102 0 164 62t62 161v2q0 100 -62.5 162.5t-163.5 62.5h-127v-170h161v-106z" />
    <glyph glyph-name="dcroat" unicode="&#x111;" horiz-adv-x="709" 
d="M343 119q58 0 99 44t41 114v2q0 70 -41 114t-99 44q-59 0 -99.5 -43.5t-40.5 -114.5v-2q0 -70 41 -114t99 -44zM318 618v86h163v55h152v-55h71v-86h-71v-618h-152v82q-68 -93 -176 -93q-104 0 -179 77.5t-75 210.5v2q0 133 74.5 210t179.5 77q106 0 176 -85v137h-163z
" />
    <glyph glyph-name="Emacron" unicode="&#x112;" horiz-adv-x="705" 
d="M173 792v108h390v-108h-390zM93 0v728h547v-137h-395v-156h348v-137h-348v-161h400v-137h-552z" />
    <glyph glyph-name="emacron" unicode="&#x113;" horiz-adv-x="644" 
d="M136 625v106h370v-106h-370zM338 -12q-125 0 -207 80t-82 207v2q0 121 77.5 205t196.5 84q131 0 200.5 -87t69.5 -214q0 -12 -2 -40h-391q11 -56 47.5 -85.5t92.5 -29.5q76 0 138 58l87 -77q-84 -103 -227 -103zM198 320h247q-8 57 -39.5 90.5t-82.5 33.5
q-50 0 -83 -33.5t-42 -90.5z" />
    <glyph glyph-name="Ebreve" unicode="&#x114;" horiz-adv-x="705" 
d="M368 784q-82 0 -134.5 40t-59.5 112h104q20 -52 90 -52t90 52h104q-7 -72 -59.5 -112t-134.5 -40zM93 0v728h547v-137h-395v-156h348v-137h-348v-161h400v-137h-552z" />
    <glyph glyph-name="ebreve" unicode="&#x115;" horiz-adv-x="644" 
d="M321 617q-82 0 -133.5 43t-58.5 119h102q22 -63 90 -63t90 63h102q-7 -76 -58.5 -119t-133.5 -43zM338 -12q-125 0 -207 80t-82 207v2q0 121 77.5 205t196.5 84q131 0 200.5 -87t69.5 -214q0 -12 -2 -40h-391q11 -56 47.5 -85.5t92.5 -29.5q76 0 138 58l87 -77
q-84 -103 -227 -103zM198 320h247q-8 57 -39.5 90.5t-82.5 33.5q-50 0 -83 -33.5t-42 -90.5z" />
    <glyph glyph-name="Edotaccent" unicode="&#x116;" horiz-adv-x="705" 
d="M292 786v129h152v-129h-152zM93 0v728h547v-137h-395v-156h348v-137h-348v-161h400v-137h-552z" />
    <glyph glyph-name="edotaccent" unicode="&#x117;" horiz-adv-x="644" 
d="M245 619v137h152v-137h-152zM338 -12q-125 0 -207 80t-82 207v2q0 121 77.5 205t196.5 84q131 0 200.5 -87t69.5 -214q0 -12 -2 -40h-391q11 -56 47.5 -85.5t92.5 -29.5q76 0 138 58l87 -77q-84 -103 -227 -103zM198 320h247q-8 57 -39.5 90.5t-82.5 33.5
q-50 0 -83 -33.5t-42 -90.5z" />
    <glyph glyph-name="Eogonek" unicode="&#x118;" horiz-adv-x="705" 
d="M93 0v728h547v-137h-395v-156h348v-137h-348v-161h400v-137h-46q-27 -31 -27 -60q0 -45 73 -43v-68q-16 -2 -44 -2q-65 0 -102 25t-37 64q0 40 36 84h-405z" />
    <glyph glyph-name="eogonek" unicode="&#x119;" horiz-adv-x="644" 
d="M478 168l87 -77q-30 -34 -63 -63q-49 -46 -49 -82q0 -51 73 -49v-68q-16 -2 -45 -2q-65 0 -101.5 24t-36.5 61q0 34 34 78q-22 -2 -39 -2q-125 0 -207 80t-82 207v2q0 121 77.5 205t196.5 84q131 0 200.5 -87t69.5 -214q0 -12 -2 -40h-391q11 -56 47.5 -85.5t92.5 -29.5
q76 0 138 58zM198 320h247q-8 57 -39.5 90.5t-82.5 33.5q-50 0 -83 -33.5t-42 -90.5z" />
    <glyph glyph-name="Ecaron" unicode="&#x11a;" horiz-adv-x="705" 
d="M571 936l-131 -150h-144l-131 150h122l82 -58l82 58h120zM93 0v728h547v-137h-395v-156h348v-137h-348v-161h400v-137h-552z" />
    <glyph glyph-name="ecaron" unicode="&#x11b;" horiz-adv-x="644" 
d="M519 780l-126 -161h-144l-126 161h117l82 -69l82 69h115zM338 -12q-125 0 -207 80t-82 207v2q0 121 77.5 205t196.5 84q131 0 200.5 -87t69.5 -214q0 -12 -2 -40h-391q11 -56 47.5 -85.5t92.5 -29.5q76 0 138 58l87 -77q-84 -103 -227 -103zM198 320h247
q-8 57 -39.5 90.5t-82.5 33.5q-50 0 -83 -33.5t-42 -90.5z" />
    <glyph glyph-name="Gbreve" unicode="&#x11e;" horiz-adv-x="823" 
d="M432 794q-82 0 -134.5 40t-59.5 112h104q20 -52 90 -52t90 52h104q-7 -72 -59.5 -112t-134.5 -40zM442 -12q-169 0 -275.5 105.5t-106.5 268.5v2q0 157 108.5 266.5t272.5 109.5q93 0 159 -24t126 -75l-97 -117q-47 39 -90 57t-103 18q-90 0 -152.5 -68.5t-62.5 -164.5
v-2q0 -103 63.5 -170t162.5 -67q92 0 156 46v111h-166v133h315v-314q-135 -115 -310 -115z" />
    <glyph glyph-name="gbreve" unicode="&#x11f;" horiz-adv-x="709" 
d="M362 617q-82 0 -133.5 43t-58.5 119h102q22 -63 90 -63t90 63h102q-7 -76 -58.5 -119t-133.5 -43zM342 171q60 0 100.5 37.5t40.5 96.5v2q0 58 -40.5 95.5t-100.5 37.5t-99.5 -37t-39.5 -96v-2q0 -59 39.5 -96.5t99.5 -37.5zM325 -168q-137 0 -246 59l52 114
q91 -52 190 -52q162 0 162 155v30q-38 -46 -81 -69.5t-103 -23.5q-103 0 -175.5 70.5t-72.5 189.5v2q0 118 73 188.5t175 70.5q106 0 182 -85v75h152v-433q0 -146 -71 -217q-74 -74 -237 -74z" />
    <glyph glyph-name="Gdotaccent" unicode="&#x120;" horiz-adv-x="823" 
d="M356 796v129h152v-129h-152zM442 -12q-169 0 -275.5 105.5t-106.5 268.5v2q0 157 108.5 266.5t272.5 109.5q93 0 159 -24t126 -75l-97 -117q-47 39 -90 57t-103 18q-90 0 -152.5 -68.5t-62.5 -164.5v-2q0 -103 63.5 -170t162.5 -67q92 0 156 46v111h-166v133h315v-314
q-135 -115 -310 -115z" />
    <glyph glyph-name="gdotaccent" unicode="&#x121;" horiz-adv-x="709" 
d="M286 619v137h152v-137h-152zM342 171q60 0 100.5 37.5t40.5 96.5v2q0 58 -40.5 95.5t-100.5 37.5t-99.5 -37t-39.5 -96v-2q0 -59 39.5 -96.5t99.5 -37.5zM325 -168q-137 0 -246 59l52 114q91 -52 190 -52q162 0 162 155v30q-38 -46 -81 -69.5t-103 -23.5
q-103 0 -175.5 70.5t-72.5 189.5v2q0 118 73 188.5t175 70.5q106 0 182 -85v75h152v-433q0 -146 -71 -217q-74 -74 -237 -74z" />
    <glyph glyph-name="Gcommaaccent" unicode="&#x122;" horiz-adv-x="823" 
d="M442 -12q-169 0 -275.5 105.5t-106.5 268.5v2q0 157 108.5 266.5t272.5 109.5q93 0 159 -24t126 -75l-97 -117q-47 39 -90 57t-103 18q-90 0 -152.5 -68.5t-62.5 -164.5v-2q0 -103 63.5 -170t162.5 -67q92 0 156 46v111h-166v133h315v-314q-135 -115 -310 -115zM357 -304
l-8 46q40 4 60 23t18 51h-65v117h140v-99q0 -71 -36 -103.5t-109 -34.5z" />
    <glyph glyph-name="gcommaaccent" unicode="&#x123;" horiz-adv-x="709" 
d="M434 856l8 -46q-41 -5 -60.5 -23.5t-17.5 -50.5h65v-117h-140v98q0 71 36 104t109 35zM342 171q60 0 100.5 37.5t40.5 96.5v2q0 58 -40.5 95.5t-100.5 37.5t-99.5 -37t-39.5 -96v-2q0 -59 39.5 -96.5t99.5 -37.5zM325 -168q-137 0 -246 59l52 114q91 -52 190 -52
q162 0 162 155v30q-38 -46 -81 -69.5t-103 -23.5q-103 0 -175.5 70.5t-72.5 189.5v2q0 118 73 188.5t175 70.5q106 0 182 -85v75h152v-433q0 -146 -71 -217q-74 -74 -237 -74z" />
    <glyph glyph-name="Hbar" unicode="&#x126;" horiz-adv-x="802" 
d="M248 437h306v97h-306v-97zM21 532v106h73v90h154v-90h306v90h154v-90h73v-106h-73v-532h-154v295h-306v-295h-154v532h-73z" />
    <glyph glyph-name="hbar" unicode="&#x127;" horiz-adv-x="655" 
d="M391 618h-163v-142q69 90 165 90q90 0 140.5 -55.5t50.5 -151.5v-359h-152v311q0 57 -26 87.5t-74 30.5t-76 -30.5t-28 -87.5v-311h-152v618h-71v86h71v55h152v-55h163v-86z" />
    <glyph glyph-name="Imacron" unicode="&#x12a;" horiz-adv-x="354" 
d="M-18 792v108h390v-108h-390zM100 0v728h154v-728h-154z" />
    <glyph glyph-name="imacron" unicode="&#x12b;" horiz-adv-x="319" 
d="M-26 625v106h370v-106h-370zM84 0v556h151v-556h-151z" />
    <glyph glyph-name="Ibreve" unicode="&#x12c;" horiz-adv-x="354" 
d="M177 784q-82 0 -134.5 40t-59.5 112h104q20 -52 90 -52t90 52h104q-7 -72 -59.5 -112t-134.5 -40zM100 0v728h154v-728h-154z" />
    <glyph glyph-name="ibreve" unicode="&#x12d;" horiz-adv-x="319" 
d="M159 617q-82 0 -133.5 43t-58.5 119h102q22 -63 90 -63t90 63h102q-7 -76 -58.5 -119t-133.5 -43zM84 0v556h151v-556h-151z" />
    <glyph glyph-name="Iogonek" unicode="&#x12e;" horiz-adv-x="354" 
d="M100 0v728h154v-728h-30q-27 -31 -27 -60q0 -45 73 -43v-68q-16 -2 -44 -2q-65 0 -102 25t-37 64q0 40 36 84h-23z" />
    <glyph glyph-name="iogonek" unicode="&#x12f;" horiz-adv-x="319" 
d="M79 622v136h160v-136h-160zM84 0v556h151v-556h-28q-27 -31 -27 -60q0 -45 73 -43v-68q-16 -2 -44 -2q-65 0 -102 25t-37 64q0 40 36 84h-22z" />
    <glyph glyph-name="Idotaccent" unicode="&#x130;" horiz-adv-x="354" 
d="M101 786v129h152v-129h-152zM100 0v728h154v-728h-154z" />
    <glyph glyph-name="dotlessi" unicode="&#x131;" horiz-adv-x="319" 
d="M84 0v556h151v-556h-151z" />
    <glyph glyph-name="Kcommaaccent" unicode="&#x136;" horiz-adv-x="766" 
d="M93 0v728h153v-328l304 328h189l-299 -310l312 -418h-185l-231 313l-90 -93v-220h-153zM309 -294l-8 46q40 4 60 23t18 51h-65v117h140v-99q0 -71 -36 -103.5t-109 -34.5z" />
    <glyph glyph-name="kcommaaccent" unicode="&#x137;" horiz-adv-x="622" 
d="M76 0v759h152v-414l194 211h182l-214 -221l221 -335h-176l-147 231l-60 -64v-167h-152zM248 -299l-8 46q40 4 60 23t18 51h-65v117h140v-99q0 -71 -36 -103.5t-109 -34.5z" />
    <glyph glyph-name="Lacute" unicode="&#x139;" horiz-adv-x="651" 
d="M128 786l124 161l132 -58l-140 -103h-116zM93 0v728h153v-588h367v-140h-520z" />
    <glyph glyph-name="lacute" unicode="&#x13a;" horiz-adv-x="319" 
d="M102 802l124 161l132 -58l-140 -103h-116zM84 0v759h151v-759h-151z" />
    <glyph glyph-name="Lcommaaccent" unicode="&#x13b;" horiz-adv-x="651" 
d="M93 0v728h153v-588h367v-140h-520zM277 -299l-8 46q40 4 60 23t18 51h-65v117h140v-99q0 -71 -36 -103.5t-109 -34.5z" />
    <glyph glyph-name="lcommaaccent" unicode="&#x13c;" horiz-adv-x="319" 
d="M84 0v759h151v-759h-151zM84 -299l-8 46q40 4 60 23t18 51h-65v117h140v-99q0 -71 -36 -103.5t-109 -34.5z" />
    <glyph glyph-name="Lcaron" unicode="&#x13d;" horiz-adv-x="651" 
d="M320 515l11 213h110v-3l-61 -210h-60zM93 0v728h153v-588h367v-140h-520z" />
    <glyph glyph-name="lcaron" unicode="&#x13e;" horiz-adv-x="319" 
d="M289 547l11 213h110v-3l-61 -210h-60zM84 0v759h151v-759h-151z" />
    <glyph glyph-name="Ldot" unicode="&#x13f;" horiz-adv-x="651" 
d="M93 0v728h153v-588h367v-140h-520zM432 328v137h145v-137h-145z" />
    <glyph glyph-name="ldot" unicode="&#x140;" horiz-adv-x="411" 
d="M84 0v759h151v-759h-151zM300 329v127h122v-127h-122z" />
    <glyph glyph-name="Lslash" unicode="&#x141;" horiz-adv-x="683" 
d="M433 393l-157 -70v-183h368v-140h-520v256l-78 -34v144l78 34v328h152v-261l157 70v-144z" />
    <glyph glyph-name="lslash" unicode="&#x142;" horiz-adv-x="381" 
d="M344 393l-79 -39v-354h-149v279l-79 -39v143l79 39v337h149v-262l79 39v-143z" />
    <glyph glyph-name="Nacute" unicode="&#x143;" horiz-adv-x="830" 
d="M353 786l124 161l132 -58l-140 -103h-116zM93 0v728h141l351 -459v459h152v-728h-131l-362 474v-474h-151z" />
    <glyph glyph-name="nacute" unicode="&#x144;" horiz-adv-x="655" 
d="M270 619l114 181l132 -57l-134 -124h-112zM76 0v556h152v-80q69 90 165 90q90 0 140.5 -55.5t50.5 -151.5v-359h-152v311q0 57 -26 87.5t-74 30.5t-76 -30.5t-28 -87.5v-311h-152z" />
    <glyph glyph-name="Ncommaaccent" unicode="&#x145;" horiz-adv-x="830" 
d="M93 0v728h141l351 -459v459h152v-728h-131l-362 474v-474h-151zM340 -294l-8 46q40 4 60 23t18 51h-65v117h140v-99q0 -71 -36 -103.5t-109 -34.5z" />
    <glyph glyph-name="ncommaaccent" unicode="&#x146;" horiz-adv-x="655" 
d="M76 0v556h152v-80q69 90 165 90q90 0 140.5 -55.5t50.5 -151.5v-359h-152v311q0 57 -26 87.5t-74 30.5t-76 -30.5t-28 -87.5v-311h-152zM254 -299l-8 46q40 4 60 23t18 51h-65v117h140v-99q0 -71 -36 -103.5t-109 -34.5z" />
    <glyph glyph-name="Ncaron" unicode="&#x147;" horiz-adv-x="830" 
d="M618 936l-131 -150h-144l-131 150h122l82 -58l82 58h120zM93 0v728h141l351 -459v459h152v-728h-131l-362 474v-474h-151z" />
    <glyph glyph-name="ncaron" unicode="&#x148;" horiz-adv-x="655" 
d="M527 780l-126 -161h-144l-126 161h117l82 -69l82 69h115zM76 0v556h152v-80q69 90 165 90q90 0 140.5 -55.5t50.5 -151.5v-359h-152v311q0 57 -26 87.5t-74 30.5t-76 -30.5t-28 -87.5v-311h-152z" />
    <glyph glyph-name="Omacron" unicode="&#x14c;" horiz-adv-x="892" 
d="M251 802v108h390v-108h-390zM445 -12q-166 0 -275.5 108.5t-109.5 265.5v2q0 157 110.5 266.5t276.5 109.5t275.5 -108.5t109.5 -265.5v-2q0 -157 -110.5 -266.5t-276.5 -109.5zM447 129q97 0 160.5 67.5t63.5 165.5v2q0 98 -64.5 166.5t-161.5 68.5t-160.5 -67.5
t-63.5 -165.5v-2q0 -98 64.5 -166.5t161.5 -68.5z" />
    <glyph glyph-name="omacron" unicode="&#x14d;" horiz-adv-x="697" 
d="M164 625v106h370v-106h-370zM347 -12q-127 0 -212.5 83t-85.5 204v2q0 120 86.5 204.5t214.5 84.5q127 0 212.5 -83.5t85.5 -203.5v-2q0 -121 -86 -205t-215 -84zM350 118q67 0 107.5 45.5t40.5 111.5v2q0 65 -42.5 111.5t-108.5 46.5q-67 0 -107.5 -45t-40.5 -111v-2
q0 -65 42.5 -112t108.5 -47z" />
    <glyph glyph-name="Obreve" unicode="&#x14e;" horiz-adv-x="892" 
d="M446 794q-82 0 -134.5 40t-59.5 112h104q20 -52 90 -52t90 52h104q-7 -72 -59.5 -112t-134.5 -40zM445 -12q-166 0 -275.5 108.5t-109.5 265.5v2q0 157 110.5 266.5t276.5 109.5t275.5 -108.5t109.5 -265.5v-2q0 -157 -110.5 -266.5t-276.5 -109.5zM447 129
q97 0 160.5 67.5t63.5 165.5v2q0 98 -64.5 166.5t-161.5 68.5t-160.5 -67.5t-63.5 -165.5v-2q0 -98 64.5 -166.5t161.5 -68.5z" />
    <glyph glyph-name="obreve" unicode="&#x14f;" horiz-adv-x="697" 
d="M349 617q-82 0 -133.5 43t-58.5 119h102q22 -63 90 -63t90 63h102q-7 -76 -58.5 -119t-133.5 -43zM347 -12q-127 0 -212.5 83t-85.5 204v2q0 120 86.5 204.5t214.5 84.5q127 0 212.5 -83.5t85.5 -203.5v-2q0 -121 -86 -205t-215 -84zM350 118q67 0 107.5 45.5t40.5 111.5
v2q0 65 -42.5 111.5t-108.5 46.5q-67 0 -107.5 -45t-40.5 -111v-2q0 -65 42.5 -112t108.5 -47z" />
    <glyph glyph-name="Ohungarumlaut" unicode="&#x150;" horiz-adv-x="892" 
d="M474 796l124 161l127 -58l-139 -103h-112zM280 796l124 161l127 -58l-140 -103h-111zM445 -12q-166 0 -275.5 108.5t-109.5 265.5v2q0 157 110.5 266.5t276.5 109.5t275.5 -108.5t109.5 -265.5v-2q0 -157 -110.5 -266.5t-276.5 -109.5zM447 129q97 0 160.5 67.5
t63.5 165.5v2q0 98 -64.5 166.5t-161.5 68.5t-160.5 -67.5t-63.5 -165.5v-2q0 -98 64.5 -166.5t161.5 -68.5z" />
    <glyph glyph-name="ohungarumlaut" unicode="&#x151;" horiz-adv-x="697" 
d="M188 619l112 181l129 -57l-134 -124h-107zM377 619l114 181l129 -57l-135 -124h-108zM347 -12q-127 0 -212.5 83t-85.5 204v2q0 120 86.5 204.5t214.5 84.5q127 0 212.5 -83.5t85.5 -203.5v-2q0 -121 -86 -205t-215 -84zM350 118q67 0 107.5 45.5t40.5 111.5v2
q0 65 -42.5 111.5t-108.5 46.5q-67 0 -107.5 -45t-40.5 -111v-2q0 -65 42.5 -112t108.5 -47z" />
    <glyph glyph-name="OE" unicode="&#x152;" horiz-adv-x="1131" 
d="M447 0q-170 0 -278.5 103.5t-108.5 258.5v2q0 156 108.5 260t278.5 104h619v-137h-369v-156h322v-137h-322v-161h374v-137h-624zM447 139h97v450h-97q-101 0 -163.5 -62t-62.5 -161v-2q0 -99 62.5 -162t163.5 -63z" />
    <glyph glyph-name="oe" unicode="&#x153;" horiz-adv-x="1084" 
d="M339 -12q-120 0 -205 83.5t-85 203.5v2q0 120 86.5 204.5t209.5 84.5q131 0 212 -96q78 96 206 96q131 0 200.5 -87t69.5 -214q0 -12 -2 -40h-391q11 -56 47.5 -85.5t92.5 -29.5q76 0 138 58l87 -77q-84 -103 -227 -103q-139 0 -223 98q-83 -98 -216 -98zM638 320h247
q-8 57 -39.5 90.5t-82.5 33.5q-50 0 -83 -33.5t-42 -90.5zM345 118q65 0 104.5 45.5t39.5 111.5v2q0 65 -41.5 111.5t-104.5 46.5q-65 0 -104.5 -45.5t-39.5 -110.5v-2q0 -65 41 -112t105 -47z" />
    <glyph glyph-name="Racute" unicode="&#x154;" horiz-adv-x="760" 
d="M309 786l124 161l132 -58l-140 -103h-116zM246 373h168q59 0 93.5 29t34.5 78v2q0 52 -34.5 79.5t-96.5 27.5h-165v-216zM93 0v728h331q138 0 212 -74q61 -61 61 -164v-2q0 -85 -42.5 -142t-116.5 -83l182 -263h-180l-161 237h-133v-237h-153z" />
    <glyph glyph-name="racute" unicode="&#x155;" horiz-adv-x="442" 
d="M181 619l114 181l132 -57l-134 -124h-112zM76 0v556h152v-115q55 130 181 125v-159h-8q-82 0 -127.5 -50.5t-45.5 -149.5v-207h-152z" />
    <glyph glyph-name="Rcommaaccent" unicode="&#x156;" horiz-adv-x="760" 
d="M246 373h168q59 0 93.5 29t34.5 78v2q0 52 -34.5 79.5t-96.5 27.5h-165v-216zM93 0v728h331q138 0 212 -74q61 -61 61 -164v-2q0 -85 -42.5 -142t-116.5 -83l182 -263h-180l-161 237h-133v-237h-153zM296 -294l-8 46q40 4 60 23t18 51h-65v117h140v-99q0 -71 -36 -103.5
t-109 -34.5z" />
    <glyph glyph-name="rcommaaccent" unicode="&#x157;" horiz-adv-x="442" 
d="M76 0v556h152v-115q55 130 181 125v-159h-8q-82 0 -127.5 -50.5t-45.5 -149.5v-207h-152zM83 -299l-8 46q40 4 60 23t18 51h-65v117h140v-99q0 -71 -36 -103.5t-109 -34.5z" />
    <glyph glyph-name="Rcaron" unicode="&#x158;" horiz-adv-x="760" 
d="M574 936l-131 -150h-144l-131 150h122l82 -58l82 58h120zM246 373h168q59 0 93.5 29t34.5 78v2q0 52 -34.5 79.5t-96.5 27.5h-165v-216zM93 0v728h331q138 0 212 -74q61 -61 61 -164v-2q0 -85 -42.5 -142t-116.5 -83l182 -263h-180l-161 237h-133v-237h-153z" />
    <glyph glyph-name="rcaron" unicode="&#x159;" horiz-adv-x="442" 
d="M439 780l-126 -161h-144l-126 161h117l82 -69l82 69h115zM76 0v556h152v-115q55 130 181 125v-159h-8q-82 0 -127.5 -50.5t-45.5 -149.5v-207h-152z" />
    <glyph glyph-name="Sacute" unicode="&#x15a;" horiz-adv-x="674" 
d="M280 796l124 161l132 -58l-140 -103h-116zM351 -10q-179 0 -308 116l91 109q108 -90 220 -90q51 0 80.5 20t29.5 54v2q0 33 -30 53t-120 43q-126 31 -184 77t-58 145v2q0 97 71 157t183 60q154 0 269 -92l-81 -116q-102 73 -191 73q-46 0 -72 -19.5t-26 -48.5v-2
q0 -37 31 -56t129 -44q119 -30 175.5 -79t56.5 -138v-2q0 -105 -73 -164.5t-193 -59.5z" />
    <glyph glyph-name="sacute" unicode="&#x15b;" horiz-adv-x="530" 
d="M208 619l114 181l132 -57l-134 -124h-112zM270 -10q-132 0 -238 83l66 101q91 -67 176 -67q71 0 71 45v2q0 6 -1.5 11t-6 9.5l-8.5 8.5t-12.5 7.5t-14 6.5t-17 6.5t-17.5 5.5t-19.5 6t-20.5 6q-35 10 -60.5 21t-52.5 30t-41 48t-14 67v2q0 81 58 128t145 47
q110 0 206 -64l-58 -105q-89 52 -152 52q-29 0 -45.5 -11.5t-16.5 -30.5v-2q0 -20 24 -33t74 -30l18 -6q36 -11 60.5 -22.5t52 -30t42 -47t14.5 -64.5v-2q0 -88 -58.5 -133t-153.5 -45z" />
    <glyph glyph-name="Scedilla" unicode="&#x15e;" horiz-adv-x="674" 
d="M330 -178l-128 53l82 120q-138 17 -241 111l91 109q108 -90 220 -90q51 0 80.5 20t29.5 54v2q0 33 -30 53t-120 43q-126 31 -184 77t-58 145v2q0 97 71 157t183 60q154 0 269 -92l-81 -116q-102 73 -191 73q-46 0 -72 -19.5t-26 -48.5v-2q0 -37 31 -56t129 -44
q119 -30 175.5 -79t56.5 -138v-2q0 -94 -59 -151.5t-158 -69.5z" />
    <glyph glyph-name="scedilla" unicode="&#x15f;" horiz-adv-x="530" 
d="M247 -178l-128 53l83 121q-95 18 -170 77l66 101q91 -67 176 -67q71 0 71 45v2q0 6 -1.5 11t-6 9.5l-8.5 8.5t-12.5 7.5t-14 6.5t-17 6.5t-17.5 5.5t-19.5 6t-20.5 6q-35 10 -60.5 21t-52.5 30t-41 48t-14 67v2q0 81 58 128t145 47q110 0 206 -64l-58 -105
q-89 52 -152 52q-29 0 -45.5 -11.5t-16.5 -30.5v-2q0 -20 24 -33t74 -30l18 -6q36 -11 60.5 -22.5t52 -30t42 -47t14.5 -64.5v-2q0 -76 -44.5 -120.5t-120.5 -54.5z" />
    <glyph glyph-name="Scaron" unicode="&#x160;" horiz-adv-x="674" 
d="M544 946l-131 -150h-144l-131 150h122l82 -58l82 58h120zM351 -10q-179 0 -308 116l91 109q108 -90 220 -90q51 0 80.5 20t29.5 54v2q0 33 -30 53t-120 43q-126 31 -184 77t-58 145v2q0 97 71 157t183 60q154 0 269 -92l-81 -116q-102 73 -191 73q-46 0 -72 -19.5
t-26 -48.5v-2q0 -37 31 -56t129 -44q119 -30 175.5 -79t56.5 -138v-2q0 -105 -73 -164.5t-193 -59.5z" />
    <glyph glyph-name="scaron" unicode="&#x161;" horiz-adv-x="530" 
d="M466 780l-126 -161h-144l-126 161h117l82 -69l82 69h115zM270 -10q-132 0 -238 83l66 101q91 -67 176 -67q71 0 71 45v2q0 6 -1.5 11t-6 9.5l-8.5 8.5t-12.5 7.5t-14 6.5t-17 6.5t-17.5 5.5t-19.5 6t-20.5 6q-35 10 -60.5 21t-52.5 30t-41 48t-14 67v2q0 81 58 128
t145 47q110 0 206 -64l-58 -105q-89 52 -152 52q-29 0 -45.5 -11.5t-16.5 -30.5v-2q0 -20 24 -33t74 -30l18 -6q36 -11 60.5 -22.5t52 -30t42 -47t14.5 -64.5v-2q0 -88 -58.5 -133t-153.5 -45z" />
    <glyph glyph-name="Tcommaaccent" unicode="&#x162;" horiz-adv-x="681" 
d="M264 0v586h-224v142h601v-142h-223v-586h-154zM266 -299l-8 46q40 4 60 23t18 51h-65v117h140v-99q0 -71 -36 -103.5t-109 -34.5z" />
    <glyph glyph-name="tcommaaccent" unicode="&#x163;" horiz-adv-x="439" 
d="M264 -9q-78 0 -120 37.5t-42 128.5v269h-67v130h67v144h152v-144h134v-130h-134v-244q0 -57 54 -57q42 0 78 19v-122q-54 -31 -122 -31zM160 -299l-8 46q40 4 60 23t18 51h-65v117h140v-99q0 -71 -36 -103.5t-109 -34.5z" />
    <glyph glyph-name="Tcaron" unicode="&#x164;" horiz-adv-x="681" 
d="M544 936l-131 -150h-144l-131 150h122l82 -58l82 58h120zM264 0v586h-224v142h601v-142h-223v-586h-154z" />
    <glyph glyph-name="tcaron" unicode="&#x165;" horiz-adv-x="439" 
d="M323 615l11 213h110v-3l-61 -210h-60zM264 -9q-78 0 -120 37.5t-42 128.5v269h-67v130h67v144h152v-144h134v-130h-134v-244q0 -57 54 -57q42 0 78 19v-122q-54 -31 -122 -31z" />
    <glyph glyph-name="Umacron" unicode="&#x16a;" horiz-adv-x="794" 
d="M202 792v108h390v-108h-390zM395 -11q-148 0 -231 82.5t-83 239.5v417h154v-412q0 -90 42.5 -138t119.5 -48t120 46t43 134v418h153v-411q0 -162 -84 -245t-234 -83z" />
    <glyph glyph-name="umacron" unicode="&#x16b;" horiz-adv-x="655" 
d="M140 625v106h370v-106h-370zM262 -11q-89 0 -139.5 55.5t-50.5 152.5v359h151v-311q0 -57 26 -87.5t74 -30.5t76 30.5t28 87.5v311h152v-556h-152v80q-68 -91 -165 -91z" />
    <glyph glyph-name="Ubreve" unicode="&#x16c;" horiz-adv-x="794" 
d="M397 774q-82 0 -134.5 40t-59.5 112h104q20 -52 90 -52t90 52h104q-7 -72 -59.5 -112t-134.5 -40zM395 -11q-148 0 -231 82.5t-83 239.5v417h154v-412q0 -90 42.5 -138t119.5 -48t120 46t43 134v418h153v-411q0 -162 -84 -245t-234 -83z" />
    <glyph glyph-name="ubreve" unicode="&#x16d;" horiz-adv-x="655" 
d="M325 617q-82 0 -133.5 43t-58.5 119h102q22 -63 90 -63t90 63h102q-7 -76 -58.5 -119t-133.5 -43zM262 -11q-89 0 -139.5 55.5t-50.5 152.5v359h151v-311q0 -57 26 -87.5t74 -30.5t76 30.5t28 87.5v311h152v-556h-152v80q-68 -91 -165 -91z" />
    <glyph glyph-name="Uring" unicode="&#x16e;" horiz-adv-x="794" 
d="M397 759q-53 0 -90.5 32t-37.5 81t37.5 81.5t90.5 32.5t90.5 -32.5t37.5 -81.5t-37.5 -81t-90.5 -32zM397 814q29 0 47.5 16.5t18.5 41.5t-18.5 42t-47.5 17t-47.5 -17t-18.5 -42t18.5 -41.5t47.5 -16.5zM395 -11q-148 0 -231 82.5t-83 239.5v417h154v-412
q0 -90 42.5 -138t119.5 -48t120 46t43 134v418h153v-411q0 -162 -84 -245t-234 -83z" />
    <glyph glyph-name="uring" unicode="&#x16f;" horiz-adv-x="655" 
d="M325 602q-52 0 -88.5 35t-36.5 85t36.5 85.5t88.5 35.5t88.5 -35.5t36.5 -85.5t-36.5 -85t-88.5 -35zM325 653q28 0 48.5 20.5t20.5 48.5t-20 48.5t-49 20.5t-49 -20.5t-20 -48.5t20.5 -48.5t48.5 -20.5zM262 -11q-89 0 -139.5 55.5t-50.5 152.5v359h151v-311
q0 -57 26 -87.5t74 -30.5t76 30.5t28 87.5v311h152v-556h-152v80q-68 -91 -165 -91z" />
    <glyph glyph-name="Uhungarumlaut" unicode="&#x170;" horiz-adv-x="794" 
d="M426 786l124 161l127 -58l-139 -103h-112zM232 786l124 161l127 -58l-140 -103h-111zM395 -11q-148 0 -231 82.5t-83 239.5v417h154v-412q0 -90 42.5 -138t119.5 -48t120 46t43 134v418h153v-411q0 -162 -84 -245t-234 -83z" />
    <glyph glyph-name="uhungarumlaut" unicode="&#x171;" horiz-adv-x="655" 
d="M164 619l112 181l129 -57l-134 -124h-107zM353 619l114 181l129 -57l-135 -124h-108zM262 -11q-89 0 -139.5 55.5t-50.5 152.5v359h151v-311q0 -57 26 -87.5t74 -30.5t76 30.5t28 87.5v311h152v-556h-152v80q-68 -91 -165 -91z" />
    <glyph glyph-name="Uogonek" unicode="&#x172;" horiz-adv-x="794" 
d="M488 -103v-68q-16 -2 -44 -2q-65 0 -102 25t-37 64q0 38 31 77q-121 15 -188 96t-67 222v417h154v-412q0 -90 42.5 -138t119.5 -48t120 46t43 134v418h153v-411q0 -151 -73 -233t-205 -93q-20 -27 -20 -51q0 -45 73 -43z" />
    <glyph glyph-name="uogonek" unicode="&#x173;" horiz-adv-x="655" 
d="M262 -11q-89 0 -139.5 55.5t-50.5 152.5v359h151v-311q0 -57 26 -87.5t74 -30.5t76 30.5t28 87.5v311h152v-556h-35q-27 -31 -27 -60q0 -45 73 -43v-68q-16 -2 -44 -2q-65 0 -102 25t-37 64q0 40 36 84h-16v80q-68 -91 -165 -91z" />
    <glyph glyph-name="Wcircumflex" unicode="&#x174;" horiz-adv-x="1174" 
d="M384 786l131 150h144l131 -150h-122l-82 58l-82 -58h-120zM286 -5l-250 733h165l156 -502l166 504h132l166 -504l155 502h161l-249 -733h-134l-167 485l-167 -485h-134z" />
    <glyph glyph-name="wcircumflex" unicode="&#x175;" horiz-adv-x="903" 
d="M253 619l126 161h144l126 -161h-117l-82 69l-82 -69h-115zM203 -4l-172 560h154l93 -346l109 348h130l109 -349l96 347h151l-175 -560h-137l-110 349l-112 -349h-136z" />
    <glyph glyph-name="Ycircumflex" unicode="&#x176;" horiz-adv-x="753" 
d="M173 786l131 150h144l131 -150h-122l-82 58l-82 -58h-120zM299 0v287l-281 441h180l179 -298l183 298h175l-282 -438v-290h-154z" />
    <glyph glyph-name="ycircumflex" unicode="&#x177;" horiz-adv-x="631" 
d="M117 619l126 161h144l126 -161h-117l-82 69l-82 -69h-115zM319 171l126 385h158l-215 -570q-33 -86 -73 -121t-110 -35q-72 0 -138 38l51 110q37 -21 69 -21q22 0 35 8.5t25 32.5l-221 558h161z" />
    <glyph glyph-name="Ydieresis" unicode="&#x178;" horiz-adv-x="753" 
d="M190 786v129h148v-129h-148zM414 786v129h148v-129h-148zM299 0v287l-281 441h180l179 -298l183 298h175l-282 -438v-290h-154z" />
    <glyph glyph-name="Zacute" unicode="&#x179;" horiz-adv-x="743" 
d="M316 786l124 161l132 -58l-140 -103h-116zM70 0v116l406 477h-393v135h591v-116l-406 -477h406v-135h-604z" />
    <glyph glyph-name="zacute" unicode="&#x17a;" horiz-adv-x="593" 
d="M239 619l114 181l132 -57l-134 -124h-112zM56 0v106l294 327h-284v123h474v-107l-295 -326h295v-123h-484z" />
    <glyph glyph-name="Zdotaccent" unicode="&#x17b;" horiz-adv-x="743" 
d="M302 786v129h152v-129h-152zM70 0v116l406 477h-393v135h591v-116l-406 -477h406v-135h-604z" />
    <glyph glyph-name="zdotaccent" unicode="&#x17c;" horiz-adv-x="593" 
d="M222 619v137h152v-137h-152zM56 0v106l294 327h-284v123h474v-107l-295 -326h295v-123h-484z" />
    <glyph glyph-name="Zcaron" unicode="&#x17d;" horiz-adv-x="743" 
d="M581 936l-131 -150h-144l-131 150h122l82 -58l82 58h120zM70 0v116l406 477h-393v135h591v-116l-406 -477h406v-135h-604z" />
    <glyph glyph-name="zcaron" unicode="&#x17e;" horiz-adv-x="593" 
d="M496 780l-126 -161h-144l-126 161h117l82 -69l82 69h115zM56 0v106l294 327h-284v123h474v-107l-295 -326h295v-123h-484z" />
    <glyph glyph-name="uni018F" unicode="&#x18f;" horiz-adv-x="837" 
d="M96 605q113 135 309 135q159 0 265.5 -105t106.5 -268v-3q0 -157 -103 -266.5t-259 -109.5q-87 0 -156 32t-112 86.5t-65 124.5t-22 149v2q0 13 2 49h547q-17 80 -72 124t-132 44q-64 0 -114 -22.5t-97 -70.5zM415 126q77 0 128.5 48t66.5 127h-385q11 -78 61 -126.5
t129 -48.5z" />
    <glyph glyph-name="florin" unicode="&#x192;" horiz-adv-x="564" 
d="M107 -5q-37 0 -60 5v123q19 -3 39 -3q33 0 50 15t23 49l31 176h-73v125h95l15 81q16 84 60.5 125.5t133.5 41.5q62 0 101 -12v-126q-42 10 -71 10q-66 0 -79 -72l-8 -48h122v-125h-144l-36 -199q-16 -89 -63 -127.5t-136 -38.5z" />
    <glyph glyph-name="Aringacute" unicode="&#x1fa;" horiz-adv-x="830" 
d="M347 915l130 141l131 -58l-145 -83h-116zM415 714q29 0 47.5 17t18.5 41q0 25 -18.5 42t-47.5 17t-47.5 -17t-18.5 -42t18.5 -41.5t47.5 -16.5zM310 302h205l-102 247zM30 0l295 690q-38 32 -38 82q0 49 37.5 81.5t90.5 32.5t90.5 -32.5t37.5 -81.5q0 -50 -39 -82
l295 -690h-161l-68 166h-315l-68 -166h-157z" />
    <glyph glyph-name="aringacute" unicode="&#x1fb;" horiz-adv-x="623" 
d="M252 893l122 151l130 -58l-140 -93h-112zM313 617q-52 0 -88.5 35t-36.5 85t36.5 85.5t88.5 35.5t88.5 -35.5t36.5 -85.5t-36.5 -85t-88.5 -35zM313 668q28 0 48.5 20.5t20.5 48.5q0 29 -20 49t-49 20t-49 -20t-20 -49q0 -28 20.5 -48.5t48.5 -20.5zM280 95
q57 0 92.5 28.5t35.5 73.5v30q-49 21 -106 21q-53 0 -83 -21t-30 -59v-2q0 -33 25 -52t66 -19zM235 -11q-82 0 -137.5 45.5t-55.5 125.5v2q0 88 61 132.5t164 44.5q71 0 139 -22v10q0 105 -123 105q-72 0 -155 -31l-38 116q102 45 215 45q123 0 187 -62q60 -60 60 -176v-324
h-147v62q-65 -73 -170 -73z" />
    <glyph glyph-name="AEacute" unicode="&#x1fc;" horiz-adv-x="1095" 
d="M584 786l124 161l132 -58l-140 -103h-116zM332 302h176v293h-19zM14 0l395 728h621v-137h-369v-156h322v-137h-322v-161h374v-137h-527v166h-248l-89 -166h-157z" />
    <glyph glyph-name="aeacute" unicode="&#x1fd;" horiz-adv-x="997" 
d="M434 619l114 181l132 -57l-134 -124h-112zM551 320h247q-7 56 -39 90t-83 34q-50 0 -83 -33.5t-42 -90.5zM252 -11q-92 0 -151 46t-59 125v2q0 88 61 132.5t164 44.5q70 0 138 -22v10q0 105 -122 105q-72 0 -155 -31l-38 116q98 45 214 45q134 0 190 -74q73 78 186 78
q86 0 147.5 -43t90 -109.5t28.5 -148.5q0 -12 -2 -40h-391q11 -56 48 -85.5t93 -29.5q76 0 138 58l87 -77q-84 -103 -227 -103q-132 0 -213 86q-112 -85 -227 -85zM279 97q78 0 147 56q-16 36 -20 75q-51 20 -104 20t-83 -21t-30 -59v-2q0 -31 26 -50t64 -19z" />
    <glyph glyph-name="Oslashacute" unicode="&#x1fe;" horiz-adv-x="892" 
d="M384 796l124 161l132 -58l-140 -103h-116zM693 733h147l-102 -118q94 -105 94 -249v-2q0 -157 -110.5 -266.5t-276.5 -109.5q-114 0 -204 53l-42 -46h-147l102 118q-94 105 -94 249v2q0 157 110.5 266.5t276.5 109.5q111 0 203 -54zM218 364q0 -74 39 -135l298 345
q-50 28 -110 28q-98 0 -162.5 -69t-64.5 -167v-2zM447 126q98 0 162.5 69t64.5 167v2q0 75 -39 134l-298 -344q50 -28 110 -28z" />
    <glyph glyph-name="oslashacute" unicode="&#x1ff;" horiz-adv-x="697" 
d="M289 619l114 181l132 -57l-134 -124h-112zM530 561h134l-85 -97q69 -80 69 -185v-2q0 -121 -86 -205t-215 -84q-85 0 -151 37l-29 -30h-134l83 95q-67 78 -67 185v2q0 120 86.5 204.5t214.5 84.5q84 0 150 -37zM195 277q0 -43 18 -79l199 227q-31 14 -65 14
q-69 0 -110.5 -46t-41.5 -114v-2zM350 114q69 0 110.5 46.5t41.5 114.5v2q0 41 -19 79l-198 -228q30 -14 65 -14z" />
    <glyph glyph-name="Scommaaccent" unicode="&#x218;" horiz-adv-x="674" 
d="M351 -10q-179 0 -308 116l91 109q108 -90 220 -90q51 0 80.5 20t29.5 54v2q0 33 -30 53t-120 43q-126 31 -184 77t-58 145v2q0 97 71 157t183 60q154 0 269 -92l-81 -116q-102 73 -191 73q-46 0 -72 -19.5t-26 -48.5v-2q0 -37 31 -56t129 -44q119 -30 175.5 -79
t56.5 -138v-2q0 -105 -73 -164.5t-193 -59.5zM266 -304l-8 46q40 4 60 23t18 51h-65v117h140v-99q0 -71 -36 -103.5t-109 -34.5z" />
    <glyph glyph-name="scommaaccent" unicode="&#x219;" horiz-adv-x="530" 
d="M270 -10q-132 0 -238 83l66 101q91 -67 176 -67q71 0 71 45v2q0 6 -1.5 11t-6 9.5l-8.5 8.5t-12.5 7.5t-14 6.5t-17 6.5t-17.5 5.5t-19.5 6t-20.5 6q-35 10 -60.5 21t-52.5 30t-41 48t-14 67v2q0 81 58 128t145 47q110 0 206 -64l-58 -105q-89 52 -152 52
q-29 0 -45.5 -11.5t-16.5 -30.5v-2q0 -20 24 -33t74 -30l18 -6q36 -11 60.5 -22.5t52 -30t42 -47t14.5 -64.5v-2q0 -88 -58.5 -133t-153.5 -45zM193 -299l-8 46q40 4 60 23t18 51h-65v117h140v-99q0 -71 -36 -103.5t-109 -34.5z" />
    <glyph glyph-name="schwa" unicode="&#x259;" horiz-adv-x="644" 
d="M306 568q125 0 207 -80.5t82 -206.5v-2q0 -121 -77.5 -205.5t-196.5 -84.5q-88 0 -151 43.5t-91 110t-28 148.5q0 12 2 40h391q-11 55 -48 85t-92 30q-76 0 -138 -59l-88 78q85 103 228 103zM446 235h-247q7 -56 39 -89.5t83 -33.5q50 0 83 33t42 90z" />
    <glyph glyph-name="circumflex" unicode="&#x2c6;" horiz-adv-x="528" 
d="M66 619l126 161h144l126 -161h-117l-82 69l-82 -69h-115z" />
    <glyph glyph-name="caron" unicode="&#x2c7;" horiz-adv-x="528" 
d="M462 780l-126 -161h-144l-126 161h117l82 -69l82 69h115z" />
    <glyph glyph-name="breve" unicode="&#x2d8;" horiz-adv-x="528" 
d="M264 617q-82 0 -133.5 43t-58.5 119h102q22 -63 90 -63t90 63h102q-7 -76 -58.5 -119t-133.5 -43z" />
    <glyph glyph-name="dotaccent" unicode="&#x2d9;" horiz-adv-x="528" 
d="M188 619v137h152v-137h-152z" />
    <glyph glyph-name="ring" unicode="&#x2da;" horiz-adv-x="528" 
d="M264 617q-52 0 -88.5 35t-36.5 85t36.5 85.5t88.5 35.5t88.5 -35.5t36.5 -85.5t-36.5 -85t-88.5 -35zM264 668q28 0 48.5 20.5t20.5 48.5q0 29 -20.5 49t-48.5 20t-48.5 -20t-20.5 -49q0 -28 20.5 -48.5t48.5 -20.5z" />
    <glyph glyph-name="ogonek" unicode="&#x2db;" horiz-adv-x="528" 
d="M372 -103v-68q-16 -2 -44 -2q-65 0 -102 25t-37 64q0 42 46 95l101 -1q-37 -38 -37 -70q0 -45 73 -43z" />
    <glyph glyph-name="tilde" unicode="&#x2dc;" horiz-adv-x="528" 
d="M348 619q-39 0 -93 23q-45 17 -61 17q-23 0 -35.5 -12t-23.5 -39l-82 25q20 71 48.5 106t78.5 35q39 0 93 -23q48 -18 61 -18q23 0 35.5 12t23.5 40l82 -25q-20 -71 -48.5 -106t-78.5 -35z" />
    <glyph glyph-name="hungarumlaut" unicode="&#x2dd;" horiz-adv-x="528" 
d="M53 619l112 181l129 -57l-134 -124h-107zM242 619l114 181l129 -57l-135 -124h-108z" />
    <glyph glyph-name="commaaccent" unicode="&#x326;" horiz-adv-x="528" 
d="M189 -299l-8 46q40 4 60 23t18 51h-65v117h140v-99q0 -71 -36 -103.5t-109 -34.5z" />
    <glyph glyph-name="uni0384" unicode="&#x384;" horiz-adv-x="528" 
d="M175 619l74 187l128 -57l-104 -130h-98z" />
    <glyph glyph-name="uni0385" unicode="&#x385;" horiz-adv-x="528" 
d="M194 619l48 213l122 -27l-87 -186h-83zM38 619v135h129v-135h-129zM361 619v135h129v-135h-129z" />
    <glyph glyph-name="uni0386" unicode="&#x386;" horiz-adv-x="830" 
d="M46 512l11 216h146l-79 -216h-78zM310 302h205l-102 247zM30 0l314 733h142l313 -733h-161l-68 166h-315l-68 -166h-157z" />
    <glyph glyph-name="uni0387" unicode="&#x387;" horiz-adv-x="312" 
d="M75 394v162h162v-162h-162z" />
    <glyph glyph-name="uni0388" unicode="&#x388;" horiz-adv-x="705" 
d="M93 0v728h547v-137h-395v-156h348v-137h-348v-161h400v-137h-552zM-103 512l11 216h146l-79 -216h-78z" />
    <glyph glyph-name="uni0389" unicode="&#x389;" horiz-adv-x="798" 
d="M-103 512l11 216h146l-79 -216h-78zM93 0v728h153v-291h306v291h154v-728h-154v295h-306v-295h-153z" />
    <glyph glyph-name="uni038A" unicode="&#x38a;" horiz-adv-x="354" 
d="M100 0v728h154v-728h-154zM-99 512l11 216h146l-79 -216h-78z" />
    <glyph glyph-name="uni038C" unicode="&#x38c;" horiz-adv-x="892" 
d="M445 -12q-166 0 -275.5 108.5t-109.5 265.5v2q0 157 110.5 266.5t276.5 109.5t275.5 -108.5t109.5 -265.5v-2q0 -157 -110.5 -266.5t-276.5 -109.5zM-76 512l11 216h146l-79 -216h-78zM447 129q97 0 160.5 67.5t63.5 165.5v2q0 98 -64.5 166.5t-161.5 68.5t-160.5 -67.5
t-63.5 -165.5v-2q0 -98 64.5 -166.5t161.5 -68.5z" />
    <glyph glyph-name="uni038E" unicode="&#x38e;" horiz-adv-x="753" 
d="M299 0v287l-281 441h180l179 -298l183 298h175l-282 -438v-290h-154zM-153 512l11 216h146l-79 -216h-78z" />
    <glyph glyph-name="uni038F" unicode="&#x38f;" horiz-adv-x="913" 
d="M-73 512l11 216h146l-79 -216h-78zM457 740q172 0 273.5 -94.5t101.5 -240.5v-1q0 -161 -152 -273h169v-131h-322v129q44 31 73.5 62t50 81t20.5 112v1q0 96 -58 155.5t-158 58.5q-98 0 -155.5 -58t-57.5 -152v-1q0 -87 37 -148t106 -111v-129h-321v131h168
q-71 54 -111 119t-40 155v1q0 140 102.5 237.5t273.5 96.5z" />
    <glyph glyph-name="uni0390" unicode="&#x390;" horiz-adv-x="343" 
d="M84 619l48 213l122 -27l-87 -186h-83zM-72 619v135h129v-135h-129zM251 619v135h129v-135h-129zM74 171v385h152v-378q0 -59 55 -59q21 0 33 3v-117q-37 -11 -84 -11q-79 0 -117.5 42t-38.5 135z" />
    <glyph glyph-name="uni0391" unicode="&#x391;" horiz-adv-x="830" 
d="M310 302h205l-102 247zM30 0l314 733h142l313 -733h-161l-68 166h-315l-68 -166h-157z" />
    <glyph glyph-name="uni0392" unicode="&#x392;" horiz-adv-x="759" 
d="M93 0v728h335q125 0 191 -64q49 -50 49 -124v-2q0 -104 -97 -158q68 -25 103 -66.5t35 -111.5v-2q0 -98 -73 -149t-199 -51h-344zM515 513v2q0 37 -28.5 57.5t-80.5 20.5h-164v-162h154q119 0 119 82zM556 220q0 83 -125 83h-189v-168h195q119 0 119 83v2z" />
    <glyph glyph-name="uni0393" unicode="&#x393;" horiz-adv-x="651" 
d="M93 0v728h520v-140h-367v-588h-153z" />
    <glyph glyph-name="uni0394" unicode="&#x394;" horiz-adv-x="826" 
d="M62 0l-12 111l283 622h160l283 -622l-12 -111h-702zM411 564l-186 -428h372z" />
    <glyph glyph-name="uni0395" unicode="&#x395;" horiz-adv-x="705" 
d="M93 0v728h547v-137h-395v-156h348v-137h-348v-161h400v-137h-552z" />
    <glyph glyph-name="uni0396" unicode="&#x396;" horiz-adv-x="743" 
d="M70 0v116l406 477h-393v135h591v-116l-406 -477h406v-135h-604z" />
    <glyph glyph-name="uni0397" unicode="&#x397;" horiz-adv-x="798" 
d="M93 0v728h153v-291h306v291h154v-728h-154v295h-306v-295h-153z" />
    <glyph glyph-name="uni0398" unicode="&#x398;" horiz-adv-x="892" 
d="M445 -12q-166 0 -275.5 108.5t-109.5 265.5v2q0 157 110.5 266.5t276.5 109.5t275.5 -108.5t109.5 -265.5v-2q0 -157 -110.5 -266.5t-276.5 -109.5zM447 127q103 0 166 66t63 169v2q0 103 -64 170t-167 67t-166 -66t-63 -169v-2q0 -103 64 -170t167 -67zM590 437v-141
h-288v141h288z" />
    <glyph glyph-name="uni0399" unicode="&#x399;" horiz-adv-x="354" 
d="M100 0v728h154v-728h-154z" />
    <glyph glyph-name="uni039A" unicode="&#x39a;" horiz-adv-x="766" 
d="M93 0v728h153v-328l304 328h189l-299 -310l312 -418h-185l-231 313l-90 -93v-220h-153z" />
    <glyph glyph-name="uni039B" unicode="&#x39b;" horiz-adv-x="809" 
d="M472 733l307 -733h-170l-208 518l-205 -518h-166l306 733h136z" />
    <glyph glyph-name="uni039C" unicode="&#x39c;" horiz-adv-x="911" 
d="M93 0v728h165l197 -315l198 315h165v-728h-153v485l-210 -318h-4l-208 315v-482h-150z" />
    <glyph glyph-name="uni039D" unicode="&#x39d;" horiz-adv-x="830" 
d="M93 0v728h141l351 -459v459h152v-728h-131l-362 474v-474h-151z" />
    <glyph glyph-name="uni039E" unicode="&#x39e;" horiz-adv-x="694" 
d="M629 589h-564v139h564v-139zM603 297h-512v139h512v-139zM634 0h-574v139h574v-139z" />
    <glyph glyph-name="uni039F" unicode="&#x39f;" horiz-adv-x="892" 
d="M445 -12q-166 0 -275.5 108.5t-109.5 265.5v2q0 157 110.5 266.5t276.5 109.5t275.5 -108.5t109.5 -265.5v-2q0 -157 -110.5 -266.5t-276.5 -109.5zM447 129q97 0 160.5 67.5t63.5 165.5v2q0 98 -64.5 166.5t-161.5 68.5t-160.5 -67.5t-63.5 -165.5v-2q0 -98 64.5 -166.5
t161.5 -68.5z" />
    <glyph glyph-name="uni03A0" unicode="&#x3a0;" horiz-adv-x="794" 
d="M93 0v728h608v-728h-154v588h-301v-588h-153z" />
    <glyph glyph-name="uni03A1" unicode="&#x3a1;" horiz-adv-x="703" 
d="M93 0v728h295q128 0 203 -69t75 -181v-2q0 -121 -83 -187.5t-210 -66.5h-127v-222h-153zM246 359h132q61 0 97 32t36 82v2q0 55 -36.5 84.5t-99.5 29.5h-129v-230z" />
    <glyph glyph-name="uni03A3" unicode="&#x3a3;" horiz-adv-x="730" 
d="M521 364l-233 -229h382v-135h-597v114l251 250l-249 250v114h589v-135h-374z" />
    <glyph glyph-name="uni03A4" unicode="&#x3a4;" horiz-adv-x="681" 
d="M264 0v586h-224v142h601v-142h-223v-586h-154z" />
    <glyph glyph-name="uni03A5" unicode="&#x3a5;" horiz-adv-x="753" 
d="M299 0v287l-281 441h180l179 -298l183 298h175l-282 -438v-290h-154z" />
    <glyph glyph-name="uni03A6" unicode="&#x3a6;" horiz-adv-x="1018" 
d="M432 -9v74q-177 3 -277 85.5t-100 214.5v1q0 131 100 214.5t277 86.5v70h154v-70q177 -4 277 -86t100 -214v-1q0 -131 -100.5 -214.5t-276.5 -86.5v-74h-154zM803 367q0 74 -56 119.5t-164 46.5v-334q107 1 163.5 46.5t56.5 120.5v1zM214 365q0 -74 56.5 -119.5
t164.5 -46.5v334q-108 -1 -164.5 -46.5t-56.5 -120.5v-1z" />
    <glyph glyph-name="uni03A7" unicode="&#x3a7;" horiz-adv-x="769" 
d="M546 728h175l-245 -355l255 -373h-180l-169 256l-170 -256h-175l256 370l-245 358h180l158 -242z" />
    <glyph glyph-name="uni03A8" unicode="&#x3a8;" horiz-adv-x="896" 
d="M824 728v-259q0 -155 -78 -233.5t-222 -83.5v-152h-152v152q-144 5 -221.5 82.5t-77.5 229.5v264h151v-260q0 -90 36 -130.5t114 -43.5v434h148v-434q77 3 113.5 42t36.5 127v265h152z" />
    <glyph glyph-name="uni03A9" unicode="&#x3a9;" horiz-adv-x="913" 
d="M457 740q172 0 273.5 -94.5t101.5 -240.5v-1q0 -161 -152 -273h169v-131h-322v129q44 31 73.5 62t50 81t20.5 112v1q0 96 -58 155.5t-158 58.5q-98 0 -155.5 -58t-57.5 -152v-1q0 -87 37 -148t106 -111v-129h-321v131h168q-71 54 -111 119t-40 155v1q0 140 102.5 237.5
t273.5 96.5z" />
    <glyph glyph-name="uni03AA" unicode="&#x3aa;" horiz-adv-x="354" 
d="M-9 786v129h148v-129h-148zM215 786v129h148v-129h-148zM100 0v728h154v-728h-154z" />
    <glyph glyph-name="uni03AB" unicode="&#x3ab;" horiz-adv-x="753" 
d="M190 786v129h148v-129h-148zM414 786v129h148v-129h-148zM299 0v287l-281 441h180l179 -298l183 298h175l-282 -438v-290h-154z" />
    <glyph glyph-name="uni03AC" unicode="&#x3ac;" horiz-adv-x="750" 
d="M337 619l74 187l128 -57l-104 -130h-98zM343 119q58 0 99 44t41 114v2q0 70 -41 114t-99 44q-59 0 -99.5 -43.5t-40.5 -114.5v-2q0 -70 41 -114t99 -44zM721 122v-117q-37 -11 -83 -11q-110 0 -139 83q-72 -88 -186 -88q-109 0 -185.5 77t-76.5 211v2q0 133 74.5 210
t179.5 77q106 0 176 -85v75h152v-378q0 -59 55 -59q20 0 33 3z" />
    <glyph glyph-name="uni03AD" unicode="&#x3ad;" horiz-adv-x="599" 
d="M259 619l74 187l128 -57l-104 -130h-98zM417 224h-120q-96 0 -96 -54v-1q0 -59 108 -59q97 0 188 59l63 -99q-115 -81 -257 -81q-120 0 -184.5 44.5t-64.5 119.5v1q0 85 97 126q-83 42 -83 120v1q0 73 63 118t178 45q140 0 246 -78l-76 -101q-77 59 -164 59
q-48 0 -74 -16t-26 -40v-1q0 -54 82 -54h120v-109z" />
    <glyph glyph-name="uni03AE" unicode="&#x3ae;" horiz-adv-x="655" 
d="M283 619l74 187l128 -57l-104 -130h-98zM584 -166h-152v477q0 57 -26 87.5t-74 30.5t-76 -30.5t-28 -87.5v-311h-152v556h152v-80q69 90 165 90q90 0 140.5 -55.5t50.5 -151.5v-525z" />
    <glyph glyph-name="uni03AF" unicode="&#x3af;" horiz-adv-x="343" 
d="M106 619l74 187l128 -57l-104 -130h-98zM74 171v385h152v-378q0 -59 55 -59q21 0 33 3v-117q-37 -11 -84 -11q-79 0 -117.5 42t-38.5 135z" />
    <glyph glyph-name="uni03B0" unicode="&#x3b0;" horiz-adv-x="657" 
d="M258 619l48 213l122 -27l-87 -186h-83zM102 619v135h129v-135h-129zM425 619v135h129v-135h-129zM327 -12q-120 0 -188.5 63t-68.5 183v322h152v-317q0 -121 107 -121t107 118v320h152v-318q0 -123 -70 -186.5t-191 -63.5z" />
    <glyph glyph-name="uni03B1" unicode="&#x3b1;" horiz-adv-x="750" 
d="M343 119q58 0 99 44t41 114v2q0 70 -41 114t-99 44q-59 0 -99.5 -43.5t-40.5 -114.5v-2q0 -70 41 -114t99 -44zM721 122v-117q-37 -11 -83 -11q-110 0 -139 83q-72 -88 -186 -88q-109 0 -185.5 77t-76.5 211v2q0 133 74.5 210t179.5 77q106 0 176 -85v75h152v-378
q0 -59 55 -59q20 0 33 3z" />
    <glyph glyph-name="uni03B2" unicode="&#x3b2;" horiz-adv-x="695" 
d="M226 493v-66h84q75 0 116.5 30.5t41.5 84.5q0 44 -29.5 71.5t-80.5 27.5q-62 0 -97 -40t-35 -108zM311 320h-85v-22q0 -92 41.5 -136.5t113.5 -44.5q54 0 83.5 26t29.5 67q0 110 -183 110zM228 -166h-152v658q0 129 74.5 201.5t206.5 72.5q125 0 192 -58t67 -150v-1
q0 -67 -34.5 -114t-100.5 -66q81 -21 122 -63t41 -118v-1q0 -91 -59.5 -149t-161.5 -57q-131 0 -195 86v-241z" />
    <glyph glyph-name="uni03B3" unicode="&#x3b3;" horiz-adv-x="631" 
d="M605 556l-214 -533v-189h-151v189l-214 533h162l128 -369l130 369h159z" />
    <glyph glyph-name="uni03B4" unicode="&#x3b4;" horiz-adv-x="681" 
d="M564 635l-236 4l116 -83q99 -70 142.5 -135t43.5 -154q0 -120 -80.5 -199.5t-214.5 -79.5q-127 0 -206.5 78.5t-79.5 192.5q0 100 48 162t158 119l-125 106v113h434v-124zM357 454h-1q-89 -48 -125 -93t-35 -101q0 -60 40 -102.5t102 -42.5t103 43t41 100
q0 51 -25.5 91.5t-99.5 104.5z" />
    <glyph glyph-name="uni03B5" unicode="&#x3b5;" horiz-adv-x="599" 
d="M417 224h-120q-96 0 -96 -54v-1q0 -59 108 -59q97 0 188 59l63 -99q-115 -81 -257 -81q-120 0 -184.5 44.5t-64.5 119.5v1q0 85 97 126q-83 42 -83 120v1q0 73 63 118t178 45q140 0 246 -78l-76 -101q-77 59 -164 59q-48 0 -74 -16t-26 -40v-1q0 -54 82 -54h120v-109z
" />
    <glyph glyph-name="uni03B6" unicode="&#x3b6;" horiz-adv-x="585" 
d="M396 -133v120l-103 13q-126 16 -186 68t-60 141q0 63 24.5 112t85.5 113l191 200h-260v125h451v-117l-281 -301q-35 -37 -48 -61.5t-13 -53.5q0 -41 30 -63.5t92 -30.5l218 -30v-235h-141z" />
    <glyph glyph-name="uni03B7" unicode="&#x3b7;" horiz-adv-x="655" 
d="M584 -166h-152v477q0 57 -26 87.5t-74 30.5t-76 -30.5t-28 -87.5v-311h-152v556h152v-80q69 90 165 90q90 0 140.5 -55.5t50.5 -151.5v-525z" />
    <glyph glyph-name="uni03B8" unicode="&#x3b8;" horiz-adv-x="709" 
d="M353 -12q-132 0 -213 102.5t-81 273.5v26q0 170 82.5 273t214.5 103q131 0 212.5 -102.5t81.5 -273.5v-26q0 -171 -82.5 -273.5t-214.5 -102.5zM354 639q-66 0 -105.5 -53.5t-43.5 -146.5h298q-4 92 -44 146t-105 54zM355 115q66 0 105.5 54t42.5 147h-298
q5 -94 44.5 -147.5t105.5 -53.5z" />
    <glyph glyph-name="uni03B9" unicode="&#x3b9;" horiz-adv-x="343" 
d="M74 171v385h152v-378q0 -59 55 -59q21 0 33 3v-117q-37 -11 -84 -11q-79 0 -117.5 42t-38.5 135z" />
    <glyph glyph-name="uni03BA" unicode="&#x3ba;" horiz-adv-x="622" 
d="M228 556v-231l194 231h185l-212 -233l216 -323h-177l-139 216l-67 -74v-142h-152v556h152z" />
    <glyph glyph-name="uni03BB" unicode="&#x3bb;" horiz-adv-x="647" 
d="M105 625v125q43 16 96 16q73 0 111 -31t68 -110l243 -625h-161l-137 381l-139 -381h-158l228 551l-13 32q-21 54 -73 54q-33 0 -65 -12z" />
    <glyph glyph-name="uni03BC" unicode="&#x3bc;" horiz-adv-x="704" 
d="M676 122v-117q-38 -11 -82 -11q-101 0 -134 69q-45 -70 -124 -70q-41 0 -77 19.5t-52 56.5h-2q20 -84 20 -124v-111h-149v722h152v-315q0 -57 27 -88t75 -31q49 0 77.5 31t28.5 88v315h152v-385q1 -28 14.5 -40t40.5 -12q19 0 33 3z" />
    <glyph glyph-name="uni03BD" unicode="&#x3bd;" horiz-adv-x="631" 
d="M247 -4l-221 560h161l129 -380l131 380h158l-221 -560h-137z" />
    <glyph glyph-name="uni03BE" unicode="&#x3be;" horiz-adv-x="586" 
d="M571 689l-74 -116q-75 62 -153 62q-51 0 -81 -27t-30 -70q0 -48 39 -75t105 -27h88v-124h-118q-70 0 -108.5 -24.5t-38.5 -66.5t30.5 -63.5t90.5 -29.5l211 -28v-233h-141v120l-105 13q-116 14 -176 60.5t-60 139.5q0 133 149 180q-116 51 -116 171q0 92 71 153.5
t191 61.5q129 0 226 -77z" />
    <glyph glyph-name="uni03BF" unicode="&#x3bf;" horiz-adv-x="697" 
d="M347 -12q-127 0 -212.5 83t-85.5 204v2q0 120 86.5 204.5t214.5 84.5q127 0 212.5 -83.5t85.5 -203.5v-2q0 -121 -86 -205t-215 -84zM350 118q67 0 107.5 45.5t40.5 111.5v2q0 65 -42.5 111.5t-108.5 46.5q-67 0 -107.5 -45t-40.5 -111v-2q0 -65 42.5 -112t108.5 -47z
" />
    <glyph glyph-name="uni03C0" unicode="&#x3c0;" horiz-adv-x="743" 
d="M31 556h663v-135h-88v-243q0 -59 55 -59q21 0 33 3v-117q-37 -11 -84 -11q-79 0 -117.5 42t-38.5 135v250h-183v-421h-152v421h-88v135z" />
    <glyph glyph-name="uni03C1" unicode="&#x3c1;" horiz-adv-x="699" 
d="M356 119q59 0 100 43.5t41 114.5v2q0 70 -41 114t-100 44q-58 0 -98.5 -44t-40.5 -114v-2q0 -70 40.5 -114t98.5 -44zM67 -166v427q0 138 78 221.5t212 83.5q128 0 210 -82.5t82 -204.5v-2q0 -129 -75 -208.5t-174 -79.5q-114 0 -182 87v-242h-151z" />
    <glyph glyph-name="uni03C2" unicode="&#x3c2;" horiz-adv-x="605" 
d="M397 -133v122l-59 7q-141 20 -215 92.5t-74 196.5v1q0 115 80 198t208 82q138 0 225 -97l-95 -103q-61 69 -133 69q-59 0 -97 -43.5t-38 -102.5v-1q0 -72 44.5 -112t134.5 -51l160 -22v-236h-141z" />
    <glyph glyph-name="uni03C3" unicode="&#x3c3;" horiz-adv-x="730" 
d="M698 426l-145 2q87 -64 87 -171v-1q0 -113 -84 -191t-212 -77q-128 0 -211.5 80.5t-83.5 200.5v1q0 120 87 203.5t227 82.5h335v-130zM347 118q67 0 106 42.5t39 107.5v1q0 66 -39.5 111.5t-108.5 44.5q-67 0 -106 -44.5t-39 -110.5v-1q0 -63 41 -107.5t107 -43.5z" />
    <glyph glyph-name="uni03C4" unicode="&#x3c4;" horiz-adv-x="605" 
d="M562 421h-192v-227q0 -41 18 -58.5t55 -17.5q31 0 68 9v-119q-50 -15 -106 -15q-100 0 -143.5 43.5t-43.5 148.5v236h-181v135h525v-135z" />
    <glyph glyph-name="uni03C5" unicode="&#x3c5;" horiz-adv-x="657" 
d="M327 -12q-120 0 -188.5 63t-68.5 183v322h152v-317q0 -121 107 -121t107 118v320h152v-318q0 -123 -70 -186.5t-191 -63.5z" />
    <glyph glyph-name="uni03C6" unicode="&#x3c6;" horiz-adv-x="892" 
d="M521 -166h-150v165q-151 5 -236.5 82t-85.5 196v1q0 117 85.5 195t236.5 84v202h150v-202q151 -6 236.5 -83t85.5 -195v-1q0 -117 -86 -195.5t-236 -83.5v-165zM197 278q0 -67 47 -108.5t130 -43.5v304q-86 -3 -131.5 -43.5t-45.5 -107.5v-1zM696 278q0 67 -47 108.5
t-131 43.5v-304q86 2 132 43t46 108v1z" />
    <glyph glyph-name="uni03C7" unicode="&#x3c7;" horiz-adv-x="643" 
d="M193 556l130 -231l130 231h163l-211 -344l235 -378h-168l-152 266l-153 -266h-163l233 376l-211 346h167z" />
    <glyph glyph-name="uni03C8" unicode="&#x3c8;" horiz-adv-x="871" 
d="M510 -166h-149v164q-136 1 -213.5 71.5t-77.5 204.5v282h150v-279q0 -68 38.5 -107.5t103.5 -40.5v630h147v-630q65 1 103.5 40t38.5 106v281h150v-278q0 -136 -78 -207t-213 -73v-164z" />
    <glyph glyph-name="uni03C9" unicode="&#x3c9;" horiz-adv-x="923" 
d="M388 448h148v-189q0 -65 25 -101t66 -36q93 0 93 148q0 73 -30 139t-95 147h161q112 -130 112 -291q0 -127 -57 -202t-163 -75q-137 0 -187 136q-52 -136 -188 -136q-106 0 -162 75t-56 202q0 161 112 291h159q-65 -80 -94 -146t-29 -140q0 -148 93 -148q41 0 66.5 36
t25.5 101v189z" />
    <glyph glyph-name="uni03CA" unicode="&#x3ca;" horiz-adv-x="343" 
d="M-27 619v137h147v-137h-147zM186 619v137h147v-137h-147zM74 171v385h152v-378q0 -59 55 -59q21 0 33 3v-117q-37 -11 -84 -11q-79 0 -117.5 42t-38.5 135z" />
    <glyph glyph-name="uni03CB" unicode="&#x3cb;" horiz-adv-x="657" 
d="M148 619v137h147v-137h-147zM361 619v137h147v-137h-147zM327 -12q-120 0 -188.5 63t-68.5 183v322h152v-317q0 -121 107 -121t107 118v320h152v-318q0 -123 -70 -186.5t-191 -63.5z" />
    <glyph glyph-name="uni03CC" unicode="&#x3cc;" horiz-adv-x="697" 
d="M302 619l74 187l128 -57l-104 -130h-98zM347 -12q-127 0 -212.5 83t-85.5 204v2q0 120 86.5 204.5t214.5 84.5q127 0 212.5 -83.5t85.5 -203.5v-2q0 -121 -86 -205t-215 -84zM350 118q67 0 107.5 45.5t40.5 111.5v2q0 65 -42.5 111.5t-108.5 46.5q-67 0 -107.5 -45
t-40.5 -111v-2q0 -65 42.5 -112t108.5 -47z" />
    <glyph glyph-name="uni03CD" unicode="&#x3cd;" horiz-adv-x="657" 
d="M281 619l74 187l128 -57l-104 -130h-98zM327 -12q-120 0 -188.5 63t-68.5 183v322h152v-317q0 -121 107 -121t107 118v320h152v-318q0 -123 -70 -186.5t-191 -63.5z" />
    <glyph glyph-name="uni03CE" unicode="&#x3ce;" horiz-adv-x="923" 
d="M415 619l74 187l128 -57l-104 -130h-98zM388 448h148v-189q0 -65 25 -101t66 -36q93 0 93 148q0 73 -30 139t-95 147h161q112 -130 112 -291q0 -127 -57 -202t-163 -75q-137 0 -187 136q-52 -136 -188 -136q-106 0 -162 75t-56 202q0 161 112 291h159q-65 -80 -94 -146
t-29 -140q0 -148 93 -148q41 0 66.5 36t25.5 101v189z" />
    <glyph glyph-name="uni0400" unicode="&#x400;" horiz-adv-x="705" 
d="M430 786h-116l-140 103l132 58zM93 0v728h547v-137h-395v-156h348v-137h-348v-161h400v-137h-552z" />
    <glyph glyph-name="uni0401" unicode="&#x401;" horiz-adv-x="705" 
d="M182 786v129h148v-129h-148zM406 786v129h148v-129h-148zM93 0v728h547v-137h-395v-156h348v-137h-348v-161h400v-137h-552z" />
    <glyph glyph-name="uni0402" unicode="&#x402;" horiz-adv-x="868" 
d="M636 728v-142h-229v-146q79 14 149 14q128 0 198.5 -58t70.5 -165q0 -105 -70 -169t-198 -64h-22v135h2q68 0 101 24.5t33 66.5q0 94 -134 94q-55 0 -130 -12v-306h-154v586h-213v142h596z" />
    <glyph glyph-name="uni0403" unicode="&#x403;" horiz-adv-x="651" 
d="M289 786l124 161l132 -58l-140 -103h-116zM93 0v728h520v-140h-367v-588h-153z" />
    <glyph glyph-name="uni0404" unicode="&#x404;" horiz-adv-x="772" 
d="M429 -12q-159 0 -264 108t-105 266v2q0 158 105.5 267t269.5 109q97 0 164 -28.5t123 -83.5l-97 -112q-91 85 -189 85q-80 0 -137.5 -46.5t-74.5 -122.5h326v-130h-327q15 -78 73 -126.5t140 -48.5q60 0 102.5 21.5t91.5 66.5l97 -98q-61 -64 -130 -96.5t-168 -32.5z" />
    <glyph glyph-name="uni0405" unicode="&#x405;" horiz-adv-x="674" 
d="M351 -10q-179 0 -308 116l91 109q108 -90 220 -90q51 0 80.5 20t29.5 54v2q0 33 -30 53t-120 43q-126 31 -184 77t-58 145v2q0 97 71 157t183 60q154 0 269 -92l-81 -116q-102 73 -191 73q-46 0 -72 -19.5t-26 -48.5v-2q0 -37 31 -56t129 -44q119 -30 175.5 -79
t56.5 -138v-2q0 -105 -73 -164.5t-193 -59.5z" />
    <glyph glyph-name="uni0406" unicode="&#x406;" horiz-adv-x="354" 
d="M100 0v728h154v-728h-154z" />
    <glyph glyph-name="uni0407" unicode="&#x407;" horiz-adv-x="354" 
d="M-9 786v129h148v-129h-148zM215 786v129h148v-129h-148zM100 0v728h154v-728h-154z" />
    <glyph glyph-name="uni0408" unicode="&#x408;" horiz-adv-x="594" 
d="M257 -10q-145 0 -237 110l98 108q65 -76 135 -76q48 0 75 31t27 94v471h157v-477q0 -126 -68 -194q-66 -67 -187 -67z" />
    <glyph glyph-name="uni0409" unicode="&#x409;" horiz-adv-x="1100" 
d="M496 0v600h-5l-320 -600h-157l394 728h241v-232h124q133 0 209.5 -63t76.5 -182v-1q0 -116 -77.5 -183.5t-215.5 -66.5h-270zM649 139h120q63 0 98.5 28.5t35.5 82.5v1q0 51 -35 80t-98 28h-121v-220z" />
    <glyph glyph-name="uni040A" unicode="&#x40a;" horiz-adv-x="1145" 
d="M694 139h120q63 0 98.5 28.5t35.5 82.5v1q0 51 -34.5 80t-97.5 28h-122v-220zM542 0v295h-296v-295h-153v728h153v-291h296v291h152v-232h124q133 0 209.5 -63t76.5 -182v-1q0 -116 -77.5 -183.5t-215.5 -66.5h-269z" />
    <glyph glyph-name="uni040B" unicode="&#x40b;" horiz-adv-x="897" 
d="M636 728v-142h-229v-146q81 14 143 14q131 0 203 -62t72 -189v-203h-154v185q0 131 -137 131q-58 0 -127 -12v-304h-154v586h-213v142h596z" />
    <glyph glyph-name="uni040C" unicode="&#x40c;" horiz-adv-x="776" 
d="M335 786l124 161l132 -58l-140 -103h-116zM93 0v728h153l-2 -294h58l258 294h191l-326 -352l345 -376h-196l-269 300h-61l2 -300h-153z" />
    <glyph glyph-name="uni040D" unicode="&#x40d;" horiz-adv-x="830" 
d="M476 786h-116l-140 103l132 58zM737 0h-154v486l-355 -486h-135v728h153v-471l344 471h147v-728z" />
    <glyph glyph-name="uni040E" unicode="&#x40e;" horiz-adv-x="760" 
d="M389 784q-82 0 -134.5 40t-59.5 112h104q20 -52 90 -52t90 52h104q-7 -72 -59.5 -112t-134.5 -40zM337 0h-171l144 250l-283 478h174l194 -339l177 339h171z" />
    <glyph glyph-name="uni040F" unicode="&#x40f;" horiz-adv-x="794" 
d="M325 -148v148h-232v728h153v-588h301v588h154v-728h-232v-148h-144z" />
    <glyph glyph-name="uni0410" unicode="&#x410;" horiz-adv-x="830" 
d="M310 302h205l-102 247zM30 0l314 733h142l313 -733h-161l-68 166h-315l-68 -166h-157z" />
    <glyph glyph-name="uni0411" unicode="&#x411;" horiz-adv-x="744" 
d="M93 0v728h536v-136h-387v-149h187q125 0 194.5 -55.5t69.5 -159.5v-1q0 -106 -71 -166.5t-199 -60.5h-330zM242 136h184q51 0 82 23t31 65v1q0 40 -29.5 62.5t-82.5 22.5h-185v-174z" />
    <glyph glyph-name="uni0412" unicode="&#x412;" horiz-adv-x="759" 
d="M93 0v728h335q125 0 191 -64q49 -50 49 -124v-2q0 -104 -97 -158q68 -25 103 -66.5t35 -111.5v-2q0 -98 -73 -149t-199 -51h-344zM515 513v2q0 37 -28.5 57.5t-80.5 20.5h-164v-162h154q119 0 119 82zM556 220q0 83 -125 83h-189v-168h195q119 0 119 83v2z" />
    <glyph glyph-name="uni0413" unicode="&#x413;" horiz-adv-x="651" 
d="M93 0v728h520v-140h-367v-588h-153z" />
    <glyph glyph-name="uni0414" unicode="&#x414;" horiz-adv-x="884" 
d="M440 564l-174 -430h348zM36 140h72l253 593h162l251 -593h74v-288h-144v148h-524v-148h-144v288z" />
    <glyph glyph-name="uni0415" unicode="&#x415;" horiz-adv-x="705" 
d="M93 0v728h547v-137h-395v-156h348v-137h-348v-161h400v-137h-552z" />
    <glyph glyph-name="uni0416" unicode="&#x416;" horiz-adv-x="1143" 
d="M35 728h183l239 -296h40l-1 296h151l-2 -296h40l242 296h181l-297 -355l321 -373h-183l-257 302h-47l2 -302h-151l1 302h-51l-255 -302h-180l321 373z" />
    <glyph glyph-name="uni0417" unicode="&#x417;" horiz-adv-x="702" 
d="M149 517l-93 104q134 119 300 119q128 0 200 -53t72 -143v-1q0 -66 -32 -105.5t-94 -63.5q146 -37 146 -170v-1q0 -94 -81.5 -155t-221.5 -60q-177 0 -302 111l91 110q106 -84 215 -84q64 0 103.5 23.5t39.5 67.5v1q0 42 -38.5 64.5t-105.5 21.5h-134v128h138
q56 0 88 24.5t32 64.5v1q0 39 -31.5 60.5t-87.5 21.5q-101 0 -204 -86z" />
    <glyph glyph-name="uni0418" unicode="&#x418;" horiz-adv-x="830" 
d="M737 0h-154v486l-355 -486h-135v728h153v-471l344 471h147v-728z" />
    <glyph glyph-name="uni0419" unicode="&#x419;" horiz-adv-x="830" 
d="M415 784q-82 0 -134.5 40t-59.5 112h104q20 -52 90 -52t90 52h104q-7 -72 -59.5 -112t-134.5 -40zM737 0h-154v486l-355 -486h-135v728h153v-471l344 471h147v-728z" />
    <glyph glyph-name="uni041A" unicode="&#x41a;" horiz-adv-x="776" 
d="M93 0v728h153l-2 -294h58l258 294h191l-326 -352l345 -376h-196l-269 300h-61l2 -300h-153z" />
    <glyph glyph-name="uni041B" unicode="&#x41b;" horiz-adv-x="809" 
d="M472 733l307 -733h-170l-208 518l-205 -518h-166l306 733h136z" />
    <glyph glyph-name="uni041C" unicode="&#x41c;" horiz-adv-x="911" 
d="M93 0v728h165l197 -315l198 315h165v-728h-153v485l-210 -318h-4l-208 315v-482h-150z" />
    <glyph glyph-name="uni041D" unicode="&#x41d;" horiz-adv-x="798" 
d="M93 0v728h153v-291h306v291h154v-728h-154v295h-306v-295h-153z" />
    <glyph glyph-name="uni041E" unicode="&#x41e;" horiz-adv-x="892" 
d="M445 -12q-166 0 -275.5 108.5t-109.5 265.5v2q0 157 110.5 266.5t276.5 109.5t275.5 -108.5t109.5 -265.5v-2q0 -157 -110.5 -266.5t-276.5 -109.5zM447 129q97 0 160.5 67.5t63.5 165.5v2q0 98 -64.5 166.5t-161.5 68.5t-160.5 -67.5t-63.5 -165.5v-2q0 -98 64.5 -166.5
t161.5 -68.5z" />
    <glyph glyph-name="uni041F" unicode="&#x41f;" horiz-adv-x="794" 
d="M93 0v728h608v-728h-154v588h-301v-588h-153z" />
    <glyph glyph-name="uni0420" unicode="&#x420;" horiz-adv-x="703" 
d="M93 0v728h295q128 0 203 -69t75 -181v-2q0 -121 -83 -187.5t-210 -66.5h-127v-222h-153zM246 359h132q61 0 97 32t36 82v2q0 55 -36.5 84.5t-99.5 29.5h-129v-230z" />
    <glyph glyph-name="uni0421" unicode="&#x421;" horiz-adv-x="776" 
d="M433 -12q-160 0 -266.5 108t-106.5 266v2q0 158 107 267t272 109q97 0 164 -28.5t123 -83.5l-98 -113q-92 84 -190 84q-93 0 -155 -68t-62 -165v-2q0 -98 61.5 -166.5t155.5 -68.5q59 0 102.5 21.5t92.5 65.5l98 -99q-61 -64 -130 -96.5t-168 -32.5z" />
    <glyph glyph-name="uni0422" unicode="&#x422;" horiz-adv-x="681" 
d="M264 0v586h-224v142h601v-142h-223v-586h-154z" />
    <glyph glyph-name="uni0423" unicode="&#x423;" horiz-adv-x="760" 
d="M337 0h-171l144 250l-283 478h174l194 -339l177 339h171z" />
    <glyph glyph-name="uni0424" unicode="&#x424;" horiz-adv-x="1018" 
d="M432 -9v74q-177 3 -277 85.5t-100 214.5v1q0 131 100 214.5t277 86.5v70h154v-70q177 -4 277 -86t100 -214v-1q0 -131 -100.5 -214.5t-276.5 -86.5v-74h-154zM803 367q0 74 -56 119.5t-164 46.5v-334q107 1 163.5 46.5t56.5 120.5v1zM214 365q0 -74 56.5 -119.5
t164.5 -46.5v334q-108 -1 -164.5 -46.5t-56.5 -120.5v-1z" />
    <glyph glyph-name="uni0425" unicode="&#x425;" horiz-adv-x="769" 
d="M546 728h175l-245 -355l255 -373h-180l-169 256l-170 -256h-175l256 370l-245 358h180l158 -242z" />
    <glyph glyph-name="uni0426" unicode="&#x426;" horiz-adv-x="827" 
d="M650 -148v148h-557v728h153v-588h301v588h154v-588h93v-288h-144z" />
    <glyph glyph-name="uni0427" unicode="&#x427;" horiz-adv-x="750" 
d="M504 0v239q-82 -17 -155 -17q-129 0 -202 62.5t-73 189.5v254h154v-237q0 -67 33.5 -98.5t103.5 -31.5q73 0 139 17v350h154v-728h-154z" />
    <glyph glyph-name="uni0428" unicode="&#x428;" horiz-adv-x="1179" 
d="M93 0v728h153v-588h266v588h154v-588h266v588h154v-728h-993z" />
    <glyph glyph-name="uni0429" unicode="&#x429;" horiz-adv-x="1212" 
d="M93 0v728h153v-588h266v588h154v-588h266v588h154v-588h93v-288h-144v148h-942z" />
    <glyph glyph-name="uni042A" unicode="&#x42a;" horiz-adv-x="874" 
d="M260 0v591h-220v137h373v-232h134q133 0 209.5 -63t76.5 -181v-1q0 -117 -76.5 -184t-215.5 -67h-281zM413 139h131q62 0 98 28.5t36 81.5v1q0 52 -34.5 80.5t-98.5 28.5h-132v-220z" />
    <glyph glyph-name="uni042B" unicode="&#x42b;" horiz-adv-x="1022" 
d="M775 0v728h154v-728h-154zM93 0v728h153v-232h134q133 0 209.5 -63t76.5 -182v-1q0 -116 -77 -183.5t-215 -66.5h-281zM246 139h131q63 0 98.5 28.5t35.5 82.5v1q0 51 -35 80t-98 28h-132v-220z" />
    <glyph glyph-name="uni042C" unicode="&#x42c;" horiz-adv-x="708" 
d="M93 0v728h153v-232h134q133 0 209.5 -63t76.5 -181v-1q0 -117 -76.5 -184t-215.5 -67h-281zM246 139h131q62 0 98 28.5t36 81.5v1q0 52 -34.5 80.5t-98.5 28.5h-132v-220z" />
    <glyph glyph-name="uni042D" unicode="&#x42d;" horiz-adv-x="772" 
d="M52 623q61 57 131.5 87t169.5 30q156 0 257.5 -105.5t101.5 -268.5v-2q0 -161 -104 -268.5t-266 -107.5q-174 0 -297 118l97 108q51 -45 97 -66.5t102 -21.5q78 0 135 48.5t73 127.5h-327v130h326q-17 76 -72 123t-131 47q-106 0 -202 -84z" />
    <glyph glyph-name="uni042E" unicode="&#x42e;" horiz-adv-x="1169" 
d="M93 0v728h153v-291h125q25 131 126 217t241 86q160 0 265.5 -109.5t105.5 -264.5v-2q0 -155 -106.5 -265.5t-266.5 -110.5q-142 0 -242.5 87t-123.5 220h-124v-295h-153zM738 129q93 0 151.5 67t58.5 166v2q0 99 -59.5 167t-152.5 68t-151.5 -67t-58.5 -166v-2
q0 -99 59.5 -167t152.5 -68z" />
    <glyph glyph-name="uni042F" unicode="&#x42f;" horiz-adv-x="760" 
d="M514 373v216h-165q-61 1 -96 -27.5t-35 -79.5v-1q0 -50 34 -79t95 -29h167zM227 260q-75 25 -120 81t-45 137v1q0 124 80.5 186.5t222.5 62.5h302v-728h-153v237h-125l-167 -237h-182z" />
    <glyph glyph-name="uni0430" unicode="&#x430;" horiz-adv-x="623" 
d="M280 95q57 0 92.5 28.5t35.5 73.5v30q-49 21 -106 21q-53 0 -83 -21t-30 -59v-2q0 -33 25 -52t66 -19zM235 -11q-82 0 -137.5 45.5t-55.5 125.5v2q0 88 61 132.5t164 44.5q71 0 139 -22v10q0 105 -123 105q-72 0 -155 -31l-38 116q102 45 215 45q123 0 187 -62
q60 -60 60 -176v-324h-147v62q-65 -73 -170 -73z" />
    <glyph glyph-name="uni0431" unicode="&#x431;" horiz-adv-x="690" 
d="M344 -12q-124 0 -200 76q-90 90 -90 263v1q0 357 297 407l208 35l24 -139l-205 -32q-83 -14 -127 -50.5t-55 -99.5q77 65 190 65q121 0 188 -67.5t67 -179.5v-1q0 -120 -82.5 -199.5t-214.5 -78.5zM346 115q65 0 105.5 42t40.5 107v1q0 61 -37.5 100t-101.5 38
q-69 0 -109 -42t-40 -104q0 -61 39.5 -101.5t102.5 -40.5z" />
    <glyph glyph-name="uni0432" unicode="&#x432;" horiz-adv-x="627" 
d="M76 0v556h285q88 0 141 -38.5t53 -105.5q0 -47 -20.5 -75t-60.5 -47q51 -19 78 -49.5t27 -82.5q0 -78 -58.5 -118t-159.5 -40h-285zM408 391q0 26 -19.5 41.5t-56.5 15.5h-108v-117h106q78 0 78 60zM432 169q0 60 -84 60h-124v-122h127q81 0 81 62z" />
    <glyph glyph-name="uni0433" unicode="&#x433;" horiz-adv-x="537" 
d="M76 0v556h424v-137h-272v-419h-152z" />
    <glyph glyph-name="uni0434" unicode="&#x434;" horiz-adv-x="713" 
d="M355 406l-114 -275h228zM277 560h159l187 -423h63v-271h-137v135h-385v-135h-137v271h63z" />
    <glyph glyph-name="uni0435" unicode="&#x435;" horiz-adv-x="644" 
d="M338 -12q-125 0 -207 80t-82 207v2q0 121 77.5 205t196.5 84q131 0 200.5 -87t69.5 -214q0 -12 -2 -40h-391q11 -56 47.5 -85.5t92.5 -29.5q76 0 138 58l87 -77q-84 -103 -227 -103zM198 320h247q-8 57 -39.5 90.5t-82.5 33.5q-50 0 -83 -33.5t-42 -90.5z" />
    <glyph glyph-name="uni0436" unicode="&#x436;" horiz-adv-x="949" 
d="M548 556l-2 -211h46l162 211h176l-224 -271l233 -285h-177l-169 216h-47l2 -216h-147l1 216h-47l-168 -216h-177l233 277l-224 279h178l162 -211h43l-1 211h147z" />
    <glyph glyph-name="uni0437" unicode="&#x437;" horiz-adv-x="592" 
d="M39 70l75 100q84 -60 178 -60q105 0 105 60v1q0 25 -25 39.5t-72 13.5h-119v109h118q83 0 83 55v1q0 25 -24.5 40.5t-67.5 14.5q-87 0 -165 -60l-80 94q104 88 255 88q103 0 166 -43.5t63 -114.5v-1q0 -87 -91 -124q106 -32 106 -129v-1q0 -70 -67.5 -118t-183.5 -47
q-145 0 -254 82z" />
    <glyph glyph-name="uni0438" unicode="&#x438;" horiz-adv-x="672" 
d="M76 0v556h151v-316l226 316h143v-556h-151v326l-234 -326h-135z" />
    <glyph glyph-name="uni0439" unicode="&#x439;" horiz-adv-x="672" 
d="M336 617q-82 0 -133.5 43t-58.5 119h102q22 -63 90 -63t90 63h102q-7 -76 -58.5 -119t-133.5 -43zM76 0v556h151v-316l226 316h143v-556h-151v326l-234 -326h-135z" />
    <glyph glyph-name="uni043A" unicode="&#x43a;" horiz-adv-x="634" 
d="M228 556v-210h43l161 210h185l-228 -272l236 -284h-181l-172 215h-44v-215h-152v556h152z" />
    <glyph glyph-name="uni043B" unicode="&#x43b;" horiz-adv-x="661" 
d="M402 560l235 -560h-163l-144 374l-146 -374h-160l235 560h143z" />
    <glyph glyph-name="uni043C" unicode="&#x43c;" horiz-adv-x="766" 
d="M76 0v556h158l149 -231l150 231h157v-556h-147v337l-160 -241h-3l-157 238v-334h-147z" />
    <glyph glyph-name="uni043D" unicode="&#x43d;" horiz-adv-x="672" 
d="M76 0v556h152v-207h216v207h152v-556h-152v210h-216v-210h-152z" />
    <glyph glyph-name="uni043E" unicode="&#x43e;" horiz-adv-x="697" 
d="M347 -12q-127 0 -212.5 83t-85.5 204v2q0 120 86.5 204.5t214.5 84.5q127 0 212.5 -83.5t85.5 -203.5v-2q0 -121 -86 -205t-215 -84zM350 118q67 0 107.5 45.5t40.5 111.5v2q0 65 -42.5 111.5t-108.5 46.5q-67 0 -107.5 -45t-40.5 -111v-2q0 -65 42.5 -112t108.5 -47z
" />
    <glyph glyph-name="uni043F" unicode="&#x43f;" horiz-adv-x="672" 
d="M76 0v556h520v-556h-152v419h-216v-419h-152z" />
    <glyph glyph-name="uni0440" unicode="&#x440;" horiz-adv-x="709" 
d="M366 119q59 0 99.5 43.5t40.5 114.5v2q0 70 -41 114t-99 44t-99 -44t-41 -114v-2q0 -70 41 -114t99 -44zM76 -166v722h152v-83q68 93 176 93q104 0 179 -77.5t75 -209.5v-2q0 -133 -74.5 -210.5t-179.5 -77.5t-176 86v-241h-152z" />
    <glyph glyph-name="uni0441" unicode="&#x441;" horiz-adv-x="602" 
d="M338 -12q-124 0 -206.5 83.5t-82.5 203.5v2q0 120 82.5 204.5t208.5 84.5q138 0 222 -94l-94 -100q-60 63 -129 63q-61 0 -100.5 -45.5t-39.5 -110.5v-2q0 -68 40.5 -113.5t105.5 -45.5q67 0 131 61l89 -89q-45 -50 -97.5 -76t-129.5 -26z" />
    <glyph glyph-name="uni0442" unicode="&#x442;" horiz-adv-x="601" 
d="M225 0v421h-184v135h519v-135h-184v-421h-151z" />
    <glyph glyph-name="uni0443" unicode="&#x443;" horiz-adv-x="631" 
d="M319 171l126 385h158l-215 -570q-33 -86 -73 -121t-110 -35q-72 0 -138 38l51 110q37 -21 69 -21q22 0 35 8.5t25 32.5l-221 558h161z" />
    <glyph glyph-name="uni0444" unicode="&#x444;" horiz-adv-x="892" 
d="M521 -166h-150v165q-151 5 -236.5 82t-85.5 196v1q0 117 85.5 195t236.5 84v202h150v-202q151 -6 236.5 -83t85.5 -195v-1q0 -117 -86 -195.5t-236 -83.5v-165zM197 278q0 -67 47 -108.5t130 -43.5v304q-86 -3 -131.5 -43.5t-45.5 -107.5v-1zM696 278q0 67 -47 108.5
t-131 43.5v-304q86 2 132 43t46 108v1z" />
    <glyph glyph-name="uni0445" unicode="&#x445;" horiz-adv-x="614" 
d="M200 556l108 -167l110 167h159l-189 -271l197 -285h-163l-117 179l-117 -179h-159l197 283l-189 273h163z" />
    <glyph glyph-name="uni0446" unicode="&#x446;" horiz-adv-x="698" 
d="M531 -134v134h-455v556h152v-419h216v419h152v-419h72v-271h-137z" />
    <glyph glyph-name="uni0447" unicode="&#x447;" horiz-adv-x="628" 
d="M400 0v170q-60 -16 -115 -16q-109 0 -167.5 51.5t-58.5 155.5v195h151v-181q0 -45 24 -65t74 -20q45 0 92 15v251h152v-556h-152z" />
    <glyph glyph-name="uni0448" unicode="&#x448;" horiz-adv-x="992" 
d="M76 0v556h152v-419h192v419h152v-419h192v419h152v-556h-840z" />
    <glyph glyph-name="uni0449" unicode="&#x449;" horiz-adv-x="1018" 
d="M76 0v556h152v-419h192v419h152v-419h192v419h152v-419h72v-271h-137v134h-775z" />
    <glyph glyph-name="uni044A" unicode="&#x44a;" horiz-adv-x="710" 
d="M35 556h308v-161h107q102 0 163 -51t61 -144v-1q0 -91 -62 -145.5t-173 -53.5h-246v424h-158v132zM342 273v-150h93q90 0 90 76v1q0 32 -23.5 53t-64.5 20h-95z" />
    <glyph glyph-name="uni044B" unicode="&#x44b;" horiz-adv-x="866" 
d="M638 0v556h152v-556h-152zM227 556v-161h107q102 0 163 -51t61 -144v-1q0 -92 -62 -146t-174 -53h-246v556h151zM226 273v-150h92q91 0 91 76v1q0 32 -24 53t-65 20h-94z" />
    <glyph glyph-name="uni044C" unicode="&#x44c;" horiz-adv-x="594" 
d="M227 556v-161h107q102 0 163 -51t61 -144v-1q0 -92 -62 -146t-174 -53h-246v556h151zM226 273v-150h92q91 0 91 76v1q0 32 -24 53t-65 20h-94z" />
    <glyph glyph-name="uni044D" unicode="&#x44d;" horiz-adv-x="605" 
d="M115 172q38 -31 73 -45t81 -14q53 0 89 28.5t47 76.5l-230 -1v121l230 -2q-12 49 -48.5 77t-89.5 28q-45 0 -78 -14t-71 -43l-75 97q100 85 232 85q124 0 202.5 -81.5t78.5 -206.5v-1q0 -124 -79.5 -207t-205.5 -82q-134 0 -233 83z" />
    <glyph glyph-name="uni044E" unicode="&#x44e;" horiz-adv-x="945" 
d="M228 210v-210h-152v556h152v-206h92q24 95 102.5 155.5t182.5 60.5q124 0 207.5 -83.5t83.5 -203.5v-2q0 -121 -84.5 -205t-208.5 -84q-106 0 -184.5 62.5t-100.5 159.5h-90zM605 118q63 0 102 45.5t39 111.5v2q0 65 -41 111.5t-102 46.5q-64 0 -103 -45t-39 -111v-2
q0 -65 41 -112t103 -47z" />
    <glyph glyph-name="uni044F" unicode="&#x44f;" horiz-adv-x="634" 
d="M408 440h-109q-42 0 -66 -19.5t-24 -56.5v-1q0 -32 23.5 -52.5t65.5 -19.5h110v149zM408 181h-69l-126 -181h-171l142 199q-57 20 -90 62t-33 104v1q0 94 62 142.5t170 47.5h264v-556h-149v181z" />
    <glyph glyph-name="uni0450" unicode="&#x450;" horiz-adv-x="644" 
d="M269 619l-134 124l132 57l114 -181h-112zM338 -12q-125 0 -207 80t-82 207v2q0 121 77.5 205t196.5 84q131 0 200.5 -87t69.5 -214q0 -12 -2 -40h-391q11 -56 47.5 -85.5t92.5 -29.5q76 0 138 58l87 -77q-84 -103 -227 -103zM198 320h247q-8 57 -39.5 90.5t-82.5 33.5
q-50 0 -83 -33.5t-42 -90.5z" />
    <glyph glyph-name="uni0451" unicode="&#x451;" horiz-adv-x="644" 
d="M141 619v137h147v-137h-147zM354 619v137h147v-137h-147zM338 -12q-125 0 -207 80t-82 207v2q0 121 77.5 205t196.5 84q131 0 200.5 -87t69.5 -214q0 -12 -2 -40h-391q11 -56 47.5 -85.5t92.5 -29.5q76 0 138 58l87 -77q-84 -103 -227 -103zM198 320h247
q-8 57 -39.5 90.5t-82.5 33.5q-50 0 -83 -33.5t-42 -90.5z" />
    <glyph glyph-name="uni0452" unicode="&#x452;" horiz-adv-x="637" 
d="M395 574h-164v-122q60 16 115 16q109 0 167.5 -51.5t59.5 -155.5v-230q0 -201 -198 -201q-39 0 -76 8v119q21 -4 45 -4q73 0 77 75v219q0 45 -24 65t-74 20q-44 0 -92 -15v-317h-152v574h-103v118h103v67h152v-67h164v-118z" />
    <glyph glyph-name="uni0453" unicode="&#x453;" horiz-adv-x="537" 
d="M227 619l114 181l132 -57l-134 -124h-112zM76 0v556h424v-137h-272v-419h-152z" />
    <glyph glyph-name="uni0454" unicode="&#x454;" horiz-adv-x="607" 
d="M564 485l-79 -103q-67 59 -140 59q-54 0 -93 -28.5t-52 -76.5l229 2v-121l-229 1q12 -49 50.5 -77t97.5 -28q75 0 143 57l78 -94q-98 -88 -230 -88q-128 0 -209 83t-81 204v2q0 122 82 205.5t211 83.5q131 0 222 -81z" />
    <glyph glyph-name="uni0455" unicode="&#x455;" horiz-adv-x="530" 
d="M270 -10q-132 0 -238 83l66 101q91 -67 176 -67q71 0 71 45v2q0 6 -1.5 11t-6 9.5l-8.5 8.5t-12.5 7.5t-14 6.5t-17 6.5t-17.5 5.5t-19.5 6t-20.5 6q-35 10 -60.5 21t-52.5 30t-41 48t-14 67v2q0 81 58 128t145 47q110 0 206 -64l-58 -105q-89 52 -152 52
q-29 0 -45.5 -11.5t-16.5 -30.5v-2q0 -20 24 -33t74 -30l18 -6q36 -11 60.5 -22.5t52 -30t42 -47t14.5 -64.5v-2q0 -88 -58.5 -133t-153.5 -45z" />
    <glyph glyph-name="uni0456" unicode="&#x456;" horiz-adv-x="319" 
d="M79 622v136h160v-136h-160zM84 0v556h151v-556h-151z" />
    <glyph glyph-name="uni0457" unicode="&#x457;" horiz-adv-x="319" 
d="M-21 619v137h147v-137h-147zM192 619v137h147v-137h-147zM84 0v556h151v-556h-151z" />
    <glyph glyph-name="uni0458" unicode="&#x458;" horiz-adv-x="319" 
d="M79 622v136h160v-136h-160zM60 -170q-36 0 -67 7v119q26 -4 34 -4q57 0 57 66v538h151v-550q0 -176 -175 -176z" />
    <glyph glyph-name="uni0459" unicode="&#x459;" horiz-adv-x="892" 
d="M385 0v438h-3l-215 -438h-157l274 556h251v-161h97q102 0 163 -51t61 -144v-1q0 -92 -62 -146t-174 -53h-235zM534 123h82q91 0 91 76v1q0 32 -24 53t-65 20h-84v-150z" />
    <glyph glyph-name="uni045A" unicode="&#x45a;" horiz-adv-x="941" 
d="M584 273v-150h82q90 0 90 76v1q0 32 -23.5 53t-64.5 20h-84zM585 556v-161h96q102 0 163 -51t61 -144v-1q0 -91 -62 -145.5t-173 -53.5h-236v210h-206v-210h-152v556h152v-206h206v206h151z" />
    <glyph glyph-name="uni045B" unicode="&#x45b;" horiz-adv-x="637" 
d="M231 759v-67h164v-118h-164v-122q60 16 115 16q109 0 168 -51.5t59 -155.5v-261h-152v247q0 45 -24 65t-74 20q-44 0 -92 -15v-317h-152v574h-103v118h103v67h152z" />
    <glyph glyph-name="uni045C" unicode="&#x45c;" horiz-adv-x="634" 
d="M270 619l114 181l132 -57l-134 -124h-112zM228 556v-210h43l161 210h185l-228 -272l236 -284h-181l-172 215h-44v-215h-152v556h152z" />
    <glyph glyph-name="uni045D" unicode="&#x45d;" horiz-adv-x="672" 
d="M283 619l-134 124l132 57l114 -181h-112zM76 0v556h151v-316l226 316h143v-556h-151v326l-234 -326h-135z" />
    <glyph glyph-name="uni045E" unicode="&#x45e;" horiz-adv-x="631" 
d="M315 617q-82 0 -133.5 43t-58.5 119h102q22 -63 90 -63t90 63h102q-7 -76 -58.5 -119t-133.5 -43zM319 171l126 385h158l-215 -570q-33 -86 -73 -121t-110 -35q-72 0 -138 38l51 110q37 -21 69 -21q22 0 35 8.5t25 32.5l-221 558h161z" />
    <glyph glyph-name="uni045F" unicode="&#x45f;" horiz-adv-x="672" 
d="M76 0v556h152v-419h216v419h152v-556h-191v-134h-137v134h-192z" />
    <glyph glyph-name="uni0462" unicode="&#x462;" horiz-adv-x="869" 
d="M578 424q116 0 183 -53t67 -154v-1q0 -98 -68 -157.5t-189 -58.5h-316v529h-215v125h215v83h152v-83h239v-123h-239v-107h171zM577 291h-171v-156h170q46 0 72.5 21t26.5 58v1q0 36 -25 56.5t-73 19.5z" />
    <glyph glyph-name="uni0463" unicode="&#x463;" horiz-adv-x="710" 
d="M344 353h122q96 0 152 -44.5t56 -129.5v-1q0 -81 -58.5 -130t-161.5 -48h-261v428h-158v128h158v203h151v-203h205v-126h-205v-77zM342 238v-121h108q35 0 55 16t20 45v1q0 28 -19 44t-54 15h-110z" />
    <glyph glyph-name="uni0472" unicode="&#x472;" horiz-adv-x="886" 
d="M442 -12q-164 0 -273 108.5t-109 265.5v2q0 156 110 266t274 110q165 0 273.5 -108.5t108.5 -265.5v-2q0 -156 -110 -266t-274 -110zM442 607q-85 0 -144.5 -47.5t-77.5 -125.5h445q-19 78 -79 125.5t-144 47.5zM444 121q86 0 146 49t77 129h-448q17 -80 78 -129t147 -49
z" />
    <glyph glyph-name="uni0473" unicode="&#x473;" horiz-adv-x="691" 
d="M345 -12q-126 0 -211 83t-85 204v2q0 120 86 204.5t212 84.5q125 0 210.5 -83.5t85.5 -203.5v-2q0 -121 -86 -205t-212 -84zM345 445q-57 0 -97 -30t-54 -81h301q-15 51 -55.5 81t-94.5 30zM347 109q57 0 96.5 30t53.5 82h-302q14 -51 55.5 -81.5t96.5 -30.5z" />
    <glyph glyph-name="uni0474" unicode="&#x474;" horiz-adv-x="831" 
d="M320 -5l-290 733h170l192 -522l121 320q42 113 102.5 158.5t166.5 45.5h23v-139h-7q-51 0 -83 -22t-55 -79l-204 -495h-136z" />
    <glyph glyph-name="uni0475" unicode="&#x475;" horiz-adv-x="653" 
d="M241 -4l-215 560h161l126 -380l69 197q35 103 83 144t139 41h23v-125h-2q-40 0 -63.5 -20t-43.5 -71l-139 -346h-138z" />
    <glyph glyph-name="uni0490" unicode="&#x490;" horiz-adv-x="651" 
d="M93 728h376v141h144v-281h-367v-588h-153v728z" />
    <glyph glyph-name="uni0491" unicode="&#x491;" horiz-adv-x="537" 
d="M76 0v556h282v130h142v-267h-272v-419h-152z" />
    <glyph glyph-name="uni0492" unicode="&#x492;" horiz-adv-x="683" 
d="M124 0v293h-78v106h78v329h520v-140h-367v-189h179v-106h-179v-293h-153z" />
    <glyph glyph-name="uni0493" unicode="&#x493;" horiz-adv-x="558" 
d="M97 0v212h-71v86h71v258h424v-137h-272v-121h129v-86h-129v-212h-152z" />
    <glyph glyph-name="uni0496" unicode="&#x496;" horiz-adv-x="1150" 
d="M1108 728l-297 -355l200 -233h125v-288h-144v148h-43l-257 302h-47l2 -302h-151l1 302h-51l-255 -302h-180l321 373l-297 355h183l239 -296h40l-1 296h151l-2 -296h40l242 296h181z" />
    <glyph glyph-name="uni0497" unicode="&#x497;" horiz-adv-x="959" 
d="M930 556l-224 -271l121 -148h124v-271h-137v134h-52l-169 216h-47l2 -216h-147l1 216h-47l-168 -216h-177l233 277l-224 279h178l162 -211h43l-1 211h147l-2 -211h46l162 211h176z" />
    <glyph glyph-name="uni0498" unicode="&#x498;" horiz-adv-x="702" 
d="M149 517l-93 104q134 119 300 119q128 0 200 -53t72 -143v-1q0 -66 -32 -105.5t-94 -63.5q146 -37 146 -170v-1q0 -81 -61.5 -138.5t-170.5 -71.5l6 -141h-150l6 140q-136 18 -235 107l91 110q106 -84 215 -84q64 0 103.5 23.5t39.5 67.5v1q0 42 -38.5 64.5t-105.5 21.5
h-134v128h138q56 0 88 24.5t32 64.5v1q0 39 -31.5 60.5t-87.5 21.5q-101 0 -204 -86z" />
    <glyph glyph-name="uni0499" unicode="&#x499;" horiz-adv-x="592" 
d="M39 70l75 100q84 -60 178 -60q105 0 105 60v1q0 25 -25 39.5t-72 13.5h-119v109h118q83 0 83 55v1q0 25 -24.5 40.5t-67.5 14.5q-87 0 -165 -60l-80 94q104 88 255 88q103 0 166 -43.5t63 -114.5v-1q0 -87 -91 -124q106 -32 106 -129v-1q0 -60 -50 -104.5t-138 -56.5
l6 -126h-142l5 126q-98 12 -186 78z" />
    <glyph glyph-name="uni049A" unicode="&#x49a;" horiz-adv-x="783" 
d="M93 0v728h153l-2 -294h58l258 294h191l-326 -352l216 -236h132v-288h-144v148h-55l-269 300h-61l2 -300h-153z" />
    <glyph glyph-name="uni049B" unicode="&#x49b;" horiz-adv-x="638" 
d="M228 556v-210h43l161 210h185l-228 -272l122 -147h117v-271h-137v134h-47l-172 215h-44v-215h-152v556h152z" />
    <glyph glyph-name="uni049C" unicode="&#x49c;" horiz-adv-x="816" 
d="M777 728l-258 -345l270 -383h-181l-197 288h-1l2 -179h-93l2 195h-75v-304h-153v728h153v-292h75l-2 198h93l-2 -179h1l190 273h176z" />
    <glyph glyph-name="uni049D" unicode="&#x49d;" horiz-adv-x="685" 
d="M658 556l-196 -264l197 -292h-169l-141 227h-1l1 -153h-72l1 156h-50v-230h-152v556h152v-211h50l-1 149h72l-1 -149h1l142 211h167z" />
    <glyph glyph-name="uni04A0" unicode="&#x4a0;" horiz-adv-x="943" 
d="M40 591v137h373l-2 -294h58l258 294h191l-326 -352l345 -376h-196l-269 300h-61l2 -300h-153v591h-220z" />
    <glyph glyph-name="uni04A1" unicode="&#x4a1;" horiz-adv-x="751" 
d="M344 556v-210h43l161 210h185l-228 -272l236 -284h-181l-172 215h-44v-215h-152v424h-157v132h309z" />
    <glyph glyph-name="uni04A2" unicode="&#x4a2;" horiz-adv-x="832" 
d="M93 0v728h153v-291h306v291h154v-588h93v-288h-144v148h-103v295h-306v-295h-153z" />
    <glyph glyph-name="uni04A3" unicode="&#x4a3;" horiz-adv-x="698" 
d="M76 0v556h152v-207h216v207h152v-419h72v-271h-137v134h-87v210h-216v-210h-152z" />
    <glyph glyph-name="uni04A4" unicode="&#x4a4;" horiz-adv-x="1066" 
d="M539 0v295h-295v-295h-154v728h154v-291h295v291h489v-140h-335v-588h-154z" />
    <glyph glyph-name="uni04A5" unicode="&#x4a5;" horiz-adv-x="884" 
d="M434 0v210h-206v-210h-152v556h152v-206h206v206h413v-137h-262v-419h-151z" />
    <glyph glyph-name="uni04AA" unicode="&#x4aa;" horiz-adv-x="776" 
d="M355 -148l6 143q-133 23 -217 125.5t-84 241.5v2q0 158 107 267t272 109q97 0 164 -28.5t123 -83.5l-98 -113q-92 84 -190 84q-93 0 -155 -68t-62 -165v-2q0 -98 61.5 -166.5t155.5 -68.5q59 0 102.5 21.5t92.5 65.5l98 -99q-51 -53 -105.5 -84.5t-126.5 -40.5l6 -140
h-150z" />
    <glyph glyph-name="uni04AB" unicode="&#x4ab;" horiz-adv-x="602" 
d="M261 -134l6 131q-98 23 -158 99.5t-60 178.5v2q0 120 82.5 204.5t208.5 84.5q138 0 222 -94l-94 -100q-60 63 -129 63q-61 0 -100.5 -45.5t-39.5 -110.5v-2q0 -68 40.5 -113.5t105.5 -45.5q67 0 131 61l89 -89q-75 -82 -168 -97l6 -127h-142z" />
    <glyph glyph-name="uni04AE" unicode="&#x4ae;" horiz-adv-x="753" 
d="M299 0v287l-281 441h180l179 -298l183 298h175l-282 -438v-290h-154z" />
    <glyph glyph-name="uni04AF" unicode="&#x4af;" horiz-adv-x="631" 
d="M605 556l-214 -533v-189h-151v189l-214 533h162l128 -369l130 369h159z" />
    <glyph glyph-name="uni04B0" unicode="&#x4b0;" horiz-adv-x="753" 
d="M299 0v190h-170v106h164l-275 432h180l179 -298l183 298h175l-278 -432h166v-106h-170v-190h-154z" />
    <glyph glyph-name="uni04B1" unicode="&#x4b1;" horiz-adv-x="631" 
d="M545 86v-86h-154v-166h-151v166h-154v86h129l-189 470h162l128 -369l130 369h159l-189 -470h129z" />
    <glyph glyph-name="uni04B2" unicode="&#x4b2;" horiz-adv-x="794" 
d="M546 728h175l-245 -355l159 -233h133v-288h-144v148h-73l-169 256l-170 -256h-175l256 370l-245 358h180l158 -242z" />
    <glyph glyph-name="uni04B3" unicode="&#x4b3;" horiz-adv-x="629" 
d="M200 556l108 -167l110 167h159l-189 -271l102 -148h122v-271h-137v134h-53l-117 179l-117 -179h-159l197 283l-189 273h163z" />
    <glyph glyph-name="uni04B6" unicode="&#x4b6;" horiz-adv-x="784" 
d="M504 0v239q-82 -17 -155 -17q-129 0 -202 62.5t-73 189.5v254h154v-237q0 -67 33.5 -98.5t103.5 -31.5q73 0 139 17v350h154v-588h93v-288h-144v148h-103z" />
    <glyph glyph-name="uni04B7" unicode="&#x4b7;" horiz-adv-x="654" 
d="M400 0v170q-60 -16 -115 -16q-109 0 -167.5 51.5t-58.5 155.5v195h151v-181q0 -45 24 -65t74 -20q45 0 92 15v251h152v-419h72v-271h-137v134h-87z" />
    <glyph glyph-name="uni04B8" unicode="&#x4b8;" horiz-adv-x="750" 
d="M503 0v239q-47 -10 -93 -14l2 -156h-92l1 154q-117 6 -182 68.5t-65 182.5v254h153v-237q0 -109 94 -127l-1 198h92l-2 -199q50 5 93 15v350h154v-728h-154z" />
    <glyph glyph-name="uni04B9" unicode="&#x4b9;" horiz-adv-x="628" 
d="M400 0v170q-24 -7 -60 -12l1 -110h-73l1 106q-210 8 -210 207v195h151v-180q0 -69 59 -83l-1 138h73l-1 -140q28 4 60 14v251h152v-556h-152z" />
    <glyph glyph-name="uni04BA" unicode="&#x4ba;" horiz-adv-x="750" 
d="M246 728v-239q82 17 154 17q130 0 202.5 -62.5t72.5 -189.5v-254h-153v237q0 130 -138 130q-68 0 -138 -18v-349h-154v728h154z" />
    <glyph glyph-name="uni04BB" unicode="&#x4bb;" horiz-adv-x="655" 
d="M76 0v759h152v-283q69 90 165 90q90 0 140.5 -55.5t50.5 -151.5v-359h-152v311q0 57 -26 87.5t-74 30.5t-76 -30.5t-28 -87.5v-311h-152z" />
    <glyph glyph-name="uni04C0" unicode="&#x4c0;" horiz-adv-x="354" 
d="M100 0v728h154v-728h-154z" />
    <glyph glyph-name="uni04C1" unicode="&#x4c1;" horiz-adv-x="1143" 
d="M571 784q-82 0 -134.5 40t-59.5 112h104q20 -52 90 -52t90 52h104q-7 -72 -59.5 -112t-134.5 -40zM35 728h183l239 -296h40l-1 296h151l-2 -296h40l242 296h181l-297 -355l321 -373h-183l-257 302h-47l2 -302h-151l1 302h-51l-255 -302h-180l321 373z" />
    <glyph glyph-name="uni04C2" unicode="&#x4c2;" horiz-adv-x="949" 
d="M474 617q-82 0 -133.5 43t-58.5 119h102q22 -63 90 -63t90 63h102q-7 -76 -58.5 -119t-133.5 -43zM548 556l-2 -211h46l162 211h176l-224 -271l233 -285h-177l-169 216h-47l2 -216h-147l1 216h-47l-168 -216h-177l233 277l-224 279h178l162 -211h43l-1 211h147z" />
    <glyph glyph-name="uni04CF" unicode="&#x4cf;" horiz-adv-x="319" 
d="M84 0v759h151v-759h-151z" />
    <glyph glyph-name="uni04D0" unicode="&#x4d0;" horiz-adv-x="830" 
d="M415 794q-82 0 -134.5 40t-59.5 112h104q20 -52 90 -52t90 52h104q-7 -72 -59.5 -112t-134.5 -40zM310 302h205l-102 247zM30 0l314 733h142l313 -733h-161l-68 166h-315l-68 -166h-157z" />
    <glyph glyph-name="uni04D1" unicode="&#x4d1;" horiz-adv-x="623" 
d="M313 617q-82 0 -133.5 43t-58.5 119h102q22 -63 90 -63t90 63h102q-7 -76 -58.5 -119t-133.5 -43zM280 95q57 0 92.5 28.5t35.5 73.5v30q-49 21 -106 21q-53 0 -83 -21t-30 -59v-2q0 -33 25 -52t66 -19zM235 -11q-82 0 -137.5 45.5t-55.5 125.5v2q0 88 61 132.5t164 44.5
q71 0 139 -22v10q0 105 -123 105q-72 0 -155 -31l-38 116q102 45 215 45q123 0 187 -62q60 -60 60 -176v-324h-147v62q-65 -73 -170 -73z" />
    <glyph glyph-name="uni04D2" unicode="&#x4d2;" horiz-adv-x="830" 
d="M229 796v129h148v-129h-148zM453 796v129h148v-129h-148zM310 302h205l-102 247zM30 0l314 733h142l313 -733h-161l-68 166h-315l-68 -166h-157z" />
    <glyph glyph-name="uni04D3" unicode="&#x4d3;" horiz-adv-x="623" 
d="M133 619v137h147v-137h-147zM346 619v137h147v-137h-147zM280 95q57 0 92.5 28.5t35.5 73.5v30q-49 21 -106 21q-53 0 -83 -21t-30 -59v-2q0 -33 25 -52t66 -19zM235 -11q-82 0 -137.5 45.5t-55.5 125.5v2q0 88 61 132.5t164 44.5q71 0 139 -22v10q0 105 -123 105
q-72 0 -155 -31l-38 116q102 45 215 45q123 0 187 -62q60 -60 60 -176v-324h-147v62q-65 -73 -170 -73z" />
    <glyph glyph-name="uni04D4" unicode="&#x4d4;" horiz-adv-x="1095" 
d="M332 302h176v293h-19zM14 0l395 728h621v-137h-369v-156h322v-137h-322v-161h374v-137h-527v166h-248l-89 -166h-157z" />
    <glyph glyph-name="uni04D5" unicode="&#x4d5;" horiz-adv-x="997" 
d="M551 320h247q-7 56 -39 90t-83 34q-50 0 -83 -33.5t-42 -90.5zM252 -11q-92 0 -151 46t-59 125v2q0 88 61 132.5t164 44.5q70 0 138 -22v10q0 105 -122 105q-72 0 -155 -31l-38 116q98 45 214 45q134 0 190 -74q73 78 186 78q86 0 147.5 -43t90 -109.5t28.5 -148.5
q0 -12 -2 -40h-391q11 -56 48 -85.5t93 -29.5q76 0 138 58l87 -77q-84 -103 -227 -103q-132 0 -213 86q-112 -85 -227 -85zM279 97q78 0 147 56q-16 36 -20 75q-51 20 -104 20t-83 -21t-30 -59v-2q0 -31 26 -50t64 -19z" />
    <glyph glyph-name="uni04D6" unicode="&#x4d6;" horiz-adv-x="705" 
d="M368 784q-82 0 -134.5 40t-59.5 112h104q20 -52 90 -52t90 52h104q-7 -72 -59.5 -112t-134.5 -40zM93 0v728h547v-137h-395v-156h348v-137h-348v-161h400v-137h-552z" />
    <glyph glyph-name="uni04D7" unicode="&#x4d7;" horiz-adv-x="644" 
d="M321 617q-82 0 -133.5 43t-58.5 119h102q22 -63 90 -63t90 63h102q-7 -76 -58.5 -119t-133.5 -43zM338 -12q-125 0 -207 80t-82 207v2q0 121 77.5 205t196.5 84q131 0 200.5 -87t69.5 -214q0 -12 -2 -40h-391q11 -56 47.5 -85.5t92.5 -29.5q76 0 138 58l87 -77
q-84 -103 -227 -103zM198 320h247q-8 57 -39.5 90.5t-82.5 33.5q-50 0 -83 -33.5t-42 -90.5z" />
    <glyph glyph-name="uni04D8" unicode="&#x4d8;" horiz-adv-x="837" 
d="M96 605q113 135 309 135q159 0 265.5 -105t106.5 -268v-3q0 -157 -103 -266.5t-259 -109.5q-87 0 -156 32t-112 86.5t-65 124.5t-22 149v2q0 13 2 49h547q-17 80 -72 124t-132 44q-64 0 -114 -22.5t-97 -70.5zM415 126q77 0 128.5 48t66.5 127h-385q11 -78 61 -126.5
t129 -48.5z" />
    <glyph glyph-name="uni04D9" unicode="&#x4d9;" horiz-adv-x="644" 
d="M306 568q125 0 207 -80.5t82 -206.5v-2q0 -121 -77.5 -205.5t-196.5 -84.5q-88 0 -151 43.5t-91 110t-28 148.5q0 12 2 40h391q-11 55 -48 85t-92 30q-76 0 -138 -59l-88 78q85 103 228 103zM446 235h-247q7 -56 39 -89.5t83 -33.5q50 0 83 33t42 90z" />
    <glyph glyph-name="uni04DC" unicode="&#x4dc;" horiz-adv-x="1143" 
d="M386 786v129h148v-129h-148zM610 786v129h148v-129h-148zM35 728h183l239 -296h40l-1 296h151l-2 -296h40l242 296h181l-297 -355l321 -373h-183l-257 302h-47l2 -302h-151l1 302h-51l-255 -302h-180l321 373z" />
    <glyph glyph-name="uni04DD" unicode="&#x4dd;" horiz-adv-x="949" 
d="M294 619v137h147v-137h-147zM507 619v137h147v-137h-147zM548 556l-2 -211h46l162 211h176l-224 -271l233 -285h-177l-169 216h-47l2 -216h-147l1 216h-47l-168 -216h-177l233 277l-224 279h178l162 -211h43l-1 211h147z" />
    <glyph glyph-name="uni04DE" unicode="&#x4de;" horiz-adv-x="702" 
d="M160 787v129h148v-129h-148zM384 787v129h148v-129h-148zM149 517l-93 104q134 119 300 119q128 0 200 -53t72 -143v-1q0 -66 -32 -105.5t-94 -63.5q146 -37 146 -170v-1q0 -94 -81.5 -155t-221.5 -60q-177 0 -302 111l91 110q106 -84 215 -84q64 0 103.5 23.5t39.5 67.5
v1q0 42 -38.5 64.5t-105.5 21.5h-134v128h138q56 0 88 24.5t32 64.5v1q0 39 -31.5 60.5t-87.5 21.5q-101 0 -204 -86z" />
    <glyph glyph-name="uni04DF" unicode="&#x4df;" horiz-adv-x="592" 
d="M117 619v137h147v-137h-147zM330 619v137h147v-137h-147zM39 70l75 100q84 -60 178 -60q105 0 105 60v1q0 25 -25 39.5t-72 13.5h-119v109h118q83 0 83 55v1q0 25 -24.5 40.5t-67.5 14.5q-87 0 -165 -60l-80 94q104 88 255 88q103 0 166 -43.5t63 -114.5v-1
q0 -87 -91 -124q106 -32 106 -129v-1q0 -70 -67.5 -118t-183.5 -47q-145 0 -254 82z" />
    <glyph glyph-name="uni04E2" unicode="&#x4e2;" horiz-adv-x="830" 
d="M220 792v108h390v-108h-390zM737 0h-154v486l-355 -486h-135v728h153v-471l344 471h147v-728z" />
    <glyph glyph-name="uni04E3" unicode="&#x4e3;" horiz-adv-x="672" 
d="M151 625v106h370v-106h-370zM76 0v556h151v-316l226 316h143v-556h-151v326l-234 -326h-135z" />
    <glyph glyph-name="uni04E4" unicode="&#x4e4;" horiz-adv-x="830" 
d="M229 786v129h148v-129h-148zM453 786v129h148v-129h-148zM737 0h-154v486l-355 -486h-135v728h153v-471l344 471h147v-728z" />
    <glyph glyph-name="uni04E5" unicode="&#x4e5;" horiz-adv-x="672" 
d="M156 619v137h147v-137h-147zM369 619v137h147v-137h-147zM76 0v556h151v-316l226 316h143v-556h-151v326l-234 -326h-135z" />
    <glyph glyph-name="uni04E6" unicode="&#x4e6;" horiz-adv-x="892" 
d="M260 796v129h148v-129h-148zM484 796v129h148v-129h-148zM445 -12q-166 0 -275.5 108.5t-109.5 265.5v2q0 157 110.5 266.5t276.5 109.5t275.5 -108.5t109.5 -265.5v-2q0 -157 -110.5 -266.5t-276.5 -109.5zM447 129q97 0 160.5 67.5t63.5 165.5v2q0 98 -64.5 166.5
t-161.5 68.5t-160.5 -67.5t-63.5 -165.5v-2q0 -98 64.5 -166.5t161.5 -68.5z" />
    <glyph glyph-name="uni04E7" unicode="&#x4e7;" horiz-adv-x="697" 
d="M169 619v137h147v-137h-147zM382 619v137h147v-137h-147zM347 -12q-127 0 -212.5 83t-85.5 204v2q0 120 86.5 204.5t214.5 84.5q127 0 212.5 -83.5t85.5 -203.5v-2q0 -121 -86 -205t-215 -84zM350 118q67 0 107.5 45.5t40.5 111.5v2q0 65 -42.5 111.5t-108.5 46.5
q-67 0 -107.5 -45t-40.5 -111v-2q0 -65 42.5 -112t108.5 -47z" />
    <glyph glyph-name="uni04E8" unicode="&#x4e8;" horiz-adv-x="886" 
d="M442 -12q-164 0 -273 108.5t-109 265.5v2q0 156 110 266t274 110q165 0 273.5 -108.5t108.5 -265.5v-2q0 -156 -110 -266t-274 -110zM442 607q-85 0 -144.5 -47.5t-77.5 -125.5h445q-19 78 -79 125.5t-144 47.5zM444 121q86 0 146 49t77 129h-448q17 -80 78 -129t147 -49
z" />
    <glyph glyph-name="uni04E9" unicode="&#x4e9;" horiz-adv-x="691" 
d="M345 -12q-126 0 -211 83t-85 204v2q0 120 86 204.5t212 84.5q125 0 210.5 -83.5t85.5 -203.5v-2q0 -121 -86 -205t-212 -84zM345 445q-57 0 -97 -30t-54 -81h301q-15 51 -55.5 81t-94.5 30zM347 109q57 0 96.5 30t53.5 82h-302q14 -51 55.5 -81.5t96.5 -30.5z" />
    <glyph glyph-name="uni04EE" unicode="&#x4ee;" horiz-adv-x="760" 
d="M194 792v108h390v-108h-390zM337 0h-171l144 250l-283 478h174l194 -339l177 339h171z" />
    <glyph glyph-name="uni04EF" unicode="&#x4ef;" horiz-adv-x="631" 
d="M130 625v106h370v-106h-370zM319 171l126 385h158l-215 -570q-33 -86 -73 -121t-110 -35q-72 0 -138 38l51 110q37 -21 69 -21q22 0 35 8.5t25 32.5l-221 558h161z" />
    <glyph glyph-name="uni04F0" unicode="&#x4f0;" horiz-adv-x="760" 
d="M204 786v129h148v-129h-148zM428 786v129h148v-129h-148zM337 0h-171l144 250l-283 478h174l194 -339l177 339h171z" />
    <glyph glyph-name="uni04F1" unicode="&#x4f1;" horiz-adv-x="631" 
d="M135 619v137h147v-137h-147zM348 619v137h147v-137h-147zM319 171l126 385h158l-215 -570q-33 -86 -73 -121t-110 -35q-72 0 -138 38l51 110q37 -21 69 -21q22 0 35 8.5t25 32.5l-221 558h161z" />
    <glyph glyph-name="uni04F2" unicode="&#x4f2;" horiz-adv-x="760" 
d="M418 786l124 161l127 -58l-139 -103h-112zM224 786l124 161l127 -58l-140 -103h-111zM337 0h-171l144 250l-283 478h174l194 -339l177 339h171z" />
    <glyph glyph-name="uni04F3" unicode="&#x4f3;" horiz-adv-x="631" 
d="M154 619l112 181l129 -57l-134 -124h-107zM343 619l114 181l129 -57l-135 -124h-108zM319 171l126 385h158l-215 -570q-33 -86 -73 -121t-110 -35q-72 0 -138 38l51 110q37 -21 69 -21q22 0 35 8.5t25 32.5l-221 558h161z" />
    <glyph glyph-name="uni04F4" unicode="&#x4f4;" horiz-adv-x="750" 
d="M180 786v129h148v-129h-148zM404 786v129h148v-129h-148zM504 0v239q-82 -17 -155 -17q-129 0 -202 62.5t-73 189.5v254h154v-237q0 -67 33.5 -98.5t103.5 -31.5q73 0 139 17v350h154v-728h-154z" />
    <glyph glyph-name="uni04F5" unicode="&#x4f5;" horiz-adv-x="628" 
d="M125 619v137h147v-137h-147zM338 619v137h147v-137h-147zM400 0v170q-60 -16 -115 -16q-109 0 -167.5 51.5t-58.5 155.5v195h151v-181q0 -45 24 -65t74 -20q45 0 92 15v251h152v-556h-152z" />
    <glyph glyph-name="uni04F8" unicode="&#x4f8;" horiz-adv-x="1022" 
d="M325 786v129h148v-129h-148zM549 786v129h148v-129h-148zM775 0v728h154v-728h-154zM93 0v728h153v-232h134q133 0 209.5 -63t76.5 -182v-1q0 -116 -77 -183.5t-215 -66.5h-281zM246 139h131q63 0 98.5 28.5t35.5 82.5v1q0 51 -35 80t-98 28h-132v-220z" />
    <glyph glyph-name="uni04F9" unicode="&#x4f9;" horiz-adv-x="866" 
d="M253 619v137h147v-137h-147zM466 619v137h147v-137h-147zM638 0v556h152v-556h-152zM227 556v-161h107q102 0 163 -51t61 -144v-1q0 -92 -62 -146t-174 -53h-246v556h151zM226 273v-150h92q91 0 91 76v1q0 32 -24 53t-65 20h-94z" />
    <glyph glyph-name="baht" unicode="&#xe3f;" horiz-adv-x="683" 
d="M338 -123h-97l10 123h-178v728h248l9 83h97l-9 -85q93 -8 148.5 -56.5t55.5 -129.5v-1q0 -112 -110 -161q63 -27 95 -67t32 -108v-1q0 -98 -71 -150t-191 -52h-29zM210 422h89l16 180h-105v-180zM483 514q0 76 -86 87l-16 -179q102 6 102 91v1zM210 126h61l18 186h-79
v-186zM377 312h-7l-16 -186h27q56 0 87 24t31 70v1q0 43 -31 67.5t-91 23.5z" />
    <glyph glyph-name="Wgrave" unicode="&#x1e80;" horiz-adv-x="1174" 
d="M648 786h-116l-140 103l132 58zM286 -5l-250 733h165l156 -502l166 504h132l166 -504l155 502h161l-249 -733h-134l-167 485l-167 -485h-134z" />
    <glyph glyph-name="wgrave" unicode="&#x1e81;" horiz-adv-x="903" 
d="M399 619l-134 124l132 57l114 -181h-112zM203 -4l-172 560h154l93 -346l109 348h130l109 -349l96 347h151l-175 -560h-137l-110 349l-112 -349h-136z" />
    <glyph glyph-name="Wacute" unicode="&#x1e82;" horiz-adv-x="1174" 
d="M525 786l124 161l132 -58l-140 -103h-116zM286 -5l-250 733h165l156 -502l166 504h132l166 -504l155 502h161l-249 -733h-134l-167 485l-167 -485h-134z" />
    <glyph glyph-name="wacute" unicode="&#x1e83;" horiz-adv-x="903" 
d="M391 619l114 181l132 -57l-134 -124h-112zM203 -4l-172 560h154l93 -346l109 348h130l109 -349l96 347h151l-175 -560h-137l-110 349l-112 -349h-136z" />
    <glyph glyph-name="Wdieresis" unicode="&#x1e84;" horiz-adv-x="1174" 
d="M401 786v129h148v-129h-148zM625 786v129h148v-129h-148zM286 -5l-250 733h165l156 -502l166 504h132l166 -504l155 502h161l-249 -733h-134l-167 485l-167 -485h-134z" />
    <glyph glyph-name="wdieresis" unicode="&#x1e85;" horiz-adv-x="903" 
d="M271 619v137h147v-137h-147zM484 619v137h147v-137h-147zM203 -4l-172 560h154l93 -346l109 348h130l109 -349l96 347h151l-175 -560h-137l-110 349l-112 -349h-136z" />
    <glyph glyph-name="Ygrave" unicode="&#x1ef2;" horiz-adv-x="753" 
d="M438 786h-116l-140 103l132 58zM299 0v287l-281 441h180l179 -298l183 298h175l-282 -438v-290h-154z" />
    <glyph glyph-name="ygrave" unicode="&#x1ef3;" horiz-adv-x="631" 
d="M263 619l-134 124l132 57l114 -181h-112zM319 171l126 385h158l-215 -570q-33 -86 -73 -121t-110 -35q-72 0 -138 38l51 110q37 -21 69 -21q22 0 35 8.5t25 32.5l-221 558h161z" />
    <glyph glyph-name="enspace" unicode="&#x2002;" horiz-adv-x="500" 
 />
    <glyph glyph-name="emspace" unicode="&#x2003;" horiz-adv-x="1000" 
 />
    <glyph glyph-name="threeperemspace" unicode="&#x2004;" horiz-adv-x="333" 
 />
    <glyph glyph-name="fourperemspace" unicode="&#x2005;" horiz-adv-x="250" 
 />
    <glyph glyph-name="figurespace" unicode="&#x2007;" horiz-adv-x="630" 
 />
    <glyph glyph-name="thinspace" unicode="&#x2009;" horiz-adv-x="133" 
 />
    <glyph glyph-name="hairspace" unicode="&#x200a;" horiz-adv-x="75" 
 />
    <glyph glyph-name="endash" unicode="&#x2013;" horiz-adv-x="557" 
d="M57 251v142h443v-142h-443z" />
    <glyph glyph-name="emdash" unicode="&#x2014;" horiz-adv-x="942" 
d="M57 251v142h828v-142h-828z" />
    <glyph glyph-name="quoteleft" unicode="&#x2018;" horiz-adv-x="302" 
d="M65 406v137q0 97 46.5 142.5t139.5 47.5l13 -63q-107 -12 -99 -102h62v-162h-162z" />
    <glyph glyph-name="quoteright" unicode="&#x2019;" horiz-adv-x="302" 
d="M51 401l-13 63q107 14 99 102h-62v162h162v-137q0 -97 -46.5 -142t-139.5 -48z" />
    <glyph glyph-name="quotesinglbase" unicode="&#x201a;" horiz-adv-x="302" 
d="M46 -165l-13 63q107 12 99 102h-62v162h162v-137q0 -97 -46.5 -142.5t-139.5 -47.5z" />
    <glyph glyph-name="quotedblleft" unicode="&#x201c;" horiz-adv-x="561" 
d="M65 406v137q0 97 46.5 142.5t139.5 47.5l13 -63q-107 -12 -99 -102h62v-162h-162zM324 406v137q0 97 46.5 142.5t139.5 47.5l14 -63q-108 -12 -100 -102h63v-162h-163z" />
    <glyph glyph-name="quotedblright" unicode="&#x201d;" horiz-adv-x="561" 
d="M51 401l-13 63q107 14 99 102h-62v162h162v-137q0 -97 -46.5 -142t-139.5 -48zM311 401l-14 63q108 14 100 102h-63v162h163v-137q0 -97 -46.5 -142t-139.5 -48z" />
    <glyph glyph-name="quotedblbase" unicode="&#x201e;" horiz-adv-x="561" 
d="M46 -165l-13 63q107 12 99 102h-62v162h162v-137q0 -97 -46.5 -142.5t-139.5 -47.5zM306 -165l-14 63q52 6 78 32t22 70h-63v162h163v-137q0 -97 -46.5 -142.5t-139.5 -47.5z" />
    <glyph glyph-name="dagger" unicode="&#x2020;" horiz-adv-x="434" 
d="M175 248l10 281l-125 -10v84l124 -10l-13 135h93l-13 -135l124 10v-84l-125 10l10 -281h-85z" />
    <glyph glyph-name="daggerdbl" unicode="&#x2021;" horiz-adv-x="455" 
d="M181 0l13 135l-124 -10v84l124 -10l-9 165l9 165l-124 -10v84l124 -10l-13 135h93l-13 -135l124 10v-84l-124 10l9 -165l-9 -165l124 10v-84l-124 10l13 -135h-93z" />
    <glyph glyph-name="bullet" unicode="&#x2022;" horiz-adv-x="526" 
d="M263 213q-63 0 -108 44.5t-45 107.5v2q0 63 45 107.5t108 44.5t108 -44.5t45 -107.5v-2q0 -63 -45 -107.5t-108 -44.5z" />
    <glyph glyph-name="ellipsis" unicode="&#x2026;" horiz-adv-x="872" 
d="M70 0v158h158v-158h-158zM357 0v158h158v-158h-158zM643 0v158h159v-158h-159z" />
    <glyph glyph-name="perthousand" unicode="&#x2030;" horiz-adv-x="1295" 
d="M226 364q-77 0 -126 53t-49 131v2q0 79 49.5 132.5t127.5 53.5q77 0 126 -53t49 -131v-2q0 -78 -49.5 -132t-127.5 -54zM776 728l-291 -391l-241 -337h-120l291 391l241 337h120zM228 456q32 0 50.5 26.5t18.5 65.5v2q0 39 -20 67t-51 28q-32 0 -50.5 -27t-18.5 -66v-2
q0 -39 20 -66.5t51 -27.5zM1067 -8q-77 0 -126 53t-49 131v2q0 78 49.5 132t127.5 54q77 0 126 -53.5t49 -130.5v-2q0 -78 -50 -132t-127 -54zM672 -8q-77 0 -126 53t-49 131v2q0 78 49.5 132t127.5 54q77 0 126 -53.5t49 -130.5v-2q0 -78 -50 -132t-127 -54zM1069 83
q32 0 50.5 27t18.5 66v2q0 39 -20 66.5t-51 27.5q-32 0 -50.5 -26.5t-18.5 -65.5v-2q0 -39 20 -67t51 -28zM674 83q32 0 50.5 27t18.5 66v2q0 39 -20 66.5t-51 27.5q-32 0 -50.5 -26.5t-18.5 -65.5v-2q0 -39 20 -67t51 -28z" />
    <glyph glyph-name="guilsinglleft" unicode="&#x2039;" horiz-adv-x="392" 
d="M231 44l-184 230v8l184 230l106 -52l-126 -181l126 -181z" />
    <glyph glyph-name="guilsinglright" unicode="&#x203a;" horiz-adv-x="392" 
d="M161 44l-106 52l126 181l-126 181l106 54l184 -230v-8z" />
    <glyph glyph-name="fraction" unicode="&#x2044;" horiz-adv-x="112" 
d="M-233 0l264 381l230 347h84l-264 -381l-230 -347h-84z" />
    <glyph glyph-name="zero.sup" unicode="&#x2070;" 
d="M209 427q-73 0 -121 57.5t-48 152.5v5q0 95 48.5 153t121.5 58q72 0 121 -57.5t49 -152.5v-5q0 -96 -49 -153.5t-122 -57.5zM209 770q-34 0 -56 -32t-22 -94v-8q0 -61 22 -94t57 -33q34 0 56.5 32.5t22.5 94.5v8q0 61 -23 93.5t-57 32.5z" />
    <glyph glyph-name="four.sup" unicode="&#x2074;" 
d="M327 521v-86h-80v86h-196l-8 83l196 243h88v-257h55v-69h-55zM248 589v162l-129 -162h129z" />
    <glyph glyph-name="five.sup" unicode="&#x2075;" 
d="M205 427q-85 0 -159 59l51 67q57 -45 110 -45q31 0 51 15.5t20 41.5t-20 41t-54 15q-46 0 -76 -15l-55 34l16 202h257v-79h-184l-7 -77q24 9 68 9q63 0 103 -32.5t40 -93.5q0 -65 -44 -103.5t-117 -38.5z" />
    <glyph glyph-name="six.sup" unicode="&#x2076;" 
d="M212 427q-69 0 -110 41q-53 53 -53 159v2q0 104 46 164t133 60q68 0 122 -40l-42 -71q-37 31 -82 31q-35 0 -58 -26t-27 -70q39 24 87 24q58 0 97 -34t39 -96q0 -65 -42.5 -104.5t-109.5 -39.5zM210 501q30 0 49.5 18t19.5 47q0 30 -18.5 47.5t-50.5 17.5q-33 0 -52 -17
t-19 -48v-1q0 -28 21 -46.5t50 -17.5z" />
    <glyph glyph-name="seven.sup" unicode="&#x2077;" 
d="M183 435h-99l174 326h-190v81h291v-68z" />
    <glyph glyph-name="eight.sup" unicode="&#x2078;" 
d="M210 427q-70 0 -113 32.5t-43 88.5q0 69 65 100q-55 31 -55 92q0 48 40.5 80.5t105.5 32.5t105 -32.5t40 -80.5q0 -59 -55 -92q66 -35 66 -99q0 -57 -43.5 -89.5t-112.5 -32.5zM210 783q-28 0 -46 -14.5t-18 -37.5q0 -25 18 -40t46 -15t45.5 15t17.5 40q0 23 -17.5 37.5
t-45.5 14.5zM210 610q-32 0 -53 -15.5t-21 -41.5t20 -42t54 -16q33 0 52.5 16t19.5 42t-20 41.5t-52 15.5z" />
    <glyph glyph-name="nine.sup" unicode="&#x2079;" 
d="M210 644q33 0 52 18t19 50v1q0 28 -21 47t-50 18q-30 0 -49.5 -18.5t-19.5 -47.5q0 -31 18.5 -49.5t50.5 -18.5zM208 853q68 0 110 -42q53 -53 53 -159v-2q0 -104 -46 -163.5t-133 -59.5q-73 0 -129 43l42 70q43 -34 89 -34q34 0 57 25.5t27 67.5q-37 -24 -84 -24
q-58 0 -98 34.5t-40 97.5q0 64 43 105t109 41z" />
    <glyph glyph-name="zero.inf" unicode="&#x2080;" 
d="M209 -147q-73 0 -121 57.5t-48 152.5v5q0 95 48.5 153t121.5 58q72 0 121 -57.5t49 -152.5v-5q0 -96 -49 -153.5t-122 -57.5zM209 196q-34 0 -56 -32t-22 -94v-8q0 -61 22 -94t57 -33q34 0 56.5 32.5t22.5 94.5v8q0 61 -23 93.5t-57 32.5z" />
    <glyph glyph-name="one.inf" unicode="&#x2081;" horiz-adv-x="342" 
d="M240 -137h-87v318l-79 -29l-25 72l126 50h65v-411z" />
    <glyph glyph-name="two.inf" unicode="&#x2082;" 
d="M57 -137v75l139 114q39 32 54.5 52t15.5 44q0 23 -16 36t-40 13q-46 0 -90 -56l-63 51q33 44 68.5 65.5t89.5 21.5q64 0 103.5 -34t39.5 -89q0 -42 -19 -72t-67 -68l-96 -76h184v-77h-303z" />
    <glyph glyph-name="three.inf" unicode="&#x2083;" 
d="M206 -147q-91 0 -161 63l51 65q54 -49 111 -49q26 0 44.5 14.5t18.5 37.5q0 25 -21 38.5t-56 13.5h-48l-14 55l110 99h-169v78h280v-68l-117 -100q55 -5 89.5 -33.5t34.5 -79.5q0 -60 -41.5 -97t-111.5 -37z" />
    <glyph glyph-name="four.inf" unicode="&#x2084;" 
d="M327 -53v-86h-80v86h-196l-8 83l196 243h88v-257h55v-69h-55zM248 15v162l-129 -162h129z" />
    <glyph glyph-name="five.inf" unicode="&#x2085;" 
d="M205 -147q-85 0 -159 59l51 67q57 -45 110 -45q31 0 51 15.5t20 41.5t-20 41t-54 15q-46 0 -76 -15l-55 34l16 202h257v-79h-184l-7 -77q24 9 68 9q63 0 103 -32.5t40 -93.5q0 -65 -44 -103.5t-117 -38.5z" />
    <glyph glyph-name="six.inf" unicode="&#x2086;" 
d="M212 -147q-69 0 -110 41q-53 53 -53 159v2q0 104 46 164t133 60q68 0 122 -40l-42 -71q-37 31 -82 31q-35 0 -58 -26t-27 -70q39 24 87 24q58 0 97 -34t39 -96q0 -65 -42.5 -104.5t-109.5 -39.5zM210 -73q30 0 49.5 18t19.5 47q0 30 -18.5 47.5t-50.5 17.5q-33 0 -52 -17
t-19 -48v-1q0 -28 21 -46.5t50 -17.5z" />
    <glyph glyph-name="seven.inf" unicode="&#x2087;" 
d="M183 -139h-99l174 326h-190v81h291v-68z" />
    <glyph glyph-name="eight.inf" unicode="&#x2088;" 
d="M210 -147q-70 0 -113 32.5t-43 88.5q0 69 65 100q-55 31 -55 92q0 48 40.5 80.5t105.5 32.5t105 -32.5t40 -80.5q0 -59 -55 -92q66 -35 66 -99q0 -57 -43.5 -89.5t-112.5 -32.5zM210 209q-28 0 -46 -14.5t-18 -37.5q0 -25 18 -40t46 -15t45.5 15t17.5 40q0 23 -17.5 37.5
t-45.5 14.5zM210 36q-32 0 -53 -15.5t-21 -41.5t20 -42t54 -16q33 0 52.5 16t19.5 42t-20 41.5t-52 15.5z" />
    <glyph glyph-name="nine.inf" unicode="&#x2089;" 
d="M210 70q33 0 52 18t19 50v1q0 28 -21 47t-50 18q-30 0 -49.5 -18.5t-19.5 -47.5q0 -31 18.5 -49.5t50.5 -18.5zM208 279q68 0 110 -42q53 -53 53 -159v-2q0 -104 -46 -163.5t-133 -59.5q-73 0 -129 43l42 70q43 -34 89 -34q34 0 57 25.5t27 67.5q-37 -24 -84 -24
q-58 0 -98 34.5t-40 97.5q0 64 43 105t109 41z" />
    <glyph glyph-name="colonmonetary" unicode="&#x20a1;" horiz-adv-x="652" 
d="M309 138q36 -12 78 -12l60 465q-31 11 -63 11q-11 0 -16 -1zM186 355q0 -122 64 -181l52 411q-54 -25 -85 -81.5t-31 -139.5v-9zM472 811h70l-14 -109q42 -16 82 -48l-54 -131q-32 26 -49 38l-55 -424q39 14 88 60l75 -100q-84 -77 -176 -93l-16 -127h-70l15 123
q-38 2 -72 9l-17 -132h-70l20 156q-84 41 -133 125.5t-49 200.5v9q0 142 74.5 237t194.5 117l12 89h70l-11 -83q35 0 73 -7z" />
    <glyph glyph-name="naira" unicode="&#x20a6;" horiz-adv-x="880" 
d="M281 503v-206h130l-125 206h-5zM594 241h5v194h-123zM848 208h-107v-208h-152l-128 208h-177v-208h-145v208h-106v93h106v130h-106v93h106v204h163l125 -204h169v204h145v-204h107v-93h-107v-130h107v-93z" />
    <glyph glyph-name="rupee" unicode="&#x20a8;" horiz-adv-x="1160" 
d="M226 370h120q56 0 88 29.5t32 81.5v4q0 111 -123 111h-117v-226zM83 0v728h269q121 0 190.5 -62t69.5 -175v-4q0 -156 -139 -215l158 -272h-165l-138 243h-102v-243h-143zM911 -10q-127 0 -233 75l60 100q90 -62 176 -62q32 0 51.5 13t19.5 34v2q0 22 -20.5 35.5
t-88.5 35.5q-90 29 -131.5 65.5t-41.5 101.5v3q0 79 57 124.5t144 45.5q105 0 196 -57l-53 -104q-80 48 -146 48q-31 0 -49.5 -12.5t-18.5 -31.5v-2q0 -21 21.5 -36t87.5 -37q90 -30 131 -66.5t41 -100.5v-2q0 -82 -57.5 -127t-145.5 -45z" />
    <glyph glyph-name="won" unicode="&#x20a9;" horiz-adv-x="1172" 
d="M582 549l-61 -243h129l-60 243h-8zM812 170h6l53 251h-122zM358 170h6l61 251h-120zM1094 728l-56 -214h97v-97h-123l-28 -106h151v-98h-177l-56 -215h-174l-57 215h-170l-57 -215h-174l-57 215h-176v98h151l-28 106h-123v97h97l-56 214h165l46 -214h156l57 216h172
l55 -216h158l46 214h161z" />
    <glyph glyph-name="sheqel" unicode="&#x20aa;" horiz-adv-x="663" 
d="M357 353q0 80 -81 80h-99v-433h-113v556h236q63 0 98 -35t35 -98v-203h-76v133zM245 145l-28 192h76l21 -135q11 -79 94 -79h78v433h113v-556h-192q-73 0 -112.5 35.5t-49.5 109.5z" />
    <glyph glyph-name="Euro" unicode="&#x20ac;" horiz-adv-x="757" 
d="M710 607l-116 -88q-32 43 -65 64t-78 21q-96 0 -138 -99h199v-102h-222q-1 -13 -1 -38v-1q0 -24 1 -35h222v-102h-200q43 -104 146 -103q44 0 75 20.5t69 67.5l110 -80q-49 -70 -109.5 -107t-144.5 -37q-116 0 -195.5 64.5t-111.5 174.5h-95v102h78q-1 11 -1 34v1
q0 26 1 39h-78v102h97q34 107 112.5 171.5t189.5 63.5q90 0 149.5 -34.5t105.5 -98.5z" />
    <glyph glyph-name="peso" unicode="&#x20b1;" horiz-adv-x="798" 
d="M139 0v423h-107v88h107v217h262q114 0 187 -60t88 -157h100v-88h-100q-15 -104 -96 -163t-195 -59h-93v-201h-153zM288 597v-91h234q-11 44 -47 67.5t-91 23.5h-96zM386 330q55 0 90.5 26.5t46.5 71.5h-235v-98h98z" />
    <glyph glyph-name="hryvnia" unicode="&#x20b4;" horiz-adv-x="679" 
d="M52 442l8 64l293 -36q32 28 44.5 45.5t12.5 38.5q0 25 -17.5 40t-52.5 15q-69 0 -152 -64l-79 102q114 93 245 93q100 0 161 -50.5t61 -125.5q0 -60 -47 -116l117 -14l-8 -64l-170 21l-74 -66l233 -28l-8 -65l-291 35q-39 -34 -53 -53.5t-14 -39.5q0 -26 20.5 -41
t57.5 -15q75 0 165 68l79 -102q-116 -96 -257 -96q-107 0 -169 50.5t-62 124.5q0 67 55 126l-117 15l8 64l172 -21l74 66z" />
    <glyph glyph-name="numero" unicode="&#x2116;" horiz-adv-x="1185" 
d="M927 288q-86 0 -140.5 61.5t-54.5 157.5v6q0 95 54.5 157t141.5 62q86 0 141 -62t55 -157v-6q0 -96 -55 -157.5t-142 -61.5zM928 382q39 0 63.5 35t24.5 88v7q0 54 -24.5 90t-64.5 36q-39 0 -63 -35t-24 -88v-7q0 -54 24.5 -90t63.5 -36zM78 0v728h133l287 -436v436h142
v-728h-124l-296 452v-452h-142zM741 133v84h372v-84h-372z" />
    <glyph glyph-name="published" unicode="&#x2117;" horiz-adv-x="871" 
d="M435 -12q-158 0 -267 109.5t-109 264.5v2q0 155 110.5 265.5t267.5 110.5t266 -109.5t109 -264.5v-2q0 -155 -110 -265.5t-267 -110.5zM435 28q141 0 237.5 98.5t96.5 237.5v2q0 140 -95.5 237t-236.5 97q-142 0 -238.5 -98.5t-96.5 -237.5v-2q0 -140 95.5 -237
t237.5 -97zM298 171v399h163q71 0 112.5 -37.5t41.5 -99.5v-2q0 -66 -46 -102t-116 -36h-68v-122h-87zM385 369h70q33 0 52.5 17t19.5 44v2q0 30 -20 46t-54 16h-68v-125z" />
    <glyph glyph-name="servicemark" unicode="&#x2120;" horiz-adv-x="739" 
d="M376 408v320h75l86 -139l87 139h73v-320h-67v218l-91 -143h-6l-90 143v-218h-67zM180 402q-84 0 -147 52l38 47q56 -44 113 -44q58 0 58 36q0 16 -15 25.5t-58 19.5q-60 14 -89.5 34t-29.5 62q0 45 32.5 72.5t88.5 27.5q79 0 128 -43l-36 -49q-48 34 -94 34
q-25 0 -38.5 -9.5t-13.5 -24.5q0 -16 15.5 -25.5t58.5 -19.5q57 -12 87 -34t30 -62q0 -46 -35 -72.5t-93 -26.5z" />
    <glyph glyph-name="trademark" unicode="&#x2122;" horiz-adv-x="726" 
d="M127 408v257h-96v63h263v-63h-96v-257h-71zM362 408v320h75l86 -139l87 139h73v-320h-67v218l-91 -143h-6l-90 143v-218h-67z" />
    <glyph glyph-name="Omega" unicode="&#x2126;" horiz-adv-x="913" 
d="M457 740q172 0 273.5 -94.5t101.5 -240.5v-1q0 -161 -152 -273h169v-131h-322v129q44 31 73.5 62t50 81t20.5 112v1q0 96 -58 155.5t-158 58.5q-98 0 -155.5 -58t-57.5 -152v-1q0 -87 37 -148t106 -111v-129h-321v131h168q-71 54 -111 119t-40 155v1q0 140 102.5 237.5
t273.5 96.5z" />
    <glyph glyph-name="onethird" unicode="&#x2153;" horiz-adv-x="867" 
d="M242 323h-87v318l-79 -30l-25 73l126 49h65v-410zM110 0l264 381l230 347h84l-264 -381l-230 -347h-84zM660 -10q-91 0 -161 63l51 65q54 -49 111 -49q26 0 44.5 14.5t18.5 37.5q0 25 -21 38.5t-56 13.5h-48l-14 55l110 99h-169v78h280v-68l-117 -100q55 -5 89.5 -33.5
t34.5 -79.5q0 -60 -41.5 -97t-111.5 -37z" />
    <glyph glyph-name="twothirds" unicode="&#x2154;" horiz-adv-x="945" 
d="M49 323v75l139 114q39 32 54.5 52t15.5 43t-16 36.5t-40 13.5q-46 0 -90 -56l-63 51q32 44 68 65t90 21q64 0 103.5 -34t39.5 -89q0 -41 -19 -71t-67 -69l-96 -76h184v-76h-303zM183 0l264 381l230 347h84l-264 -381l-230 -347h-84zM738 -10q-91 0 -161 63l51 65
q54 -49 111 -49q26 0 44.5 14.5t18.5 37.5q0 25 -21 38.5t-56 13.5h-48l-14 55l110 99h-169v78h280v-68l-117 -100q55 -5 89.5 -33.5t34.5 -79.5q0 -60 -41.5 -97t-111.5 -37z" />
    <glyph glyph-name="onefifth" unicode="&#x2155;" horiz-adv-x="867" 
d="M242 323h-87v318l-79 -30l-25 73l126 49h65v-410zM115 0l264 381l230 347h84l-264 -381l-230 -347h-84zM659 -10q-85 0 -159 59l51 67q57 -45 110 -45q31 0 51 15.5t20 41.5t-20 41t-54 15q-46 0 -76 -15l-55 34l16 202h257v-79h-184l-7 -77q24 9 68 9q63 0 103 -32.5
t40 -93.5q0 -65 -44 -103.5t-117 -38.5z" />
    <glyph glyph-name="twofifths" unicode="&#x2156;" horiz-adv-x="945" 
d="M49 323v75l139 114q39 32 54.5 52t15.5 43t-16 36.5t-40 13.5q-46 0 -90 -56l-63 51q32 44 68 65t90 21q64 0 103.5 -34t39.5 -89q0 -41 -19 -71t-67 -69l-96 -76h184v-76h-303zM193 0l264 381l230 347h84l-264 -381l-230 -347h-84zM737 -10q-85 0 -159 59l51 67
q57 -45 110 -45q31 0 51 15.5t20 41.5t-20 41t-54 15q-46 0 -76 -15l-55 34l16 202h257v-79h-184l-7 -77q24 9 68 9q63 0 103 -32.5t40 -93.5q0 -65 -44 -103.5t-117 -38.5z" />
    <glyph glyph-name="threefifths" unicode="&#x2157;" horiz-adv-x="945" 
d="M178 0l264 381l230 347h84l-264 -381l-230 -347h-84zM198 312q-90 0 -161 64l51 65q54 -49 111 -49q26 0 44.5 14.5t18.5 37.5q0 25 -21 38.5t-56 13.5h-48l-14 55l110 98h-169v79h280v-68l-117 -101q55 -4 89.5 -32.5t34.5 -79.5q0 -61 -41.5 -98t-111.5 -37zM737 -10
q-85 0 -159 59l51 67q57 -45 110 -45q31 0 51 15.5t20 41.5t-20 41t-54 15q-46 0 -76 -15l-55 34l16 202h257v-79h-184l-7 -77q24 9 68 9q63 0 103 -32.5t40 -93.5q0 -65 -44 -103.5t-117 -38.5z" />
    <glyph glyph-name="fourfifths" unicode="&#x2158;" horiz-adv-x="945" 
d="M319 406v-85h-80v85h-196l-8 84l196 242h88v-256h55v-70h-55zM193 0l264 381l230 347h84l-264 -381l-230 -347h-84zM240 475v161l-129 -161h129zM737 -10q-85 0 -159 59l51 67q57 -45 110 -45q31 0 51 15.5t20 41.5t-20 41t-54 15q-46 0 -76 -15l-55 34l16 202h257v-79
h-184l-7 -77q24 9 68 9q63 0 103 -32.5t40 -93.5q0 -65 -44 -103.5t-117 -38.5z" />
    <glyph glyph-name="onesixth" unicode="&#x2159;" horiz-adv-x="867" 
d="M242 323h-87v318l-79 -30l-25 73l126 49h65v-410zM121 0l264 381l230 347h84l-264 -381l-230 -347h-84zM666 -10q-69 0 -110 41q-53 53 -53 159v2q0 104 46 164t133 60q68 0 122 -40l-42 -71q-37 31 -82 31q-35 0 -58 -26t-27 -70q39 24 87 24q58 0 97 -34t39 -96
q0 -65 -42.5 -104.5t-109.5 -39.5zM664 64q30 0 49.5 18t19.5 47q0 30 -18.5 47.5t-50.5 17.5q-33 0 -52 -17t-19 -48v-1q0 -28 21 -46.5t50 -17.5z" />
    <glyph glyph-name="fivesixths" unicode="&#x215a;" horiz-adv-x="945" 
d="M183 0l264 381l230 347h84l-264 -381l-230 -347h-84zM197 312q-85 0 -159 59l51 67q58 -44 110 -44q31 0 51 15.5t20 41.5t-20 41t-54 15q-46 0 -76 -15l-55 33l16 203h257v-80h-184l-7 -76q29 9 68 9q63 0 103 -32.5t40 -93.5q0 -65 -44 -104t-117 -39zM744 -10
q-69 0 -110 41q-53 53 -53 159v2q0 104 46 164t133 60q68 0 122 -40l-42 -71q-37 31 -82 31q-35 0 -58 -26t-27 -70q39 24 87 24q58 0 97 -34t39 -96q0 -65 -42.5 -104.5t-109.5 -39.5zM742 64q30 0 49.5 18t19.5 47q0 30 -18.5 47.5t-50.5 17.5q-33 0 -52 -17t-19 -48v-1
q0 -28 21 -46.5t50 -17.5z" />
    <glyph glyph-name="oneeighth" unicode="&#x215b;" horiz-adv-x="867" 
d="M242 323h-87v318l-79 -30l-25 73l126 49h65v-410zM116 0l264 381l230 347h84l-264 -381l-230 -347h-84zM664 -10q-70 0 -113 32.5t-43 88.5q0 69 65 100q-55 31 -55 92q0 48 40.5 80.5t105.5 32.5t105 -32.5t40 -80.5q0 -59 -55 -92q66 -35 66 -99q0 -57 -43.5 -89.5
t-112.5 -32.5zM664 346q-28 0 -46 -14.5t-18 -37.5q0 -25 18 -40t46 -15t45.5 15t17.5 40q0 23 -17.5 37.5t-45.5 14.5zM664 173q-32 0 -53 -15.5t-21 -41.5t20 -42t54 -16q33 0 52.5 16t19.5 42t-20 41.5t-52 15.5z" />
    <glyph glyph-name="threeeighths" unicode="&#x215c;" horiz-adv-x="945" 
d="M183 0l264 381l230 347h84l-264 -381l-230 -347h-84zM198 312q-90 0 -161 64l51 65q54 -49 111 -49q26 0 44.5 14.5t18.5 37.5q0 25 -21 38.5t-56 13.5h-48l-14 55l110 98h-169v79h280v-68l-117 -101q55 -4 89.5 -32.5t34.5 -79.5q0 -61 -41.5 -98t-111.5 -37zM742 -10
q-70 0 -113 32.5t-43 88.5q0 69 65 100q-55 31 -55 92q0 48 40.5 80.5t105.5 32.5t105 -32.5t40 -80.5q0 -59 -55 -92q66 -35 66 -99q0 -57 -43.5 -89.5t-112.5 -32.5zM742 346q-28 0 -46 -14.5t-18 -37.5q0 -25 18 -40t46 -15t45.5 15t17.5 40q0 23 -17.5 37.5t-45.5 14.5z
M742 173q-32 0 -53 -15.5t-21 -41.5t20 -42t54 -16q33 0 52.5 16t19.5 42t-20 41.5t-52 15.5z" />
    <glyph glyph-name="fiveeighths" unicode="&#x215d;" horiz-adv-x="945" 
d="M183 0l264 381l230 347h84l-264 -381l-230 -347h-84zM197 312q-85 0 -159 59l51 67q58 -44 110 -44q31 0 51 15.5t20 41.5t-20 41t-54 15q-46 0 -76 -15l-55 33l16 203h257v-80h-184l-7 -76q29 9 68 9q63 0 103 -32.5t40 -93.5q0 -65 -44 -104t-117 -39zM742 -10
q-70 0 -113 32.5t-43 88.5q0 69 65 100q-55 31 -55 92q0 48 40.5 80.5t105.5 32.5t105 -32.5t40 -80.5q0 -59 -55 -92q66 -35 66 -99q0 -57 -43.5 -89.5t-112.5 -32.5zM742 346q-28 0 -46 -14.5t-18 -37.5q0 -25 18 -40t46 -15t45.5 15t17.5 40q0 23 -17.5 37.5t-45.5 14.5z
M742 173q-32 0 -53 -15.5t-21 -41.5t20 -42t54 -16q33 0 52.5 16t19.5 42t-20 41.5t-52 15.5z" />
    <glyph glyph-name="seveneighths" unicode="&#x215e;" horiz-adv-x="945" 
d="M152 0l264 381l230 347h84l-264 -381l-230 -347h-84zM185 321h-99l174 325h-190v82h291v-68zM742 -10q-70 0 -113 32.5t-43 88.5q0 69 65 100q-55 31 -55 92q0 48 40.5 80.5t105.5 32.5t105 -32.5t40 -80.5q0 -59 -55 -92q66 -35 66 -99q0 -57 -43.5 -89.5t-112.5 -32.5z
M742 346q-28 0 -46 -14.5t-18 -37.5q0 -25 18 -40t46 -15t45.5 15t17.5 40q0 23 -17.5 37.5t-45.5 14.5zM742 173q-32 0 -53 -15.5t-21 -41.5t20 -42t54 -16q33 0 52.5 16t19.5 42t-20 41.5t-52 15.5z" />
    <glyph glyph-name="Delta" unicode="&#x2206;" horiz-adv-x="826" 
d="M62 0l-12 111l283 622h160l283 -622l-12 -111h-702zM411 564l-186 -428h372z" />
    <glyph glyph-name="minus" unicode="&#x2212;" horiz-adv-x="672" 
d="M598 296h-523v140h523v-140z" />
    <glyph glyph-name="Q.alt" horiz-adv-x="892" 
d="M671 -105l-112 109q-58 -16 -114 -16q-166 0 -275.5 108.5t-109.5 265.5v2q0 157 110.5 266.5t276.5 109.5t275.5 -108.5t109.5 -265.5v-2q0 -80 -31.5 -151.5t-88.5 -123.5l189 -189v-5h-230zM447 129q97 0 160.5 67.5t63.5 165.5v2q0 98 -64.5 166.5t-161.5 68.5
t-160.5 -67.5t-63.5 -165.5v-2q0 -98 64.5 -166.5t161.5 -68.5z" />
    <glyph glyph-name="a.alt" horiz-adv-x="709" 
d="M343 119q58 0 99 44t41 114v2q0 70 -41 114t-99 44q-59 0 -99.5 -43.5t-40.5 -114.5v-2q0 -70 41 -114t99 -44zM305 -11q-104 0 -179 77.5t-75 210.5v2q0 133 74.5 210t179.5 77q106 0 176 -85v75h152v-556h-152v82q-68 -93 -176 -93z" />
    <glyph glyph-name="uni039E.alt" horiz-adv-x="777" 
d="M717 136v-136h-657v136h255v163h-224v135h224v158h-250v136h647v-136h-250v-158h224v-135h-224v-163h255z" />
    <glyph glyph-name="uni0424.bgr" horiz-adv-x="1033" 
d="M439 -104v103q-172 10 -275.5 110.5t-103.5 252.5v2q0 151 104 252.5t275 112.5v103h154v-103q172 -10 275.5 -111t103.5 -252v-2q0 -151 -104.5 -253t-274.5 -112v-103h-154zM813 364q0 94 -60.5 157t-164.5 68v-451q105 5 165 66.5t60 157.5v2zM219 364q0 -95 60 -157
t165 -69v451q-105 -5 -165 -66.5t-60 -156.5v-2z" />
    <glyph glyph-name="uni0432.bgr" horiz-adv-x="686" 
d="M67 275v217q0 129 74 201.5t207 72.5q119 0 188.5 -57.5t69.5 -153.5v-1q0 -131 -134 -176q80 -20 121 -63t41 -119v-1q0 -92 -76 -150t-197 -57q-141 0 -217.5 70.5t-76.5 216.5zM218 493v-66h83q74 0 115.5 30.5t41.5 84.5q0 44 -29 71.5t-80 27.5q-62 0 -96.5 -40
t-34.5 -108zM302 320h-84v-44q0 -163 143 -163q57 0 90.5 27.5t33.5 70.5q0 109 -183 109z" />
    <glyph glyph-name="uni0433.bgr" horiz-adv-x="551" 
d="M241 -10q-90 0 -144 42.5t-54 119.5v2q0 68 44 108.5t140 70.5q80 25 104 38t24 34v1q0 18 -15.5 30t-44.5 11q-73 0 -174 -58l-58 104q114 71 234 71q94 0 144.5 -43.5t50.5 -119.5v-2q0 -69 -44 -105t-141 -68q-79 -25 -103 -40t-24 -36v-1q0 -42 64 -42q85 0 203 74
l63 -101q-133 -90 -269 -90z" />
    <glyph glyph-name="uni0434.bgr" horiz-adv-x="709" 
d="M342 171q60 0 100.5 37.5t40.5 96.5v2q0 58 -40.5 95.5t-100.5 37.5t-99.5 -37t-39.5 -96v-2q0 -59 39.5 -96.5t99.5 -37.5zM325 -168q-137 0 -246 59l52 114q91 -52 190 -52q162 0 162 155v30q-38 -46 -81 -69.5t-103 -23.5q-103 0 -175.5 70.5t-72.5 189.5v2
q0 118 73 188.5t175 70.5q106 0 182 -85v75h152v-433q0 -146 -71 -217q-74 -74 -237 -74z" />
    <glyph glyph-name="uni0436.bgr" horiz-adv-x="949" 
d="M548 759l-2 -414h46l162 211h176l-224 -271l233 -285h-177l-169 216h-47l2 -216h-147l1 216h-47l-168 -216h-177l233 277l-224 279h178l162 -211h43l-1 414h147z" />
    <glyph glyph-name="uni0438.bgr" horiz-adv-x="655" 
d="M262 -11q-89 0 -139.5 55.5t-50.5 152.5v359h151v-311q0 -57 26 -87.5t74 -30.5t76 30.5t28 87.5v311h152v-556h-152v80q-68 -91 -165 -91z" />
    <glyph glyph-name="uni0439.bgr" horiz-adv-x="655" 
d="M325 617q-82 0 -133.5 43t-58.5 119h102q22 -63 90 -63t90 63h102q-7 -76 -58.5 -119t-133.5 -43zM262 -11q-89 0 -139.5 55.5t-50.5 152.5v359h151v-311q0 -57 26 -87.5t74 -30.5t76 30.5t28 87.5v311h152v-556h-152v80q-68 -91 -165 -91z" />
    <glyph glyph-name="uni043A.bgr" horiz-adv-x="634" 
d="M228 759v-413h43l161 210h185l-228 -272l236 -284h-181l-172 215h-44v-215h-152v759h152z" />
    <glyph glyph-name="uni043F.bgr" horiz-adv-x="655" 
d="M76 0v556h152v-80q69 90 165 90q90 0 140.5 -55.5t50.5 -151.5v-359h-152v311q0 57 -26 87.5t-74 30.5t-76 -30.5t-28 -87.5v-311h-152z" />
    <glyph glyph-name="uni0442.bgr" horiz-adv-x="996" 
d="M76 0v556h152v-80q69 90 165 90q112 0 158 -90q74 90 184 90q90 0 139.5 -53t49.5 -153v-360h-152v311q0 118 -96 118q-47 0 -73.5 -30.5t-26.5 -87.5v-311h-152v311q0 57 -25 87.5t-71 30.5t-73 -31t-27 -87v-311h-152z" />
    <glyph glyph-name="uni0446.bgr" horiz-adv-x="681" 
d="M262 -11q-89 0 -139.5 55.5t-50.5 152.5v359h151v-311q0 -57 26 -87.5t74 -30.5t76 30.5t28 87.5v311h152v-419h73v-271h-137v134h-88v80q-68 -91 -165 -91z" />
    <glyph glyph-name="uni0448.bgr" horiz-adv-x="996" 
d="M920 556v-556h-152v80q-70 -91 -165 -91q-111 0 -158 90q-76 -90 -184 -90q-89 0 -139 53t-50 153v361h152v-311q0 -118 96 -118q47 0 73.5 30.5t26.5 87.5v311h152v-312q0 -57 25 -87t71 -30q47 0 73.5 30.5t26.5 87.5v311h152z" />
    <glyph glyph-name="uni0449.bgr" horiz-adv-x="1022" 
d="M855 -134v134h-87v80q-70 -91 -165 -91q-111 0 -158 90q-76 -90 -184 -90q-89 0 -139 53t-50 153v361h152v-311q0 -118 96 -118q47 0 73.5 30.5t26.5 87.5v311h152v-312q0 -57 25 -87t71 -30q47 0 73.5 30.5t26.5 87.5v311h152v-419h72v-271h-137z" />
    <glyph glyph-name="uni044E.bgr" horiz-adv-x="945" 
d="M603 -12q-106 0 -184.5 62.5t-100.5 159.5h-90v-210h-152v759h152v-409h92q24 95 102.5 155.5t182.5 60.5q124 0 207.5 -83.5t83.5 -203.5v-2q0 -121 -84.5 -205t-208.5 -84zM605 118q63 0 102 45.5t39 111.5v2q0 65 -41 111.5t-102 46.5q-64 0 -103 -45t-39 -111v-2
q0 -65 41 -112t103 -47z" />
    <glyph glyph-name="aacute.alt" horiz-adv-x="709" 
d="M302 619l114 181l132 -57l-134 -124h-112zM343 119q58 0 99 44t41 114v2q0 70 -41 114t-99 44q-59 0 -99.5 -43.5t-40.5 -114.5v-2q0 -70 41 -114t99 -44zM305 -11q-104 0 -179 77.5t-75 210.5v2q0 133 74.5 210t179.5 77q106 0 176 -85v75h152v-556h-152v82
q-68 -93 -176 -93z" />
    <glyph glyph-name="abreve.alt" horiz-adv-x="709" 
d="M362 617q-82 0 -133.5 43t-58.5 119h102q22 -63 90 -63t90 63h102q-7 -76 -58.5 -119t-133.5 -43zM343 119q58 0 99 44t41 114v2q0 70 -41 114t-99 44q-59 0 -99.5 -43.5t-40.5 -114.5v-2q0 -70 41 -114t99 -44zM305 -11q-104 0 -179 77.5t-75 210.5v2q0 133 74.5 210
t179.5 77q106 0 176 -85v75h152v-556h-152v82q-68 -93 -176 -93z" />
    <glyph glyph-name="acircumflex.alt" horiz-adv-x="709" 
d="M164 619l126 161h144l126 -161h-117l-82 69l-82 -69h-115zM343 119q58 0 99 44t41 114v2q0 70 -41 114t-99 44q-59 0 -99.5 -43.5t-40.5 -114.5v-2q0 -70 41 -114t99 -44zM305 -11q-104 0 -179 77.5t-75 210.5v2q0 133 74.5 210t179.5 77q106 0 176 -85v75h152v-556h-152
v82q-68 -93 -176 -93z" />
    <glyph glyph-name="adieresis.alt" horiz-adv-x="709" 
d="M182 619v137h147v-137h-147zM395 619v137h147v-137h-147zM343 119q58 0 99 44t41 114v2q0 70 -41 114t-99 44q-59 0 -99.5 -43.5t-40.5 -114.5v-2q0 -70 41 -114t99 -44zM305 -11q-104 0 -179 77.5t-75 210.5v2q0 133 74.5 210t179.5 77q106 0 176 -85v75h152v-556h-152
v82q-68 -93 -176 -93z" />
    <glyph glyph-name="agrave.alt" horiz-adv-x="709" 
d="M310 619l-134 124l132 57l114 -181h-112zM343 119q58 0 99 44t41 114v2q0 70 -41 114t-99 44q-59 0 -99.5 -43.5t-40.5 -114.5v-2q0 -70 41 -114t99 -44zM305 -11q-104 0 -179 77.5t-75 210.5v2q0 133 74.5 210t179.5 77q106 0 176 -85v75h152v-556h-152v82
q-68 -93 -176 -93z" />
    <glyph glyph-name="amacron.alt" horiz-adv-x="709" 
d="M177 625v106h370v-106h-370zM343 119q58 0 99 44t41 114v2q0 70 -41 114t-99 44q-59 0 -99.5 -43.5t-40.5 -114.5v-2q0 -70 41 -114t99 -44zM305 -11q-104 0 -179 77.5t-75 210.5v2q0 133 74.5 210t179.5 77q106 0 176 -85v75h152v-556h-152v82q-68 -93 -176 -93z" />
    <glyph glyph-name="aogonek.alt" horiz-adv-x="709" 
d="M644 -103v-68q-16 -2 -44 -2q-65 0 -102 25t-37 64q0 40 36 84h-16v82q-68 -93 -176 -93q-104 0 -179 77.5t-75 210.5v2q0 133 74.5 210t179.5 77q106 0 176 -85v75h152v-556h-35q-27 -31 -27 -60q0 -45 73 -43zM343 119q58 0 99 44t41 114v2q0 70 -41 114t-99 44
q-59 0 -99.5 -43.5t-40.5 -114.5v-2q0 -70 41 -114t99 -44z" />
    <glyph glyph-name="aring.alt" horiz-adv-x="709" 
d="M362 617q-52 0 -88.5 35t-36.5 85t36.5 85.5t88.5 35.5t88.5 -35.5t36.5 -85.5t-36.5 -85t-88.5 -35zM362 668q28 0 48.5 20.5t20.5 48.5q0 29 -20.5 49t-48.5 20t-48.5 -20t-20.5 -49q0 -28 20.5 -48.5t48.5 -20.5zM343 119q58 0 99 44t41 114v2q0 70 -41 114t-99 44
q-59 0 -99.5 -43.5t-40.5 -114.5v-2q0 -70 41 -114t99 -44zM305 -11q-104 0 -179 77.5t-75 210.5v2q0 133 74.5 210t179.5 77q106 0 176 -85v75h152v-556h-152v82q-68 -93 -176 -93z" />
    <glyph glyph-name="aring.alt2" horiz-adv-x="623" 
d="M244 632q0 -28 20.5 -48.5t48.5 -20.5q29 0 49 20.5t20 48.5t-20 48.5t-49 20.5q-28 0 -48.5 -20.5t-20.5 -48.5zM280 95q57 0 92.5 28.5t35.5 73.5v30q-49 21 -106 21q-53 0 -83 -21t-30 -59v-2q0 -33 25 -52t66 -19zM235 -11q-82 0 -137.5 45.5t-55.5 125.5v2
q0 88 61 132.5t164 44.5q71 0 139 -22v10q0 105 -123 105q-72 0 -155 -31l-38 116q67 30 128 39q-30 33 -30 76q0 50 36.5 85.5t88.5 35.5t88.5 -35.5t36.5 -85.5q0 -47 -37 -82q53 -14 91 -50q60 -60 60 -176v-324h-147v62q-65 -73 -170 -73z" />
    <glyph glyph-name="aringacute.alt" horiz-adv-x="709" 
d="M301 893l122 151l130 -58l-140 -93h-112zM362 617q-52 0 -88.5 35t-36.5 85t36.5 85.5t88.5 35.5t88.5 -35.5t36.5 -85.5t-36.5 -85t-88.5 -35zM362 668q28 0 48.5 20.5t20.5 48.5q0 29 -20.5 49t-48.5 20t-48.5 -20t-20.5 -49q0 -28 20.5 -48.5t48.5 -20.5zM343 119
q58 0 99 44t41 114v2q0 70 -41 114t-99 44q-59 0 -99.5 -43.5t-40.5 -114.5v-2q0 -70 41 -114t99 -44zM305 -11q-104 0 -179 77.5t-75 210.5v2q0 133 74.5 210t179.5 77q106 0 176 -85v75h152v-556h-152v82q-68 -93 -176 -93z" />
    <glyph glyph-name="aringacute.alt2" horiz-adv-x="623" 
d="M252 789l122 151l130 -58l-140 -93h-112zM244 632q0 -28 20.5 -48.5t48.5 -20.5q29 0 49 20.5t20 48.5t-20 48.5t-49 20.5q-28 0 -48.5 -20.5t-20.5 -48.5zM280 95q57 0 92.5 28.5t35.5 73.5v30q-49 21 -106 21q-53 0 -83 -21t-30 -59v-2q0 -33 25 -52t66 -19zM235 -11
q-82 0 -137.5 45.5t-55.5 125.5v2q0 88 61 132.5t164 44.5q71 0 139 -22v10q0 105 -123 105q-72 0 -155 -31l-38 116q67 30 128 39q-30 33 -30 76q0 50 36.5 85.5t88.5 35.5t88.5 -35.5t36.5 -85.5q0 -47 -37 -82q53 -14 91 -50q60 -60 60 -176v-324h-147v62
q-65 -73 -170 -73z" />
    <glyph glyph-name="atilde.alt" horiz-adv-x="709" 
d="M451 619q-39 0 -93 23q-45 17 -61 17q-23 0 -35.5 -12t-23.5 -39l-82 25q20 71 48.5 106t78.5 35q39 0 93 -23q48 -18 61 -18q23 0 35.5 12t23.5 40l82 -25q-20 -71 -48.5 -106t-78.5 -35zM343 119q58 0 99 44t41 114v2q0 70 -41 114t-99 44q-59 0 -99.5 -43.5
t-40.5 -114.5v-2q0 -70 41 -114t99 -44zM305 -11q-104 0 -179 77.5t-75 210.5v2q0 133 74.5 210t179.5 77q106 0 176 -85v75h152v-556h-152v82q-68 -93 -176 -93z" />
    <glyph glyph-name="i.dot" horiz-adv-x="319" 
d="M79 622v136h160v-136h-160zM84 0v556h151v-556h-151z" />
    <glyph glyph-name="uni0386.calt" horiz-adv-x="830" 
d="M310 302h205l-102 247zM30 0l314 733h142l313 -733h-161l-68 166h-315l-68 -166h-157z" />
    <glyph glyph-name="uni0388.calt" horiz-adv-x="705" 
d="M93 0v728h547v-137h-395v-156h348v-137h-348v-161h400v-137h-552z" />
    <glyph glyph-name="uni0389.calt" horiz-adv-x="798" 
d="M93 0v728h153v-291h306v291h154v-728h-154v295h-306v-295h-153z" />
    <glyph glyph-name="uni038A.calt" horiz-adv-x="354" 
d="M100 0v728h154v-728h-154z" />
    <glyph glyph-name="uni038C.calt" horiz-adv-x="892" 
d="M445 -12q-166 0 -275.5 108.5t-109.5 265.5v2q0 157 110.5 266.5t276.5 109.5t275.5 -108.5t109.5 -265.5v-2q0 -157 -110.5 -266.5t-276.5 -109.5zM447 129q97 0 160.5 67.5t63.5 165.5v2q0 98 -64.5 166.5t-161.5 68.5t-160.5 -67.5t-63.5 -165.5v-2q0 -98 64.5 -166.5
t161.5 -68.5z" />
    <glyph glyph-name="uni038E.calt" horiz-adv-x="753" 
d="M299 0v287l-281 441h180l179 -298l183 298h175l-282 -438v-290h-154z" />
    <glyph glyph-name="uni038F.calt" horiz-adv-x="913" 
d="M457 740q172 0 273.5 -94.5t101.5 -240.5v-1q0 -161 -152 -273h169v-131h-322v129q44 31 73.5 62t50 81t20.5 112v1q0 96 -58 155.5t-158 58.5q-98 0 -155.5 -58t-57.5 -152v-1q0 -87 37 -148t106 -111v-129h-321v131h168q-71 54 -111 119t-40 155v1q0 140 102.5 237.5
t273.5 96.5z" />
    <glyph glyph-name="uni0399.calt" horiz-adv-x="354" 
d="M-9 786v129h148v-129h-148zM215 786v129h148v-129h-148zM100 0v728h154v-728h-154z" />
    <glyph glyph-name="uni03A5.calt" horiz-adv-x="753" 
d="M190 786v129h148v-129h-148zM414 786v129h148v-129h-148zM299 0v287l-281 441h180l179 -298l183 298h175l-282 -438v-290h-154z" />
    <glyph glyph-name="uni0431.srb" horiz-adv-x="682" 
d="M567 759v-129l-280 2q-33 0 -33 -21q0 -14 29 -29l145 -71q103 -51 154 -109.5t51 -146.5v-1q0 -113 -82 -190t-214 -76q-125 0 -206.5 75.5t-81.5 188.5v1q0 92 52 153.5t148 79.5l-23 12q-60 32 -88 62.5t-28 79.5q0 52 44 85.5t133 33.5h280zM342 116q64 0 104 38.5
t40 100.5v1q0 62 -42.5 101.5t-102.5 38.5q-65 0 -104.5 -41.5t-39.5 -99.5v-1q0 -60 41 -99.5t104 -38.5z" />
    <glyph glyph-name="three.alt" horiz-adv-x="646" 
d="M330 -12q-174 0 -287 124l103 100q80 -87 186 -87q53 0 82.5 24t29.5 66v2q0 42 -37.5 64t-104.5 22h-80v128h84q56 0 87 24.5t31 63.5v2q0 37 -29 59.5t-80 22.5q-44 0 -79 -21.5t-73 -64.5l-106 89q53 67 112.5 100.5t147.5 33.5q116 0 187 -54.5t71 -140.5v-2
q0 -116 -98 -169q118 -50 118 -159v-2q0 -99 -70.5 -162t-194.5 -63z" />
    <glyph glyph-name="registered.alt" horiz-adv-x="871" 
d="M435 -12q-158 0 -267 109.5t-109 264.5v2q0 155 110.5 265.5t267.5 110.5t266 -109.5t109 -264.5v-2q0 -155 -110 -265.5t-267 -110.5zM435 28q141 0 237.5 98.5t96.5 237.5v2q0 140 -95.5 237t-236.5 97q-142 0 -238.5 -98.5t-96.5 -237.5v-2q0 -140 95.5 -237
t237.5 -97zM367 380h90q34 0 52.5 16t18.5 42v2q0 28 -19.5 43.5t-52.5 15.5h-89v-119zM281 175v399h178q80 0 123 -43q33 -33 33 -86v-2q0 -93 -88 -123l100 -145h-100l-88 131h-72v-131h-86z" />
    <glyph glyph-name="one.sup_alt" 
d="M370 437h-296v76h110v242l-94 -35l-25 72l141 56h65v-335h99v-76z" />
    <glyph glyph-name="one.inf_alt" 
d="M370 -137h-296v76h110v242l-94 -35l-25 72l141 56h65v-335h99v-76z" />
    <glyph glyph-name="zero.num" 
d="M209 312q-73 0 -121 57.5t-48 152.5v5q0 96 48.5 153.5t121.5 57.5t121.5 -57.5t48.5 -152.5v-5q0 -95 -49 -153t-122 -58zM209 656q-34 0 -56 -32.5t-22 -94.5v-8q0 -61 22 -93.5t57 -32.5q34 0 56.5 32t22.5 94v8q0 61 -23 94t-57 33z" />
    <glyph glyph-name="one.num" horiz-adv-x="342" 
d="M240 323h-87v318l-79 -30l-25 73l126 49h65v-410z" />
    <glyph glyph-name="one.num_alt" 
d="M370 323h-296v76h110v242l-94 -36l-25 73l141 55h65v-334h99v-76z" />
    <glyph glyph-name="two.num" 
d="M57 323v75l139 114q39 32 54.5 52t15.5 43t-16 36.5t-40 13.5q-46 0 -90 -56l-63 51q32 44 68 65t90 21q64 0 103.5 -34t39.5 -89q0 -41 -19 -71t-67 -69l-96 -76h184v-76h-303z" />
    <glyph glyph-name="three.num" 
d="M206 312q-90 0 -161 64l51 65q54 -49 111 -49q26 0 44.5 14.5t18.5 37.5q0 25 -21 38.5t-56 13.5h-48l-14 55l110 98h-169v79h280v-68l-117 -101q55 -4 89.5 -32.5t34.5 -79.5q0 -61 -41.5 -98t-111.5 -37z" />
    <glyph glyph-name="four.num" 
d="M327 406v-85h-80v85h-196l-8 84l196 242h88v-256h55v-70h-55zM248 475v161l-129 -161h129z" />
    <glyph glyph-name="five.num" 
d="M205 312q-85 0 -159 59l51 67q58 -44 110 -44q31 0 51 15.5t20 41.5t-20 41t-54 15q-46 0 -76 -15l-55 33l16 203h257v-80h-184l-7 -76q29 9 68 9q63 0 103 -32.5t40 -93.5q0 -65 -44 -104t-117 -39z" />
    <glyph glyph-name="six.num" 
d="M212 312q-68 0 -110 42q-53 53 -53 159v2q0 104 46 163.5t133 59.5q70 0 122 -40l-42 -70q-39 31 -82 31q-35 0 -58 -26.5t-27 -70.5q37 24 87 24q58 0 97 -34t39 -96q0 -64 -43 -104t-109 -40zM210 387q30 0 49.5 18t19.5 46q0 31 -18.5 48.5t-50.5 17.5q-33 0 -52 -17
t-19 -49v-1q0 -27 21 -45.5t50 -17.5z" />
    <glyph glyph-name="seven.num" 
d="M183 321h-99l174 325h-190v82h291v-68z" />
    <glyph glyph-name="eight.num" 
d="M210 312q-70 0 -113 33t-43 89q0 69 65 100q-55 31 -55 91q0 49 40 81t106 32q65 0 105 -32t40 -81q0 -60 -55 -91q66 -35 66 -99q0 -57 -43.5 -90t-112.5 -33zM210 669q-28 0 -46 -15t-18 -38q0 -24 18 -39t46 -15t45.5 14.5t17.5 39.5q0 23 -17.5 38t-45.5 15zM210 495
q-33 0 -53.5 -15t-20.5 -41t20 -42t54 -16q33 0 52.5 15.5t19.5 42.5q0 26 -20 41t-52 15z" />
    <glyph glyph-name="nine.num" 
d="M210 530q33 0 52 17.5t19 49.5v1q0 28 -21 47.5t-50 18.5q-30 0 -49.5 -18.5t-19.5 -48.5q0 -31 18.5 -49t50.5 -18zM208 738q69 0 110 -41q53 -53 53 -159v-2q0 -104 -46 -164t-133 -60q-71 0 -129 43l42 71q41 -34 89 -34q35 0 57.5 25t26.5 67q-39 -24 -84 -24
q-58 0 -98 34.5t-40 97.5q0 64 43 105t109 41z" />
    <glyph glyph-name="zero.den" 
d="M209 -10q-73 0 -121 57.5t-48 152.5v5q0 95 48.5 153t121.5 58q72 0 121 -57.5t49 -152.5v-5q0 -96 -49 -153.5t-122 -57.5zM209 333q-34 0 -56 -32t-22 -94v-8q0 -61 22 -94t57 -33q34 0 56.5 32.5t22.5 94.5v8q0 61 -23 93.5t-57 32.5z" />
    <glyph glyph-name="one.den" horiz-adv-x="342" 
d="M240 0h-87v318l-79 -29l-25 72l126 50h65v-411z" />
    <glyph glyph-name="one.den_alt" 
d="M370 0h-296v76h110v242l-94 -35l-25 72l141 56h65v-335h99v-76z" />
    <glyph glyph-name="two.den" 
d="M57 0v75l139 114q39 32 54.5 52t15.5 44q0 23 -16 36t-40 13q-46 0 -90 -56l-63 51q33 44 68.5 65.5t89.5 21.5q64 0 103.5 -34t39.5 -89q0 -42 -19 -72t-67 -68l-96 -76h184v-77h-303z" />
    <glyph glyph-name="three.den" 
d="M206 -10q-91 0 -161 63l51 65q54 -49 111 -49q26 0 44.5 14.5t18.5 37.5q0 25 -21 38.5t-56 13.5h-48l-14 55l110 99h-169v78h280v-68l-117 -100q55 -5 89.5 -33.5t34.5 -79.5q0 -60 -41.5 -97t-111.5 -37z" />
    <glyph glyph-name="four.den" 
d="M327 84v-86h-80v86h-196l-8 83l196 243h88v-257h55v-69h-55zM248 152v162l-129 -162h129z" />
    <glyph glyph-name="five.den" 
d="M205 -10q-85 0 -159 59l51 67q57 -45 110 -45q31 0 51 15.5t20 41.5t-20 41t-54 15q-46 0 -76 -15l-55 34l16 202h257v-79h-184l-7 -77q24 9 68 9q63 0 103 -32.5t40 -93.5q0 -65 -44 -103.5t-117 -38.5z" />
    <glyph glyph-name="six.den" 
d="M212 -10q-69 0 -110 41q-53 53 -53 159v2q0 104 46 164t133 60q68 0 122 -40l-42 -71q-37 31 -82 31q-35 0 -58 -26t-27 -70q39 24 87 24q58 0 97 -34t39 -96q0 -65 -42.5 -104.5t-109.5 -39.5zM210 64q30 0 49.5 18t19.5 47q0 30 -18.5 47.5t-50.5 17.5q-33 0 -52 -17
t-19 -48v-1q0 -28 21 -46.5t50 -17.5z" />
    <glyph glyph-name="seven.den" 
d="M183 -2h-99l174 326h-190v81h291v-68z" />
    <glyph glyph-name="eight.den" 
d="M210 -10q-70 0 -113 32.5t-43 88.5q0 69 65 100q-55 31 -55 92q0 48 40.5 80.5t105.5 32.5t105 -32.5t40 -80.5q0 -59 -55 -92q66 -35 66 -99q0 -57 -43.5 -89.5t-112.5 -32.5zM210 346q-28 0 -46 -14.5t-18 -37.5q0 -25 18 -40t46 -15t45.5 15t17.5 40q0 23 -17.5 37.5
t-45.5 14.5zM210 173q-32 0 -53 -15.5t-21 -41.5t20 -42t54 -16q33 0 52.5 16t19.5 42t-20 41.5t-52 15.5z" />
    <glyph glyph-name="nine.den" 
d="M210 207q33 0 52 18t19 50v1q0 28 -21 47t-50 18q-30 0 -49.5 -18.5t-19.5 -47.5q0 -31 18.5 -49.5t50.5 -18.5zM208 416q68 0 110 -42q53 -53 53 -159v-2q0 -104 -46 -163.5t-133 -59.5q-73 0 -129 43l42 70q43 -34 89 -34q34 0 57 25.5t27 67.5q-37 -24 -84 -24
q-58 0 -98 34.5t-40 97.5q0 64 43 105t109 41z" />
    <glyph glyph-name="onehalf.alt" horiz-adv-x="945" 
d="M367 323h-296v76h110v242l-94 -36l-25 73l141 55h65v-334h99v-76zM204 0l264 381l230 347h84l-264 -381l-230 -347h-84zM589 0v75l139 114q39 32 54.5 52t15.5 44q0 23 -16 36t-40 13q-46 0 -90 -56l-63 51q33 44 68.5 65.5t89.5 21.5q64 0 103.5 -34t39.5 -89
q0 -42 -19 -72t-67 -68l-96 -76h184v-77h-303z" />
    <glyph glyph-name="onethird.alt" horiz-adv-x="945" 
d="M367 323h-296v76h110v242l-94 -36l-25 73l141 55h65v-334h99v-76zM193 0l264 381l230 347h84l-264 -381l-230 -347h-84zM738 -10q-91 0 -161 63l51 65q54 -49 111 -49q26 0 44.5 14.5t18.5 37.5q0 25 -21 38.5t-56 13.5h-48l-14 55l110 99h-169v78h280v-68l-117 -100
q55 -5 89.5 -33.5t34.5 -79.5q0 -60 -41.5 -97t-111.5 -37z" />
    <glyph glyph-name="onequarter.alt" horiz-adv-x="945" 
d="M367 323h-296v76h110v242l-94 -36l-25 73l141 55h65v-334h99v-76zM209 0l264 381l230 347h84l-264 -381l-230 -347h-84zM849 84v-86h-80v86h-196l-8 83l196 243h88v-257h55v-69h-55zM770 152v162l-129 -162h129z" />
    <glyph glyph-name="onefifth.alt" horiz-adv-x="945" 
d="M367 323h-296v76h110v242l-94 -36l-25 73l141 55h65v-334h99v-76zM199 0l264 381l230 347h84l-264 -381l-230 -347h-84zM737 -10q-85 0 -159 59l51 67q57 -45 110 -45q31 0 51 15.5t20 41.5t-20 41t-54 15q-46 0 -76 -15l-55 34l16 202h257v-79h-184l-7 -77q24 9 68 9
q63 0 103 -32.5t40 -93.5q0 -65 -44 -103.5t-117 -38.5z" />
    <glyph glyph-name="onesixth.alt" horiz-adv-x="945" 
d="M367 323h-296v76h110v242l-94 -36l-25 73l141 55h65v-334h99v-76zM199 0l264 381l230 347h84l-264 -381l-230 -347h-84zM744 -10q-69 0 -110 41q-53 53 -53 159v2q0 104 46 164t133 60q68 0 122 -40l-42 -71q-37 31 -82 31q-35 0 -58 -26t-27 -70q39 24 87 24
q58 0 97 -34t39 -96q0 -65 -42.5 -104.5t-109.5 -39.5zM742 64q30 0 49.5 18t19.5 47q0 30 -18.5 47.5t-50.5 17.5q-33 0 -52 -17t-19 -48v-1q0 -28 21 -46.5t50 -17.5z" />
    <glyph glyph-name="oneeighth.alt" horiz-adv-x="945" 
d="M367 323h-296v76h110v242l-94 -36l-25 73l141 55h65v-334h99v-76zM199 0l264 381l230 347h84l-264 -381l-230 -347h-84zM742 -10q-70 0 -113 32.5t-43 88.5q0 69 65 100q-55 31 -55 92q0 48 40.5 80.5t105.5 32.5t105 -32.5t40 -80.5q0 -59 -55 -92q66 -35 66 -99
q0 -57 -43.5 -89.5t-112.5 -32.5zM742 346q-28 0 -46 -14.5t-18 -37.5q0 -25 18 -40t46 -15t45.5 15t17.5 40q0 23 -17.5 37.5t-45.5 14.5zM742 173q-32 0 -53 -15.5t-21 -41.5t20 -42t54 -16q33 0 52.5 16t19.5 42t-20 41.5t-52 15.5z" />
    <glyph glyph-name="zero.tab" horiz-adv-x="630" 
d="M314 -12q-123 0 -195.5 99t-72.5 268v16q0 170 73 269.5t196 99.5q122 0 195.5 -99t73.5 -268v-16q0 -169 -74 -269t-196 -100zM314 610q-57 0 -89 -59.5t-32 -178.5v-15q0 -118 32.5 -178.5t89.5 -60.5t89.5 60t32.5 178v15q0 118 -33 178.5t-90 60.5z" />
    <glyph glyph-name="one.tab" horiz-adv-x="630" 
d="M587 0h-508v124h191v453l-168 -62l-36 125l247 93h103v-609h171v-124z" />
    <glyph glyph-name="two.tab" horiz-adv-x="630" 
d="M570 0h-518v120l236 208q69 62 95.5 99t26.5 79q0 45 -28.5 70.5t-74.5 25.5q-43 0 -77.5 -23.5t-76.5 -76.5l-101 90q55 76 115 111t150 35q113 0 180 -60t67 -159v-2q0 -72 -32 -122.5t-102 -112.5l-171 -150h311v-132z" />
    <glyph glyph-name="three.tab" horiz-adv-x="630" 
d="M308 -12q-161 0 -273 110l94 110q89 -84 181 -84q48 0 80 26t32 69v2q0 46 -37.5 70t-107.5 24h-69l-27 94l191 188h-298v131h486v-118l-196 -187q92 -10 150 -56.5t58 -138.5v-3q0 -104 -72.5 -170.5t-191.5 -66.5z" />
    <glyph glyph-name="three.tab_alt" horiz-adv-x="630" 
d="M314 -12q-164 0 -273 119l98 99q79 -84 181 -84q52 0 82 25.5t30 69.5t-37 66.5t-105 22.5h-76v124h86q56 0 87.5 25t31.5 66q0 38 -29.5 61.5t-77.5 23.5q-50 0 -86 -21t-75 -64l-98 90q101 129 261 129q118 0 186.5 -54t68.5 -148q0 -108 -106 -163q57 -24 87.5 -63
t30.5 -107q0 -98 -73.5 -157.5t-193.5 -59.5z" />
    <glyph glyph-name="four.tab" horiz-adv-x="630" 
d="M376 0v153h-324l-25 140l317 439h171v-460h89v-119h-89v-153h-139zM378 270v303l-218 -303h218z" />
    <glyph glyph-name="five.tab" horiz-adv-x="630" 
d="M301 -12q-145 0 -264 100l84 113q100 -80 183 -80q57 0 91.5 28t34.5 79v3q0 48 -35 75.5t-99 27.5t-128 -27l-89 58l24 363h442v-134h-318l-10 -145q48 14 104 14q111 0 184 -57t73 -170v-2q0 -111 -77 -178.5t-200 -67.5z" />
    <glyph glyph-name="six.tab" horiz-adv-x="630" 
d="M350 471q98 0 164 -60t66 -168v-4q0 -110 -73.5 -180.5t-183.5 -70.5q-114 0 -184 68q-43 43 -64.5 108t-21.5 176v4q0 185 75 290.5t222 105.5q119 0 202 -70l-67 -118q-73 53 -138 53q-39 0 -67.5 -17.5t-44 -46.5t-23 -57.5t-9.5 -60.5h1q60 48 146 48zM317 114
q52 0 84.5 33t32.5 85v1q0 52 -32 84.5t-85 31.5q-54 0 -85.5 -32t-31.5 -85v-1q0 -51 33 -84.5t84 -32.5z" />
    <glyph glyph-name="seven.tab" horiz-adv-x="630" 
d="M408 592h-340v136h511v-118l-311 -610h-170z" />
    <glyph glyph-name="eight.tab" horiz-adv-x="630" 
d="M315 -10q-116 0 -191 58t-75 151v3q0 124 114 176q-95 58 -95 160v2q0 85 69.5 141.5t177.5 56.5q107 0 176.5 -56.5t69.5 -141.5v-2q0 -102 -95 -160q57 -29 85.5 -69.5t28.5 -103.5v-2q0 -98 -74 -155.5t-191 -57.5zM315 428q46 0 75 26t29 69v2q0 39 -29 65t-75 26
q-47 0 -76 -25.5t-29 -64.5v-3q0 -41 29.5 -68t75.5 -27zM315 112q56 0 88 27.5t32 71.5v2q0 45 -33.5 71t-86.5 26q-54 0 -87.5 -26t-33.5 -71v-2q0 -44 32 -71.5t89 -27.5z" />
    <glyph glyph-name="nine.tab" horiz-adv-x="630" 
d="M313 614q-52 0 -84.5 -34t-32.5 -87v-1q0 -54 32 -87t85 -32q54 0 85.5 33t31.5 87v1q0 53 -33 87t-84 33zM280 250q-97 0 -163.5 61.5t-66.5 170.5v4q0 112 73.5 183t183.5 71q114 0 184 -68q43 -43 64.5 -108t21.5 -176v-4q0 -185 -75 -290.5t-222 -105.5
q-124 0 -213 74l68 119q80 -58 148 -58q49 0 82 30t45 66t16 79h-1q-58 -48 -145 -48z" />
    <glyph glyph-name="dollar.tab" horiz-adv-x="630" 
d="M205 528q0 -28 19 -48.5t67 -36.5l21 171h-1q-51 0 -79 -23.5t-27 -61.5v-1zM447 203q0 56 -85 86l-21 -174h1q50 2 78 24t27 63v1zM431 811l-12 -92q79 -17 148 -62l-56 -111q-61 38 -112 54l-21 -180q102 -30 151.5 -80t49.5 -127v-1q0 -98 -68 -155.5t-179 -58.5v-1
l-16 -120h-99l16 131q-102 21 -194 87l63 109q74 -56 150 -78l23 187q-105 31 -153.5 78.5t-48.5 125.5v1q0 97 69 155t178 57h1l10 81h100z" />
    <glyph glyph-name="sterling.tab" horiz-adv-x="630" 
d="M134 407v84q0 118 67 184q63 63 173 63q133 0 210 -102l-100 -98q-49 61 -107 61q-39 0 -65 -26q-27 -27 -27 -83v-83h222v-124h-222v-153h297v-130h-523v97l75 26v160h-74v124h74z" />
    <glyph glyph-name="Euro.tab" horiz-adv-x="630" 
d="M607 93q-90 -105 -219 -105q-102 0 -174 64.5t-98 178.5h-82v97h71v38q0 25 1 38h-72v98h84q29 110 102.5 174t177.5 64q125 0 204 -93l-85 -101q-57 64 -121 64q-94 0 -129 -108h173v-98h-189q-1 -12 -1 -36v-6q0 -23 1 -34h189v-97h-176q17 -55 51 -84t79 -29
q38 0 66.5 16.5t59.5 50.5z" />
    <glyph glyph-name="yen.tab" horiz-adv-x="630" 
d="M82 196h162v78h-162v98h138l-210 356h163l144 -269l144 269h159l-211 -356h139v-98h-161v-78h161v-99h-161v-97h-143v97h-162v99z" />
    <glyph glyph-name="cent.tab" horiz-adv-x="630" 
d="M200 361q0 -100 78 -138l61 307h-1q-60 -4 -99.5 -49t-38.5 -118v-2zM478 734l-20 -99q64 -21 114 -78l-81 -90q-32 34 -61 47l-60 -305h1q63 7 122 64l79 -80q-89 -101 -219 -104h-1l-19 -95h-105l22 110q-83 28 -134 97t-51 162v2q0 122 81 203.5t205 81.5h6l17 84h104
z" />
    <glyph glyph-name="numbersign.tab" horiz-adv-x="630" 
d="M260 453l-25 -174h134l25 174h-134zM33 283h90l25 166h-84v122h102l23 157h115l-23 -157h127l24 157h115l-23 -157h73v-122h-91l-25 -166h85v-122h-103l-23 -161h-115l23 161h-127l-24 -161h-115l23 161h-72v122z" />
    <glyph glyph-name="paragraph.tab" horiz-adv-x="630" 
d="M379 0v242h-29q-136 0 -219.5 62.5t-83.5 179.5v1q0 112 79 178t208 65h198v-728h-153z" />
    <glyph glyph-name="section.tab" horiz-adv-x="630" 
d="M234 432q-25 0 -40 -12t-15 -33v-1q0 -21 21 -34.5t74 -27.5q97 -28 122 -28t40 12t15 33v1q0 21 -21 34.5t-74 27.5q-97 28 -122 28zM319 -10q-138 0 -227 84l73 90q76 -64 152 -64q63 0 63 41v1q0 18 -23 32t-94 34q-119 34 -165.5 66.5t-46.5 89.5v1q0 46 29.5 76
t79.5 43q-49 42 -49 104v1q0 62 55.5 106t144.5 43q138 0 227 -84l-73 -90q-76 64 -152 64q-63 0 -63 -41v-1q0 -18 23 -32t94 -34q119 -34 165.5 -66.5t46.5 -89.5v-1q0 -46 -29.5 -76t-79.5 -43q49 -42 49 -104v-1q0 -62 -55.5 -106t-144.5 -43z" />
    <glyph glyph-name="degree.tab" horiz-adv-x="630" 
d="M314 311q-88 0 -152.5 63t-64.5 151v1q0 86 65.5 149.5t153.5 62.5q88 0 152.5 -63t64.5 -150v-1q0 -87 -65.5 -150.5t-153.5 -62.5zM316 395q56 0 91.5 37.5t35.5 92.5v1q0 53 -36.5 91t-92.5 37q-56 0 -91.5 -37.5t-35.5 -91.5v-1q0 -54 36.5 -92t92.5 -37z" />
    <glyph glyph-name="percent.tab" horiz-adv-x="630" 
d="M154 734q56 0 90.5 -50.5t34.5 -136.5v-10q0 -86 -34.5 -136.5t-90.5 -50.5q-55 0 -89.5 50.5t-34.5 136.5v10q0 86 34.5 136.5t89.5 50.5zM456 728h78l-197 -377l-163 -351h-78l197 377zM154 654q-41 0 -41 -103v-18q0 -103 41 -103q42 0 42 103v18q0 103 -42 103z
M476 378q55 0 89.5 -50.5t34.5 -136.5v-10q0 -86 -34.5 -136.5t-89.5 -50.5q-56 0 -90.5 50.5t-34.5 136.5v10q0 86 34.5 136.5t90.5 50.5zM476 298q-42 0 -42 -103v-18q0 -103 42 -103q41 0 41 103v18q0 103 -41 103z" />
    <glyph glyph-name="quotedbl.tab" horiz-adv-x="630" 
d="M99 400l41 328h168v-5l-132 -323h-77zM352 400l41 328h169v-5l-133 -323h-77z" />
    <glyph glyph-name="quotesingle.tab" horiz-adv-x="315" 
d="M67 400l42 328h170v-5l-132 -323h-80z" />
    <glyph glyph-name="period.tab" horiz-adv-x="315" 
d="M74 0v166h168v-166h-168z" />
    <glyph glyph-name="comma.tab" horiz-adv-x="315" 
d="M53 -165l-13 63q107 12 99 102h-65v166h168v-141q0 -97 -48 -142.5t-141 -47.5z" />
    <glyph glyph-name="colon.tab" horiz-adv-x="315" 
d="M76 393v163h164v-163h-164zM76 0v162h164v-162h-164z" />
    <glyph glyph-name="semicolon.tab" horiz-adv-x="315" 
d="M76 393v163h164v-163h-164zM53 -165l-13 63q107 12 99 102h-63v162h164v-137q0 -97 -47 -142.5t-140 -47.5z" />
    <glyph glyph-name="twodotleader.tab" horiz-adv-x="630" 
d="M79 0v158h160v-158h-160zM391 0v158h160v-158h-160z" />
    <glyph glyph-name="periodcentered.tab" horiz-adv-x="315" 
d="M74 238v167h168v-167h-168z" />
    <glyph glyph-name="slash.tab" horiz-adv-x="630" 
d="M624 830l-504 -963h-129l504 963h129z" />
    <glyph glyph-name="bar.tab" horiz-adv-x="315" 
d="M98 -133v963h120v-963h-120z" />
    <glyph glyph-name="underscore.tab" horiz-adv-x="630" 
d="M1 -166v116h628v-116h-628z" />
    <glyph glyph-name="plus.tab" horiz-adv-x="630" 
d="M566 300l-184 1l1 -186h-136l1 186l-184 -1v132l184 -1l-1 186h136l-1 -186l184 1v-132z" />
    <glyph glyph-name="minus.tab" horiz-adv-x="630" 
d="M566 296h-502v140h502v-140z" />
    <glyph glyph-name="divide.tab" horiz-adv-x="630" 
d="M236 515v146h158v-146h-158zM566 302h-502v128h502v-128zM236 71v146h158v-146h-158z" />
    <glyph glyph-name="equal.tab" horiz-adv-x="630" 
d="M549 430h-468v133h468v-133zM549 169h-468v133h468v-133z" />
    <glyph glyph-name="multiply.tab" horiz-adv-x="630" 
d="M467 119l-153 157l-153 -157l-93 93l157 153l-157 153l95 95l153 -157l153 157l93 -93l-157 -153l157 -153z" />
    <glyph glyph-name="less.tab" horiz-adv-x="630" 
d="M542 76l-473 221v138l473 221v-142l-333 -147l333 -147v-144z" />
    <glyph glyph-name="greater.tab" horiz-adv-x="630" 
d="M561 297l-473 -221v142l333 147l-333 147v144l473 -221v-138z" />
    <glyph glyph-name="plusminus.tab" horiz-adv-x="630" 
d="M566 393l-184 1l1 -181h-136l1 181l-184 -1v132l184 -1l-1 181h136l-1 -181l184 1v-132zM566 0h-502v126h502v-126z" />
    <glyph glyph-name="R_p" horiz-adv-x="1265" 
d="M226 370h120q56 0 88 29.5t32 81.5v4q0 111 -123 111h-117v-226zM970 114q49 0 81 43t32 115v12q0 72 -32.5 115.5t-80.5 43.5t-81 -44t-33 -115v-12q0 -71 33 -114.5t81 -43.5zM83 0v728h269q121 0 190.5 -62t69.5 -175v-4q0 -156 -139 -215l158 -272h-165l-138 243
h-102v-243h-143zM716 -166v722h142v-79q62 90 153 90q90 0 152 -73t62 -208v-16q0 -134 -61.5 -207t-152.5 -73q-90 0 -153 84v-240h-142z" />
    <glyph glyph-name="hcoslug" horiz-adv-x="694" 
d="M644 700v-800h-594v800h594zM247 428q0 13 7.5 21t19.5 8q13 0 21 -10.5t8 -27.5q0 -22 -18 -50q-15 14 -21 20.5t-11.5 17t-5.5 21.5zM312 342q30 20 42 34q29 -29 -1 -80q-33 38 -41 46zM261 219q-22 0 -37 15.5t-15 38.5q0 24 16 40q34 -32 74 -82q-15 -12 -38 -12z
M382 264q20 26 46 42q15 -25 43 -25q21 0 35.5 15.5t14.5 38.5t-14.5 37.5t-35.5 14.5q-35 0 -60 -38q-3 39 -49 37q9 15 9 34q0 29 -25.5 51.5t-69.5 22.5q-48 0 -78.5 -25.5t-30.5 -59.5q0 -37 31 -69q-82 -28 -82 -91q0 -39 32 -66t77 -27q63 0 104 45q44 -45 85 -45
q33 0 56 25.5t24 68.5l-7 2q-17 -29 -43 -29q-27 0 -62 41zM286 124l-12 -2v-9h-7v-7h7v-20q0 -13 12 -13q11 0 14 13l-5 2q-1 -7 -5 -7t-4 5v20h13v7h-13v11zM174 94q0 -21 21 -21q9 0 15 6t6 15q0 20 -21 20t-21 -20zM203 94q0 -16 -8 -16t-8 16q0 15 8 15t8 -15zM219 81
v-7h22v7h-4v15q0 10 7 10q6 0 6 -7v-18h-4v-7h22v7h-6v19q0 14 -12 14q-9 0 -14 -11v10h-17v-7h6v-25h-6zM379 93q0 -13 -7 -13q-8 0 -8 13t8 13q7 0 7 -13zM125 81v-7h30v7h-10v16h4q5 0 6 -8h7v23h-7q-1 -8 -6 -8h-4v18h12q9 0 11 -13h8v20h-51v-7h7v-41h-7zM302 88v-14h7
l1 4q7 -5 13 -5q14 0 14 13q0 9 -12 12t-12 6q0 4 5 4t10 -7h7v13h-6l-2 -5q-3 5 -11 5q-14 0 -14 -12q0 -9 12 -12.5t12 -6.5q0 -4 -5 -4q-6 0 -12 9h-7zM352 125v-52h6l4 8q5 -8 14 -8q16 0 16 21q0 20 -15 20q-10 0 -13 -9v27h-18v-7h6zM405 65q3 2 1.5 6t-6.5 4
q-7 0 -7 -7q0 -9 11 -9q12 0 18 16l13 31h5v7h-17v-7h5l-8 -20l-9 20h6v7h-25v-7h5q12 -23 16 -33q-2 -8 -8 -8zM294 39v3q0 12 6 12l3 -1q-1 -1 -1 -3q0 -6 6 -6v-5h-14zM464 33h-18v-7h6q-2 -5 -6 -9q-2 2 -5.5 6t-6.5 7q11 5 11 12q0 12 -14 12q-17 0 -17 -14q0 -6 6 -12
q-13 -4 -13 -15q0 -14 18 -14q9 0 15 6q5 -6 12 -6q10 0 13 12l-5 1q-1 -5 -4 -5t-6 5q6 8 9 14h5v7zM469 27q0 -28 29 -28q22 0 24 23h-8q-2 -16 -14 -16q-16 0 -16 22t14 22q10 0 15 -16h8v22h-8l-1 -6q-7 7 -16 7q-11 0 -19 -8.5t-8 -21.5zM431 33q-6 6 -6 10q0 5 5 5
q6 0 6 -6t-5 -9zM340 18h26q2 22 -19 22q-8 0 -14 -6t-6 -15q0 -20 21 -20q14 0 18 14h-7q-1 -7 -9 -7q-10 0 -10 12zM525 20q0 -21 21 -21q9 0 15 6t6 15q0 20 -21 20t-21 -20zM189 20q0 -21 21 -21q9 0 15 6t6 15q0 20 -21 20t-21 -20zM247 18h26q2 22 -19 22q-8 0 -14 -6
t-6 -15q0 -20 21 -20q15 0 18 14h-7q-1 -7 -9 -7q-10 0 -10 12zM340 23q0 12 7 12t7 -12h-14zM554 20q0 -16 -8 -16t-8 16q0 15 8 15t8 -15zM218 20q0 -16 -8 -16t-8 16q0 15 8 15t8 -15zM247 23q0 12 7 12t7 -12h-14zM368 7v-7h26v7h-8v16q4 9 7 9v-1q0 -6 6 -6q7 0 7 7
q0 8 -8 8t-12 -11v10h-18v-7h6v-25h-6zM276 7v-7h23v7h-5v25h14v-25h-5v-7h23v7h-6v52l-10 -2q-4 2 -9 2q-19 0 -19 -19v-1h-7v-7h7v-25h-6zM124 7v-7h29v7h-8v18h22v-18h-8v-7h29v7h-8v41h8v7h-29v-7h8v-16h-22v16h8v7h-29v-7h8v-41h-8zM437 9q-5 -3 -8 -3q-10 0 -10 10
q0 5 4 9q4 -4 14 -16zM583 6q0 7 -7 7t-7 -7t7 -7t7 7z" />
    <glyph glyph-name="space.tab" horiz-adv-x="315" 
 />
    <glyph glyph-name="NUL" horiz-adv-x="0" 
 />
    <glyph glyph-name="caron.alt" horiz-adv-x="528" 
d="M212 615l11 213h110v-3l-61 -210h-60z" />
    <glyph glyph-name="descendercyrillic" horiz-adv-x="528" 
d="M192 11h100q48 -46 48 -90q0 -43 -36.5 -68.5t-102.5 -25.5q-22 0 -46 3v67h4q71 -3 71 43q0 32 -38 71z" />
    <glyph glyph-name="acute.cap" horiz-adv-x="528" 
d="M155 786l124 161l132 -58l-140 -103h-116z" />
    <glyph glyph-name="hungarumlaut.cap" horiz-adv-x="528" 
d="M238 786l124 161l127 -58l-139 -103h-112zM44 786l124 161l127 -58l-140 -103h-111z" />
    <glyph glyph-name="grave.cap" horiz-adv-x="528" 
d="M371 786h-116l-140 103l132 58z" />
    <glyph glyph-name="circumflex.cap" horiz-adv-x="528" 
d="M61 786l131 150h144l131 -150h-122l-82 58l-82 -58h-120z" />
    <glyph glyph-name="caron.cap" horiz-adv-x="528" 
d="M467 936l-131 -150h-144l-131 150h122l82 -58l82 58h120z" />
    <glyph glyph-name="breve.cap" horiz-adv-x="528" 
d="M264 784q-82 0 -134.5 40t-59.5 112h104q20 -52 90 -52t90 52h104q-7 -72 -59.5 -112t-134.5 -40z" />
    <glyph glyph-name="tilde.cap" horiz-adv-x="528" 
d="M351 786q-39 0 -99 24q-44 16 -61 16q-23 0 -35.5 -11.5t-24.5 -39.5l-82 26q19 70 48.5 105t79.5 35q39 0 99 -24q47 -17 61 -17q22 0 35 12t25 39l81 -25q-19 -70 -48 -105t-79 -35z" />
    <glyph glyph-name="macron.cap" horiz-adv-x="528" 
d="M69 792v108h390v-108h-390z" />
    <glyph glyph-name="dieresis.cap" horiz-adv-x="528" 
d="M78 786v129h148v-129h-148zM302 786v129h148v-129h-148z" />
    <glyph glyph-name="dotaccent.cap" horiz-adv-x="528" 
d="M188 786v129h152v-129h-152z" />
    <glyph glyph-name="ring.cap" horiz-adv-x="528" 
d="M264 784q-53 0 -90.5 32t-37.5 81t37.5 81.5t90.5 32.5t90.5 -32.5t37.5 -81.5t-37.5 -81t-90.5 -32zM264 839q29 0 47.5 16.5t18.5 41.5t-18.5 42t-47.5 17t-47.5 -17t-18.5 -42t18.5 -41.5t47.5 -16.5z" />
    <glyph glyph-name="uni0384.cap" horiz-adv-x="528" 
d="M188 512l11 216h146l-79 -216h-78z" />
    <glyph glyph-name="commaaccent.rot" horiz-adv-x="528" 
d="M339 856l8 -46q-41 -5 -60.5 -23.5t-17.5 -50.5h65v-117h-140v98q0 71 36 104t109 35z" />
    <glyph glyph-name="acute.altlc" horiz-adv-x="528" 
d="M158 893l122 151l130 -58l-140 -93h-112z" />
    <glyph glyph-name="acute.altuc" horiz-adv-x="528" 
d="M154 915l130 141l131 -58l-145 -83h-116z" />
    <glyph glyph-name="caron.alt.cap" horiz-adv-x="528" 
d="M212 615l11 213h110v-3l-61 -210h-60z" />
    <glyph glyph-name="cedilla.cap" horiz-adv-x="528" 
d="M257 -178l-128 53l100 145h109z" />
    <glyph glyph-name="commaaccent.cap" horiz-adv-x="528" 
d="M189 -299l-8 46q40 4 60 23t18 51h-65v117h140v-99q0 -71 -36 -103.5t-109 -34.5z" />
    <glyph glyph-name="ogonek.cap" horiz-adv-x="528" 
d="M372 -103v-68q-16 -2 -44 -2q-65 0 -102 25t-37 64q0 42 46 95l101 -1q-37 -38 -37 -70q0 -45 73 -43z" />
    <glyph glyph-name="uni0385.cap" horiz-adv-x="528" 
d="M194 619l48 213l122 -27l-87 -186h-83zM38 619v135h129v-135h-129zM361 619v135h129v-135h-129z" />
    </font>
</defs>
</svg>
