<?xml version="1.0" standalone="no"?>
<!DOCTYPE svg PUBLIC "-//W3C//DTD SVG 1.1//EN" "http://www.w3.org/Graphics/SVG/1.1/DTD/svg11.dtd" >
<svg xmlns="http://www.w3.org/2000/svg" xmlns:xlink="http://www.w3.org/1999/xlink" version="1.1">
<metadata>
Created by FontForge 20161003 at Mon Dec 12 11:04:23 2016
 By www-data
Copyright (C) 2010, 2014 Hoefler &#38; Co. http://www.typography.com/
</metadata>
<defs>
<font id="GothamSSmBook" horiz-adv-x="420" >
  <font-face 
    font-family="GothamSSmBook"
    font-weight="325"
    font-stretch="normal"
    units-per-em="1000"
    panose-1="0 0 0 0 0 0 0 0 0 0"
    ascent="800"
    descent="-200"
    x-height="541"
    cap-height="728"
    bbox="-222 -264 1216 1038"
    underline-thickness="50"
    underline-position="-150"
    unicode-range="U+0020-FB04"
  />
<missing-glyph horiz-adv-x="500" 
d="M0 -200v1000h500v-1000h-500zM71 750l179 -390l179 390h-358zM450 676l-172 -376l172 -376v752zM50 -76l172 376l-172 376v-752zM250 240l-179 -390h358z" />
    <glyph glyph-name="f_f" unicode="ff" horiz-adv-x="778" 
d="M505 0v459h-73v80h73v45q0 92 46 138q44 42 118 42q52 0 92 -14v-81q-42 14 -76 14q-87 0 -87 -105v-39h162v-80h-161v-459h-94zM120 0v459h-73v80h73v45q0 92 46 138q44 42 118 42q52 0 92 -14v-81q-42 14 -76 14q-87 0 -87 -105v-39h162v-80h-161v-459h-94z" />
    <glyph glyph-name="fi" unicode="fi" horiz-adv-x="674" 
d="M477 649v98h105v-98h-105zM120 0v459h-73v80h73v45q0 92 46 138q44 42 118 42q52 0 92 -14v-81q-42 14 -76 14q-87 0 -87 -105v-39h162v-80h-161v-459h-94zM483 0v541h93v-541h-93z" />
    <glyph glyph-name="fl" unicode="fl" horiz-adv-x="674" 
d="M482 0v759h93v-759h-93zM120 0v459h-73v80h73v45q0 92 46 138q44 42 118 42q52 0 92 -14v-81q-42 14 -76 14q-87 0 -87 -105v-39h162v-80h-161v-459h-94z" />
    <glyph glyph-name="f_f_i" unicode="ffi" horiz-adv-x="1059" 
d="M861 649v98h105v-98h-105zM505 0v459h-73v80h73v45q0 92 46 138q44 42 118 42q52 0 92 -14v-81q-42 14 -76 14q-87 0 -87 -105v-39h162v-80h-161v-459h-94zM120 0v459h-73v80h73v45q0 92 46 138q44 42 118 42q52 0 92 -14v-81q-42 14 -76 14q-87 0 -87 -105v-39h162v-80
h-161v-459h-94zM867 0v541h93v-541h-93z" />
    <glyph glyph-name="f_f_l" unicode="ffl" horiz-adv-x="1059" 
d="M867 0v759h93v-759h-93zM505 0v459h-73v80h73v45q0 92 46 138q44 42 118 42q52 0 92 -14v-81q-42 14 -76 14q-87 0 -87 -105v-39h162v-80h-161v-459h-94zM120 0v459h-73v80h73v45q0 92 46 138q44 42 118 42q52 0 92 -14v-81q-42 14 -76 14q-87 0 -87 -105v-39h162v-80
h-161v-459h-94z" />
    <glyph glyph-name=".notdef" horiz-adv-x="500" 
d="M0 -200v1000h500v-1000h-500zM71 750l179 -390l179 390h-358zM450 676l-172 -376l172 -376v752zM50 -76l172 376l-172 376v-752zM250 240l-179 -390h358z" />
    <glyph glyph-name=".null" horiz-adv-x="0" 
 />
    <glyph glyph-name="nonmarkingreturn" horiz-adv-x="333" 
 />
    <glyph glyph-name="space" unicode=" " horiz-adv-x="320" 
 />
    <glyph glyph-name="exclam" unicode="!" horiz-adv-x="300" 
d="M124 213l-29 463v52h110v-52l-29 -463h-52zM96 0v120h108v-120h-108z" />
    <glyph glyph-name="quotedbl" unicode="&#x22;" horiz-adv-x="480" 
d="M70 437l29 291h111v-5l-90 -286h-50zM281 437l29 291h110v-5l-89 -286h-50z" />
    <glyph glyph-name="numbersign" unicode="#" horiz-adv-x="736" 
d="M290 472l-36 -212h192l36 212h-192zM647 262v-83h-132l-30 -179h-85l30 179h-189l-31 -179h-85l30 179h-106v83h121l35 208h-116v83h131l30 175h85l-30 -175h189l31 175h84l-30 -175h107v-83h-121l-36 -208h118z" />
    <glyph glyph-name="dollar" unicode="$" horiz-adv-x="671" 
d="M180 539q0 -44 27 -70.5t102 -48.5v228q-60 -4 -94.5 -34t-34.5 -74v-1zM508 193q0 45 -28.5 71.5t-103.5 46.5v-231q62 5 97.5 35t34.5 77v1zM577 644l-49 -73q-73 58 -152 72v-239q118 -28 172 -76.5t53 -128.5v-1q0 -84 -61 -137t-161 -60v-103h-73v104
q-134 13 -246 106l53 72q94 -83 196 -97v244q-117 28 -170 76t-52 130v1q0 81 61 135t158 59v60h73v-62q103 -11 198 -82z" />
    <glyph glyph-name="percent" unicode="%" horiz-adv-x="880" 
d="M223 364q-73 0 -119.5 54t-46.5 130v2q0 77 47 131.5t121 54.5q72 0 119 -54t47 -130v-2q0 -76 -47.5 -131t-120.5 -55zM414 381l251 347h83l-283 -383l-250 -345h-83zM223 672q-40 0 -65 -35t-25 -85v-2q0 -52 26.5 -86.5t65.5 -34.5q40 0 65 34.5t25 84.5v2
q0 51 -27 86.5t-65 35.5zM655 -8q-73 0 -119.5 54t-46.5 130v2q0 77 47.5 131.5t120.5 54.5t119.5 -54t46.5 -130v-2q0 -77 -47 -131.5t-121 -54.5zM657 56q40 0 65 34.5t25 85.5v2q0 51 -26.5 86t-65.5 35q-40 0 -65 -34.5t-25 -84.5v-2q0 -52 27 -87t65 -35z" />
    <glyph glyph-name="ampersand" unicode="&#x26;" horiz-adv-x="732" 
d="M623 -15l-109 113q-103 -108 -233 -108q-101 0 -166.5 57t-65.5 148v2q0 141 169 208q-69 82 -69 158v2q0 74 55 124.5t143 50.5q79 0 130.5 -48.5t51.5 -119.5v-2q0 -128 -168 -189l153 -156q43 63 85 156l76 -38q-53 -112 -103 -178l124 -125zM308 435q133 44 133 130
v2q0 42 -27.5 69t-69.5 27q-45 0 -74.5 -28.5t-29.5 -71.5v-2q0 -30 15 -57.5t53 -68.5zM289 70q88 0 168 85l-184 190q-64 -24 -95.5 -62t-31.5 -82v-3q0 -55 40 -91.5t103 -36.5z" />
    <glyph glyph-name="quotesingle" unicode="'" horiz-adv-x="270" 
d="M70 437l29 291h112v-5l-90 -286h-51z" />
    <glyph glyph-name="parenleft" unicode="(" horiz-adv-x="461" 
d="M361 -147q-288 161 -288 445v1q0 286 288 445l41 -63q-118 -76 -176 -169t-58 -214v-1q0 -232 234 -381z" />
    <glyph glyph-name="parenright" unicode=")" horiz-adv-x="461" 
d="M101 -147l-41 63q117 76 175 169t58 213v1q0 232 -233 382l41 63q288 -161 288 -446v-1q0 -141 -73.5 -253.5t-214.5 -190.5z" />
    <glyph glyph-name="asterisk" unicode="*" horiz-adv-x="455" 
d="M197 408l13 129l-107 -75l-31 53l120 54l-120 55l31 53l107 -76l-13 129h61l-13 -129l107 76l31 -53l-120 -55l120 -54l-31 -53l-107 75l13 -129h-61z" />
    <glyph glyph-name="plus" unicode="+" horiz-adv-x="661" 
d="M285 113v209h-210v88h210v209h91v-209h210v-88h-210v-209h-91z" />
    <glyph glyph-name="comma" unicode="," horiz-adv-x="270" 
d="M61 -134l-13 42q82 24 76 92h-43v120h109v-103q0 -69 -31.5 -104.5t-97.5 -46.5z" />
    <glyph glyph-name="hyphen" unicode="-" horiz-adv-x="432" 
d="M68 266v96h296v-96h-296z" />
    <glyph glyph-name="period" unicode="." horiz-adv-x="270" 
d="M81 0v120h109v-120h-109z" />
    <glyph glyph-name="slash" unicode="/" horiz-adv-x="540" 
d="M-19 -133l479 963h84l-479 -963h-84z" />
    <glyph glyph-name="zero" unicode="0" horiz-adv-x="755" 
d="M376 -12q-138 0 -223.5 108t-85.5 266v2q0 158 86.5 267t224.5 109t224 -108t86 -266v-2q0 -158 -86.5 -267t-225.5 -109zM378 75q95 0 152.5 83.5t57.5 203.5v2q0 120 -59 204.5t-153 84.5t-152 -83.5t-58 -203.5v-2q0 -119 59 -204t153 -85z" />
    <glyph glyph-name="one" unicode="1" horiz-adv-x="393" 
d="M190 0v635l-135 -42l-22 78l183 62h69v-733h-95z" />
    <glyph glyph-name="two" unicode="2" horiz-adv-x="635" 
d="M54 0v75l260 227q82 72 114.5 119.5t32.5 99.5q0 59 -39.5 95t-98.5 36q-56 0 -98.5 -29t-88.5 -91l-69 52q54 79 113 116.5t151 37.5q101 0 165.5 -59t64.5 -150v-2q0 -53 -21.5 -98.5t-58 -84.5t-106.5 -100l-181 -157h374v-87h-514z" />
    <glyph glyph-name="three" unicode="3" horiz-adv-x="647" 
d="M327 -12q-171 0 -273 128l69 63q85 -105 206 -105q63 0 106 37t43 95v2q0 63 -53 97.5t-140 34.5h-50l-18 59l219 244h-343v85h470v-71l-221 -240q101 -9 167 -60t66 -145v-2q0 -97 -70.5 -159.5t-177.5 -62.5z" />
    <glyph glyph-name="four" unicode="4" horiz-adv-x="709" 
d="M447 0v170h-379l-21 69l409 494h84v-483h110v-80h-110v-170h-93zM161 250h286v349z" />
    <glyph glyph-name="five" unicode="5" horiz-adv-x="648" 
d="M319 -12q-146 0 -262 114l62 69q101 -96 201 -96q74 0 120 42t46 108v2q0 64 -48 103.5t-124 39.5q-73 0 -147 -38l-62 41l21 355h424v-87h-340l-14 -214q71 29 135 29q109 0 180 -60.5t71 -164.5v-2q0 -108 -73 -174.5t-190 -66.5z" />
    <glyph glyph-name="six" unicode="6" horiz-adv-x="684" 
d="M352 -12q-120 0 -196 74q-45 46 -67.5 110.5t-22.5 170.5v2q0 172 81.5 283.5t224.5 111.5q114 0 217 -82l-54 -75q-82 70 -168 70q-65 0 -112.5 -43t-68.5 -107.5t-21 -140.5v-5q73 102 198 102q106 0 179.5 -62t73.5 -163v-2q0 -106 -75.5 -175t-188.5 -69zM352 72
q75 0 120.5 44.5t45.5 111.5v2q0 64 -47 105.5t-122 41.5q-76 0 -124 -44.5t-48 -105.5v-2q0 -66 49 -109.5t126 -43.5z" />
    <glyph glyph-name="seven" unicode="7" horiz-adv-x="632" 
d="M136 0l329 641h-390v87h499v-72l-330 -656h-108z" />
    <glyph glyph-name="eight" unicode="8" horiz-adv-x="663" 
d="M332 -10q-119 0 -197 57.5t-78 149.5v2q0 124 144 178q-119 56 -119 165v2q0 84 73 139t177 55t176.5 -55t72.5 -139v-2q0 -109 -119 -165q144 -58 144 -177v-2q0 -93 -77.5 -150.5t-196.5 -57.5zM332 410q66 0 110.5 35t44.5 90v2q0 50 -44.5 84.5t-110.5 34.5
q-67 0 -111.5 -34t-44.5 -84v-2q0 -55 44.5 -90.5t111.5 -35.5zM332 72q81 0 129.5 37t48.5 91v2q0 57 -51 93.5t-127 36.5q-77 0 -128 -36.5t-51 -93.5v-2q0 -54 48.5 -91t130.5 -37z" />
    <glyph glyph-name="nine" unicode="9" horiz-adv-x="684" 
d="M335 344q77 0 124.5 46t47.5 109v2q0 66 -49 110.5t-127 44.5q-75 0 -120 -46.5t-45 -113.5v-2q0 -66 47 -108t122 -42zM315 75q65 0 113 42.5t69.5 105t21.5 134.5v10q-72 -105 -196 -105q-113 0 -184 63.5t-71 164.5v2q0 106 74.5 177t190.5 71q120 0 195 -75
q90 -90 90 -281v-2q0 -175 -84 -284.5t-222 -109.5q-122 0 -227 88l54 74q87 -75 176 -75z" />
    <glyph glyph-name="colon" unicode=":" horiz-adv-x="281" 
d="M86 422v119h109v-119h-109zM86 0v120h109v-120h-109z" />
    <glyph glyph-name="semicolon" unicode=";" horiz-adv-x="281" 
d="M86 422v119h109v-119h-109zM66 -134l-13 42q82 23 76 92h-43v120h109v-103q0 -69 -31.5 -104.5t-97.5 -46.5z" />
    <glyph glyph-name="less" unicode="&#x3c;" horiz-adv-x="661" 
d="M562 86l-490 239v82l490 239v-93l-392 -186l392 -187v-94z" />
    <glyph glyph-name="equal" unicode="=" horiz-adv-x="661" 
d="M86 446v89h489v-89h-489zM86 197v89h489v-89h-489z" />
    <glyph glyph-name="greater" unicode="&#x3e;" horiz-adv-x="661" 
d="M99 86v93l392 186l-392 188v93l491 -239v-82z" />
    <glyph glyph-name="question" unicode="?" horiz-adv-x="568" 
d="M229 213l-18 169l5 5q100 3 151.5 39t51.5 99v2q0 54 -38.5 88.5t-103.5 34.5q-102 0 -183 -93l-60 61q99 119 246 119q106 0 171 -57.5t65 -149.5v-3q0 -92 -59.5 -144t-155.5 -66l-10 -104h-62zM205 0v120h108v-120h-108z" />
    <glyph glyph-name="at" unicode="@" horiz-adv-x="1027" 
d="M523 -168q-130 0 -237 61t-167 165t-60 227q0 188 133 321.5t323 133.5q188 0 320.5 -123t132.5 -288q0 -125 -57.5 -190.5t-138.5 -65.5q-56 0 -94 22.5t-55 60.5q-74 -83 -168 -83q-79 0 -133 53t-54 138q0 108 73.5 184t165.5 76q99 0 150 -84l14 69l79 -12l-43 -243
q-7 -36 -7 -58q0 -38 23 -59.5t64 -21.5q59 0 100.5 55.5t41.5 158.5q0 147 -120.5 261t-293.5 114q-178 0 -297.5 -122.5t-119.5 -296.5q0 -176 120.5 -296.5t304.5 -120.5q138 0 258 70l18 -28q-129 -78 -276 -78zM474 145q61 0 106 47q56 54 56 133q0 55 -34 90.5
t-87 35.5q-60 0 -108 -48q-55 -55 -55 -134q0 -57 34 -90.5t88 -33.5z" />
    <glyph glyph-name="A" unicode="A" horiz-adv-x="830" 
d="M259 274h308l-154 347zM41 0l329 733h90l328 -733h-102l-83 188h-380l-83 -188h-99z" />
    <glyph glyph-name="B" unicode="B" horiz-adv-x="759" 
d="M104 0v728h315q124 0 190 -64q48 -50 48 -119v-2q0 -114 -112 -166q153 -48 153 -176v-2q0 -93 -72 -146t-194 -53h-328zM560 529v2q0 52 -39.5 81.5t-111.5 29.5h-210v-233h203q72 0 115 31t43 89zM601 209q0 56 -46 86.5t-134 30.5h-222v-240h234q78 0 123 32t45 89v2z
" />
    <glyph glyph-name="C" unicode="C" horiz-adv-x="779" 
d="M438 -12q-157 0 -261.5 108t-104.5 266v2q0 157 105 266.5t265 109.5q93 0 158.5 -29t125.5 -85l-63 -71q-104 97 -222 97q-115 0 -192 -82.5t-77 -203.5v-2q0 -121 77 -204.5t192 -83.5q69 0 121 25t106 77l63 -62q-62 -63 -130 -95.5t-163 -32.5z" />
    <glyph glyph-name="D" unicode="D" horiz-adv-x="821" 
d="M104 0v728h259q170 0 278.5 -103.5t108.5 -258.5v-2q0 -156 -108.5 -260t-278.5 -104h-259zM363 640h-163v-552h163q129 0 207.5 77.5t78.5 196.5v2q0 119 -79 197.5t-207 78.5z" />
    <glyph glyph-name="E" unicode="E" horiz-adv-x="705" 
d="M104 0v728h530v-87h-434v-231h387v-87h-387v-236h439v-87h-535z" />
    <glyph glyph-name="F" unicode="F" horiz-adv-x="690" 
d="M104 0v728h529v-88h-433v-241h386v-88h-386v-311h-96z" />
    <glyph glyph-name="G" unicode="G" horiz-adv-x="823" 
d="M444 -12q-168 0 -270 107t-102 267v2q0 155 104 265.5t264 110.5q89 0 152 -24t122 -73l-61 -73q-47 41 -97 61.5t-120 20.5q-112 0 -188 -84t-76 -202v-2q0 -127 75.5 -208.5t200.5 -81.5q115 0 199 68v167h-210v85h303v-295q-128 -111 -296 -111z" />
    <glyph glyph-name="H" unicode="H" horiz-adv-x="798" 
d="M104 0v728h96v-317h398v317h97v-728h-97v322h-398v-322h-96z" />
    <glyph glyph-name="I" unicode="I" horiz-adv-x="319" 
d="M111 0v728h97v-728h-97z" />
    <glyph glyph-name="J" unicode="J" horiz-adv-x="585" 
d="M260 -10q-145 0 -227 125l67 62q35 -51 72 -75t89 -24q60 0 97 43t37 122v485h98v-485q0 -125 -68 -191q-62 -62 -165 -62z" />
    <glyph glyph-name="K" unicode="K" horiz-adv-x="758" 
d="M104 0v728h96v-414l396 414h123l-310 -316l323 -412h-119l-270 345l-143 -145v-200h-96z" />
    <glyph glyph-name="L" unicode="L" horiz-adv-x="649" 
d="M104 0v728h96v-640h402v-88h-498z" />
    <glyph glyph-name="M" unicode="M" horiz-adv-x="911" 
d="M104 0v728h99l252 -381l252 381h100v-728h-96v570l-255 -376h-4l-254 374v-568h-94z" />
    <glyph glyph-name="N" unicode="N" horiz-adv-x="830" 
d="M104 0v728h89l438 -559v559h95v-728h-79l-449 573v-573h-94z" />
    <glyph glyph-name="O" unicode="O" horiz-adv-x="892" 
d="M445 -12q-163 0 -268 109.5t-105 264.5v2q0 155 106 265.5t269 110.5t268 -109.5t105 -264.5v-2q0 -155 -106 -265.5t-269 -110.5zM447 76q118 0 195.5 83t77.5 203v2q0 120 -78.5 204t-196.5 84t-195.5 -83t-77.5 -203v-2q0 -120 78.5 -204t196.5 -84z" />
    <glyph glyph-name="P" unicode="P" horiz-adv-x="703" 
d="M104 0v728h277q125 0 199.5 -63t74.5 -171v-2q0 -114 -82.5 -178t-205.5 -64h-167v-250h-96zM200 337h171q84 0 135.5 42t51.5 110v2q0 72 -50 110.5t-135 38.5h-173v-303z" />
    <glyph glyph-name="Q" unicode="Q" horiz-adv-x="892" 
d="M830 48l-64 -70l-94 84q-98 -74 -227 -74q-163 0 -268 109.5t-105 264.5v2q0 155 106 265.5t269 110.5t268 -109.5t105 -264.5v-2q0 -134 -82 -237zM447 76q88 0 155 47l-133 115l64 71l134 -122q53 75 53 175v2q0 120 -78.5 204t-196.5 84t-195.5 -83t-77.5 -203v-2
q0 -120 78.5 -204t196.5 -84z" />
    <glyph glyph-name="R" unicode="R" horiz-adv-x="760" 
d="M200 360h213q79 0 127.5 38t48.5 103v2q0 65 -46.5 101t-129.5 36h-213v-280zM104 0v728h316q137 0 208 -73q58 -56 58 -147v-2q0 -87 -51.5 -142t-138.5 -73l215 -291h-116l-201 274h-194v-274h-96z" />
    <glyph glyph-name="S" unicode="S" horiz-adv-x="674" 
d="M355 -10q-170 0 -299 116l59 70q112 -100 243 -100q69 0 111 31.5t42 82.5v2q0 49 -37.5 77.5t-144.5 52.5q-129 28 -186.5 75t-57.5 137v2q0 88 68.5 145t173.5 57q147 0 258 -90l-54 -74q-97 78 -206 78q-65 0 -104.5 -30.5t-39.5 -76.5v-2q0 -51 39 -80t151 -54
q123 -28 179.5 -76t56.5 -132v-2q0 -95 -70 -152t-182 -57z" />
    <glyph glyph-name="T" unicode="T" horiz-adv-x="676" 
d="M290 0v639h-241v89h578v-89h-241v-639h-96z" />
    <glyph glyph-name="U" unicode="U" horiz-adv-x="797" 
d="M398 -11q-141 0 -223.5 82t-82.5 235v422h97v-417q0 -112 55.5 -173t155.5 -61q97 0 152.5 58.5t55.5 170.5v422h96v-416q0 -156 -82.5 -239.5t-223.5 -83.5z" />
    <glyph glyph-name="V" unicode="V" horiz-adv-x="788" 
d="M351 -5l-310 733h107l247 -607l248 607h104l-310 -733h-86z" />
    <glyph glyph-name="W" unicode="W" horiz-adv-x="1162" 
d="M306 -5l-258 733h105l197 -586l193 588h80l193 -588l198 586h101l-258 -733h-82l-194 570l-193 -570h-82z" />
    <glyph glyph-name="X" unicode="X" horiz-adv-x="763" 
d="M593 728h111l-264 -356l274 -372h-113l-221 303l-220 -303h-111l274 371l-264 357h114l210 -289z" />
    <glyph glyph-name="Y" unicode="Y" horiz-adv-x="753" 
d="M328 0v288l-299 440h115l233 -352l235 352h112l-299 -438v-290h-97z" />
    <glyph glyph-name="Z" unicode="Z" horiz-adv-x="732" 
d="M73 0v67l459 576h-444v85h572v-67l-459 -576h459v-85h-587z" />
    <glyph glyph-name="bracketleft" unicode="[" horiz-adv-x="470" 
d="M100 -135v863h304v-73h-215v-717h215v-73h-304z" />
    <glyph glyph-name="backslash" unicode="\" horiz-adv-x="540" 
d="M475 -133l-479 963h85l478 -963h-84z" />
    <glyph glyph-name="bracketright" unicode="]" horiz-adv-x="470" 
d="M65 -135v73h216v717h-216v73h305v-863h-305z" />
    <glyph glyph-name="asciicircum" unicode="^" horiz-adv-x="528" 
d="M68 513l161 217h70l161 -217h-79l-118 153l-118 -153h-77z" />
    <glyph glyph-name="underscore" unicode="_" horiz-adv-x="632" 
d="M2 -166v75h628v-75h-628z" />
    <glyph glyph-name="grave" unicode="`" horiz-adv-x="528" 
d="M269 619l-121 114l92 42l101 -156h-72z" />
    <glyph glyph-name="a" unicode="a" horiz-adv-x="612" 
d="M271 61q72 0 121 38.5t49 98.5v47q-71 23 -148 23q-70 0 -109.5 -28t-39.5 -77v-2q0 -46 36.5 -73t90.5 -27zM250 -12q-81 0 -140 45t-59 123v2q0 84 62.5 129.5t166.5 45.5q83 0 160 -23v18q0 67 -40 102.5t-113 35.5q-80 0 -161 -38l-27 75q101 46 199 46
q116 0 176 -60q56 -56 56 -161v-328h-91v77q-70 -89 -189 -89z" />
    <glyph glyph-name="b" unicode="b" horiz-adv-x="701" 
d="M385 -12q-123 0 -201 110v-98h-94v759h94v-321q78 115 201 115q102 0 179 -77t77 -204v-2q0 -128 -76.5 -205t-179.5 -77zM365 71q77 0 128.5 54t51.5 144v2q0 88 -52.5 143.5t-127.5 55.5q-74 0 -129 -56t-55 -142v-2q0 -87 55 -143t129 -56z" />
    <glyph glyph-name="c" unicode="c" horiz-adv-x="602" 
d="M336 -12q-118 0 -198 82t-80 198v2q0 116 80.5 199.5t198.5 83.5q125 0 216 -96l-60 -64q-75 77 -157 77q-77 0 -130 -58t-53 -140v-2q0 -84 54 -141.5t134 -57.5q84 0 158 76l58 -56q-93 -103 -221 -103z" />
    <glyph glyph-name="d" unicode="d" horiz-adv-x="701" 
d="M335 71q75 0 129.5 56t54.5 143v2q0 86 -55 142t-129 56q-76 0 -127.5 -54t-51.5 -144v-2q0 -88 52.5 -143.5t126.5 -55.5zM316 -12q-103 0 -179.5 77t-76.5 204v2q0 128 76.5 205t179.5 77q121 0 201 -110v316h93v-759h-93v103q-80 -115 -201 -115z" />
    <glyph glyph-name="e" unicode="e" horiz-adv-x="627" 
d="M330 -12q-115 0 -193.5 78.5t-78.5 202.5v2q0 118 74.5 200t186.5 82q119 0 187 -82t68 -206q0 -7 -2 -29h-419q9 -79 59 -124t120 -45q93 0 164 73l57 -51q-88 -101 -223 -101zM152 303h327q-6 74 -48 122.5t-113 48.5q-67 0 -112.5 -48t-53.5 -123z" />
    <glyph glyph-name="f" unicode="f" horiz-adv-x="393" 
d="M120 0v459h-73v80h73v45q0 92 46 138q44 42 118 42q52 0 92 -14v-81q-42 14 -76 14q-87 0 -87 -105v-39h162v-80h-161v-459h-94z" />
    <glyph glyph-name="g" unicode="g" horiz-adv-x="701" 
d="M333 124q75 0 130.5 49t55.5 123v2q0 76 -55.5 124.5t-130.5 48.5t-126 -47.5t-51 -124.5v-2q0 -76 51.5 -124.5t125.5 -48.5zM330 -168q-136 0 -245 71l40 73q94 -65 204 -65q89 0 138.5 47t49.5 137v57q-82 -110 -205 -110q-102 0 -177 70.5t-75 183.5v2
q0 114 75.5 184.5t176.5 70.5q124 0 205 -105v93h93v-441q0 -129 -69 -196q-72 -72 -211 -72z" />
    <glyph glyph-name="h" unicode="h" horiz-adv-x="650" 
d="M90 0v759h94v-309q66 103 180 103q95 0 149 -58.5t54 -155.5v-339h-94v313q0 72 -36.5 113t-102.5 41q-65 0 -107.5 -43.5t-42.5 -115.5v-308h-94z" />
    <glyph glyph-name="i" unicode="i" horiz-adv-x="289" 
d="M92 649v98h105v-98h-105zM98 0v541h93v-541h-93z" />
    <glyph glyph-name="j" unicode="j" horiz-adv-x="289" 
d="M92 649v98h105v-98h-105zM52 -170q-23 0 -53 5v77q18 -3 38 -3q61 0 61 70v562h93v-565q0 -146 -139 -146z" />
    <glyph glyph-name="k" unicode="k" horiz-adv-x="604" 
d="M90 0v759h94v-503l271 285h117l-224 -229l231 -312h-112l-183 247l-100 -102v-145h-94z" />
    <glyph glyph-name="l" unicode="l" horiz-adv-x="289" 
d="M98 0v759h93v-759h-93z" />
    <glyph glyph-name="m" unicode="m" horiz-adv-x="997" 
d="M90 0v541h94v-88q67 100 172 100q119 0 170 -104q72 104 188 104q92 0 145 -57.5t53 -157.5v-338h-94v313q0 74 -34.5 114t-96.5 40q-61 0 -100 -41.5t-39 -115.5v-310h-94v315q0 72 -34.5 112t-95.5 40q-60 0 -100 -44.5t-40 -114.5v-308h-94z" />
    <glyph glyph-name="n" unicode="n" horiz-adv-x="650" 
d="M90 0v541h94v-91q66 103 180 103q95 0 149 -58.5t54 -155.5v-339h-94v313q0 72 -36.5 113t-102.5 41q-65 0 -107.5 -43.5t-42.5 -115.5v-308h-94z" />
    <glyph glyph-name="o" unicode="o" horiz-adv-x="684" 
d="M341 -12q-121 0 -202 82t-81 198v2q0 116 82 199.5t203 83.5t202 -82t81 -199v-2q0 -116 -82 -199t-203 -83zM343 71q82 0 134.5 57t52.5 140v2q0 83 -54.5 141.5t-134.5 58.5q-82 0 -135 -57.5t-53 -140.5v-2q0 -83 54.5 -141t135.5 -58z" />
    <glyph glyph-name="p" unicode="p" horiz-adv-x="701" 
d="M365 71q77 0 128.5 54t51.5 144v2q0 88 -52.5 143.5t-127.5 55.5q-74 0 -129 -56t-55 -142v-2q0 -87 55 -143t129 -56zM90 -166v707h94v-103q78 115 201 115q102 0 179 -77t77 -204v-2q0 -128 -76.5 -205t-179.5 -77q-123 0 -201 110v-264h-94z" />
    <glyph glyph-name="q" unicode="q" horiz-adv-x="701" 
d="M517 -166v269q-80 -115 -201 -115q-103 0 -179.5 77t-76.5 204v2q0 128 76.5 205t179.5 77q121 0 201 -110v98h93v-707h-93zM335 71q75 0 129.5 56t54.5 143v2q0 86 -55 142t-129 56q-76 0 -127.5 -54t-51.5 -144v-2q0 -88 52.5 -143.5t126.5 -55.5z" />
    <glyph glyph-name="r" unicode="r" horiz-adv-x="431" 
d="M90 0v541h94v-135q30 68 85 108t127 36v-99h-6q-91 0 -148.5 -62t-57.5 -176v-213h-94z" />
    <glyph glyph-name="s" unicode="s" horiz-adv-x="527" 
d="M271 -10q-125 0 -226 79l46 66q91 -68 184 -68q46 0 74.5 21t28.5 56v2q0 18 -9.5 32t-31 25t-39 17.5t-50.5 15.5q-40 12 -64 21t-53.5 26.5t-44 44t-14.5 62.5v2q0 72 52.5 115.5t134.5 43.5q104 0 196 -61l-41 -69q-83 52 -158 52q-44 0 -70 -20t-26 -51v-2
q0 -14 8.5 -26t18 -19.5t31.5 -16.5t34.5 -13t41.5 -13q38 -12 63 -22t53.5 -28t42.5 -44t14 -61v-2q0 -78 -55 -121.5t-141 -43.5z" />
    <glyph glyph-name="t" unicode="t" horiz-adv-x="430" 
d="M272 -9q-71 0 -112.5 37t-41.5 117v314h-73v82h73v159h93v-159h164v-82h-164v-301q0 -83 84 -83q39 0 78 19v-79q-43 -24 -101 -24z" />
    <glyph glyph-name="u" unicode="u" horiz-adv-x="650" 
d="M285 -12q-95 0 -149 58.5t-54 155.5v339h94v-313q0 -72 37 -113t103 -41q65 0 107.5 44t42.5 115v308h93v-541h-93v91q-66 -103 -181 -103z" />
    <glyph glyph-name="v" unicode="v" horiz-adv-x="621" 
d="M269 -4l-231 545h102l171 -433l172 433h100l-231 -545h-83z" />
    <glyph glyph-name="w" unicode="w" horiz-adv-x="903" 
d="M230 -4l-185 545h98l132 -415l138 417h79l138 -417l133 415h96l-186 -545h-83l-138 409l-139 -409h-83z" />
    <glyph glyph-name="x" unicode="x" horiz-adv-x="607" 
d="M155 541l149 -203l150 203h103l-201 -264l209 -277h-106l-157 214l-157 -214h-103l207 275l-199 266h105z" />
    <glyph glyph-name="y" unicode="y" horiz-adv-x="625" 
d="M322 105l164 436h99l-223 -558q-34 -84 -75.5 -118.5t-104.5 -34.5q-59 0 -119 30l32 72q38 -20 81 -20q34 0 57 20t44 69l-240 540h102z" />
    <glyph glyph-name="z" unicode="z" horiz-adv-x="588" 
d="M61 0v62l345 401h-333v78h457v-62l-345 -400h345v-79h-469z" />
    <glyph glyph-name="braceleft" unicode="{" horiz-adv-x="511" 
d="M437 -147q-133 25 -181 73.5t-48 135.5q0 8 0.5 38.5t0.5 39.5q0 63 -27.5 92.5t-93.5 29.5h-27v72h27q66 0 93.5 29.5t27.5 93.5q0 9 -0.5 39.5t-0.5 38.5q0 87 48 135.5t181 73.5l15 -62q-100 -27 -128 -58.5t-28 -101.5q0 -10 0.5 -38.5t0.5 -39.5q0 -62 -27.5 -95.5
t-80.5 -50.5q55 -17 81.5 -50t26.5 -95q0 -11 -0.5 -39.5t-0.5 -38.5q0 -70 28 -101.5t128 -58.5z" />
    <glyph glyph-name="bar" unicode="|" horiz-adv-x="332" 
d="M127 -133v963h78v-963h-78z" />
    <glyph glyph-name="braceright" unicode="}" horiz-adv-x="511" 
d="M75 -147l-16 62q53 14 83.5 27.5t47 33.5t21 41.5t4.5 57.5q0 10 -0.5 38.5t-0.5 39.5q0 61 27 94.5t81 50.5q-55 18 -81.5 51t-26.5 95q0 11 0.5 39.5t0.5 38.5q0 36 -4.5 57.5t-21 41.5t-47 33.5t-83.5 27.5l16 62q133 -25 181 -73.5t48 -135.5q0 -8 -1 -38.5t-1 -39.5
q0 -64 27.5 -93.5t93.5 -29.5h27v-72h-27q-66 0 -93.5 -29.5t-27.5 -92.5q0 -9 1 -39.5t1 -38.5q0 -87 -48 -135.5t-181 -73.5z" />
    <glyph glyph-name="asciitilde" unicode="~" horiz-adv-x="507" 
d="M328 254q-27 0 -79 22q-46 20 -64 20q-19 0 -30.5 -11.5t-24.5 -40.5l-54 16q16 61 40 88.5t64 27.5q26 0 78 -22q46 -20 64 -20q20 0 31.5 11t23.5 40l55 -16q-17 -61 -40.5 -88t-63.5 -27z" />
    <glyph glyph-name="uni00A0" unicode="&#xa0;" horiz-adv-x="320" 
 />
    <glyph glyph-name="exclamdown" unicode="&#xa1;" horiz-adv-x="300" 
d="M96 608v120h108v-120h-108zM95 0v52l29 463h52l29 -463v-52h-110z" />
    <glyph glyph-name="cent" unicode="&#xa2;" horiz-adv-x="612" 
d="M156 369q0 -61 29.5 -110t79.5 -72l75 382h-2q-77 0 -129.5 -57.5t-52.5 -140.5v-2zM443 734l-19 -93q74 -21 134 -85l-60 -63q-49 49 -93 65l-76 -388h14q87 0 160 76l57 -54q-91 -105 -222 -105q-14 0 -21 1l-18 -94h-75l21 109q-81 29 -132 101t-51 163v2
q0 116 80.5 199.5t198.5 83.5h12l16 82h74z" />
    <glyph glyph-name="sterling" unicode="&#xa3;" horiz-adv-x="678" 
d="M73 0v58l85 22v221h-85v83h85v108q0 117 65 184q64 62 168 62q140 0 224 -114l-73 -58q-33 42 -67.5 63t-83.5 21q-58 0 -94 -36q-42 -42 -42 -124v-106h280v-83h-280v-216h359v-85h-541z" />
    <glyph glyph-name="yen" unicode="&#xa5;" horiz-adv-x="721" 
d="M105 276v73h180l-255 379h113l219 -340l221 340h109l-257 -379h182v-73h-210v-87h210v-73h-210v-116h-93v116h-209v73h209v87h-209z" />
    <glyph glyph-name="section" unicode="&#xa7;" horiz-adv-x="665" 
d="M407 278q45 0 74 19.5t29 47.5v2q0 26 -31.5 46t-108.5 39q-72 18 -111 18q-46 0 -75 -19.5t-29 -47.5v-2q0 -26 31.5 -46t108.5 -39q71 -18 112 -18zM468 238q72 -39 72 -104v-2q0 -65 -53 -103.5t-143 -38.5q-143 0 -238 98l58 57q81 -79 182 -79q49 0 74.5 17.5
t25.5 45.5v2q0 28 -35 48t-125 41q-120 29 -169.5 62t-49.5 87v2q0 47 35.5 77.5t94.5 41.5q-71 38 -71 104v2q0 65 52.5 103.5t142.5 38.5q145 0 238 -98l-57 -57q-81 79 -183 79q-48 0 -74 -17.5t-26 -45.5v-2q0 -28 34.5 -48t125.5 -41q120 -29 169.5 -62t49.5 -87v-2
q0 -47 -35 -77.5t-95 -41.5z" />
    <glyph glyph-name="dieresis" unicode="&#xa8;" horiz-adv-x="528" 
d="M118 619v106h104v-106h-104zM306 619v106h104v-106h-104z" />
    <glyph glyph-name="copyright" unicode="&#xa9;" horiz-adv-x="871" 
d="M435 -12q-158 0 -267 109.5t-109 264.5v2q0 155 110.5 265.5t267.5 110.5t266 -109.5t109 -264.5v-2q0 -155 -110 -265.5t-267 -110.5zM435 22q144 0 242.5 100t98.5 242v2q0 142 -97.5 241t-241.5 99q-145 0 -243.5 -100t-98.5 -242v-2q0 -142 98 -241t242 -99zM440 168
q-83 0 -139.5 58.5t-56.5 141.5v2q0 83 57 142t141 59t151 -63l-42 -46q-54 50 -110 50t-94 -41.5t-38 -99.5v-2q0 -58 38.5 -100t94.5 -42q57 0 113 51l40 -41q-69 -69 -155 -69z" />
    <glyph glyph-name="ordfeminine" unicode="&#xaa;" horiz-adv-x="414" 
d="M188 469q37 0 62 20t25 50v23q-31 11 -75 11q-35 0 -55 -14t-20 -38v-2q0 -23 18 -36.5t45 -13.5zM176 422q-45 0 -77.5 25t-32.5 69v2q0 47 34.5 72t92.5 25q43 0 82 -12v6q0 70 -79 70q-37 0 -88 -22l-17 48q57 26 112 26q64 0 97 -34q31 -30 31 -89v-179h-57v39
q-36 -46 -98 -46zM63 298v52h273v-52h-273z" />
    <glyph glyph-name="guillemotleft" unicode="&#xab;" horiz-adv-x="598" 
d="M227 44l-174 222v9l174 223l67 -37l-135 -189l135 -191zM467 44l-174 222v9l174 223l67 -37l-135 -189l135 -191z" />
    <glyph glyph-name="registered" unicode="&#xae;" horiz-adv-x="421" 
d="M210 374q-76 0 -128.5 53.5t-52.5 127.5v1q0 75 53 128.5t128 53.5q76 0 128.5 -53t52.5 -128v-1q0 -74 -53 -128t-128 -54zM210 394q68 0 114 47.5t46 114.5v1q0 67 -46 114.5t-114 47.5q-67 0 -113.5 -48t-46.5 -115v-1q0 -67 46 -114t114 -47zM177 561h43q36 0 36 29
v1q0 13 -9.5 21t-26.5 7h-43v-58zM138 467v186h85q33 0 53 -15.5t20 -44.5v-1q0 -21 -12 -36t-31 -20l49 -69h-47l-42 63h-36v-63h-39z" />
    <glyph glyph-name="macron" unicode="&#xaf;" horiz-adv-x="528" 
d="M97 637v73h334v-73h-334z" />
    <glyph glyph-name="degree" unicode="&#xb0;" horiz-adv-x="488" 
d="M244 410q-66 0 -116 48.5t-50 112.5v2q0 65 50 113t116 48t116 -48t50 -113v-2q0 -64 -50 -112.5t-116 -48.5zM244 469q43 0 72.5 30.5t29.5 71.5v2q0 41 -29.5 72t-72.5 31t-72 -31t-29 -72v-2q0 -41 29 -71.5t72 -30.5z" />
    <glyph glyph-name="plusminus" unicode="&#xb1;" horiz-adv-x="661" 
d="M578 381h-204v-200h-87v200h-204v85h204v200h87v-200h204v-85zM578 0h-495v82h495v-82z" />
    <glyph glyph-name="two.sup" unicode="&#xb2;" 
d="M62 441v52l148 127q43 36 60.5 61t17.5 52q0 29 -21 47.5t-52 18.5q-58 0 -104 -67l-45 32q61 91 153 91q57 0 94.5 -33.5t37.5 -83.5q0 -41 -21 -72.5t-72 -74.5l-113 -95h209v-55h-292z" />
    <glyph glyph-name="three.sup" unicode="&#xb3;" 
d="M207 431q-91 0 -154 71l39 42q51 -59 116 -59q34 0 57 20t23 51q0 33 -27.5 51.5t-72.5 18.5h-37l-10 38l126 125h-190v55h267v-48l-126 -123q59 -5 95.5 -34t36.5 -82q0 -56 -41 -91t-102 -35z" />
    <glyph glyph-name="acute" unicode="&#xb4;" horiz-adv-x="528" 
d="M187 619l101 156l92 -42l-121 -114h-72z" />
    <glyph glyph-name="mu" unicode="&#xb5;" horiz-adv-x="700" 
d="M675 77v-77q-28 -7 -61 -7q-106 0 -128 88q-56 -91 -154 -91q-52 0 -94 25.5t-65 74.5h-2q12 -79 12 -131v-125h-93v707h94v-310q0 -70 41 -114.5t105 -44.5t105 44.5t41 114.5v310h94v-402q3 -66 67 -66q25 0 38 4z" />
    <glyph glyph-name="paragraph" unicode="&#xb6;" horiz-adv-x="553" 
d="M358 0v269h-14q-129 0 -210.5 60t-81.5 168v2q0 106 76.5 167.5t199.5 61.5h127v-728h-97z" />
    <glyph glyph-name="periodcentered" unicode="&#xb7;" horiz-adv-x="270" 
d="M81 255v119h109v-119h-109z" />
    <glyph glyph-name="cedilla" unicode="&#xb8;" horiz-adv-x="528" 
d="M241 -164l-87 38l96 141h72z" />
    <glyph glyph-name="one.sup" unicode="&#xb9;" horiz-adv-x="342" 
d="M225 441h-60v346l-87 -33l-17 52l117 45h47v-410z" />
    <glyph glyph-name="ordmasculine" unicode="&#xba;" horiz-adv-x="414" 
d="M206 422q-66 0 -109.5 45t-43.5 109v2q0 64 44.5 109.5t110.5 45.5q65 0 109 -45t44 -109v-2q0 -64 -44.5 -109.5t-110.5 -45.5zM208 476q40 0 66 29t26 71v2q0 42 -27 71.5t-67 29.5t-66 -29t-26 -71v-2q0 -42 26.5 -71.5t67.5 -29.5zM57 298v52h300v-52h-300z" />
    <glyph glyph-name="guillemotright" unicode="&#xbb;" horiz-adv-x="598" 
d="M130 44l-67 36l136 190l-136 190l67 38l174 -223v-9zM371 44l-67 36l135 190l-135 190l67 38l174 -223v-9z" />
    <glyph glyph-name="onequarter" unicode="&#xbc;" horiz-adv-x="867" 
d="M224 325h-60v346l-87 -33l-17 52l117 44h47v-409zM142 0l259 375l236 353h61l-259 -375l-236 -353h-61zM761 89v-91h-57v91h-196l-11 54l199 266h65v-270h56v-50h-56zM705 138v199l-150 -199h150z" />
    <glyph glyph-name="onehalf" unicode="&#xbd;" horiz-adv-x="867" 
d="M224 325h-60v346l-87 -33l-17 52l117 44h47v-409zM132 0l259 375l236 353h61l-259 -375l-236 -353h-61zM516 0v52l148 127q43 36 60.5 61t17.5 52q0 29 -21 47.5t-52 18.5q-58 0 -104 -67l-45 32q61 91 153 91q57 0 94.5 -33.5t37.5 -83.5q0 -41 -21 -72.5t-72 -74.5
l-113 -95h209v-55h-292z" />
    <glyph glyph-name="threequarters" unicode="&#xbe;" horiz-adv-x="945" 
d="M215 0l259 375l236 353h61l-259 -375l-236 -353h-61zM209 314q-91 0 -154 72l39 42q51 -59 116 -59q34 0 57 20t23 51q0 33 -27.5 51.5t-72.5 18.5h-37l-10 37l126 125h-190v56h267v-48l-126 -123q59 -5 95.5 -34t36.5 -82q0 -56 -41 -91.5t-102 -35.5zM839 89v-91h-57
v91h-196l-11 54l199 266h65v-270h56v-50h-56zM783 138v199l-150 -199h150z" />
    <glyph glyph-name="questiondown" unicode="&#xbf;" horiz-adv-x="568" 
d="M254 608v120h109v-120h-109zM288 -9q-106 0 -171 57.5t-65 149.5v3q0 92 59 144t155 66l10 104h63l17 -169l-5 -5q-100 -3 -151 -39t-51 -99v-2q0 -54 38.5 -88.5t102.5 -34.5q104 0 183 93l61 -61q-101 -119 -246 -119z" />
    <glyph glyph-name="Agrave" unicode="&#xc0;" horiz-adv-x="830" 
d="M454 801h-76l-124 98l92 41zM259 274h308l-154 347zM41 0l329 733h90l328 -733h-102l-83 188h-380l-83 -188h-99z" />
    <glyph glyph-name="Aacute" unicode="&#xc1;" horiz-adv-x="830" 
d="M376 801l109 139l91 -41l-123 -98h-77zM259 274h308l-154 347zM41 0l329 733h90l328 -733h-102l-83 188h-380l-83 -188h-99z" />
    <glyph glyph-name="Acircumflex" unicode="&#xc2;" horiz-adv-x="830" 
d="M253 799l118 128h88l118 -128h-85l-78 62l-78 -62h-83zM259 274h308l-154 347zM41 0l329 733h90l328 -733h-102l-83 188h-380l-83 -188h-99z" />
    <glyph glyph-name="Atilde" unicode="&#xc3;" horiz-adv-x="830" 
d="M495 801q-25 0 -84 23q-42 17 -60 17q-20 0 -31.5 -11t-23.5 -38l-57 16q17 58 41 85.5t62 27.5q25 0 84 -23q42 -17 60 -17q20 0 31.5 11t23.5 38l57 -17q-16 -58 -40 -85t-63 -27zM259 274h308l-154 347zM41 0l329 733h90l328 -733h-102l-83 188h-380l-83 -188h-99z
" />
    <glyph glyph-name="Adieresis" unicode="&#xc4;" horiz-adv-x="830" 
d="M261 801v101h107v-101h-107zM462 801v101h106v-101h-106zM259 274h308l-154 347zM41 0l329 733h90l328 -733h-102l-83 188h-380l-83 -188h-99z" />
    <glyph glyph-name="Aring" unicode="&#xc5;" horiz-adv-x="830" 
d="M415 716q29 0 48.5 18t19.5 45q0 26 -19.5 44t-48.5 18q-30 0 -49.5 -18t-19.5 -44q0 -27 19.5 -45t49.5 -18zM259 274h308l-154 347zM41 0l309 690q-53 30 -53 89q0 44 34.5 74.5t83.5 30.5t83.5 -30.5t34.5 -74.5q0 -59 -54 -89l309 -690h-102l-83 188h-380l-83 -188
h-99z" />
    <glyph glyph-name="AE" unicode="&#xc6;" horiz-adv-x="1095" 
d="M276 274h238v369h-24zM20 0l422 728h582v-87h-414v-231h367v-87h-367v-236h419v-87h-515v188h-285l-109 -188h-100z" />
    <glyph glyph-name="Ccedilla" unicode="&#xc7;" horiz-adv-x="779" 
d="M388 -164l-87 38l80 118q-136 19 -222.5 123t-86.5 247v2q0 157 105 266.5t265 109.5q93 0 158.5 -29t125.5 -85l-63 -71q-104 97 -222 97q-115 0 -192 -82.5t-77 -203.5v-2q0 -121 77 -204.5t192 -83.5q69 0 121 25t106 77l63 -62q-60 -60 -123.5 -92t-150.5 -35z" />
    <glyph glyph-name="Egrave" unicode="&#xc8;" horiz-adv-x="705" 
d="M410 791h-76l-124 98l92 41zM104 0v728h530v-87h-434v-231h387v-87h-387v-236h439v-87h-535z" />
    <glyph glyph-name="Eacute" unicode="&#xc9;" horiz-adv-x="705" 
d="M332 791l109 139l91 -41l-123 -98h-77zM104 0v728h530v-87h-434v-231h387v-87h-387v-236h439v-87h-535z" />
    <glyph glyph-name="Ecircumflex" unicode="&#xca;" horiz-adv-x="705" 
d="M209 791l118 128h88l118 -128h-85l-78 62l-78 -62h-83zM104 0v728h530v-87h-434v-231h387v-87h-387v-236h439v-87h-535z" />
    <glyph glyph-name="Edieresis" unicode="&#xcb;" horiz-adv-x="705" 
d="M218 791v101h107v-101h-107zM419 791v101h106v-101h-106zM104 0v728h530v-87h-434v-231h387v-87h-387v-236h439v-87h-535z" />
    <glyph glyph-name="Igrave" unicode="&#xcc;" horiz-adv-x="319" 
d="M198 791h-76l-124 98l92 41zM111 0v728h97v-728h-97z" />
    <glyph glyph-name="Iacute" unicode="&#xcd;" horiz-adv-x="319" 
d="M120 791l109 139l91 -41l-123 -98h-77zM111 0v728h97v-728h-97z" />
    <glyph glyph-name="Icircumflex" unicode="&#xce;" horiz-adv-x="319" 
d="M-3 791l118 128h88l118 -128h-85l-78 62l-78 -62h-83zM111 0v728h97v-728h-97z" />
    <glyph glyph-name="Idieresis" unicode="&#xcf;" horiz-adv-x="319" 
d="M6 791v101h107v-101h-107zM207 791v101h106v-101h-106zM111 0v728h97v-728h-97z" />
    <glyph glyph-name="Eth" unicode="&#xd0;" horiz-adv-x="852" 
d="M135 0v329h-78v74h78v325h259q170 0 278.5 -103.5t108.5 -258.5v-2q0 -156 -108.5 -260t-278.5 -104h-259zM439 329h-207v-241h162q129 0 207.5 77.5t78.5 196.5v2q0 119 -79 197.5t-207 78.5h-162v-237h207v-74z" />
    <glyph glyph-name="Ntilde" unicode="&#xd1;" horiz-adv-x="830" 
d="M495 788q-25 0 -84 23q-42 17 -60 17q-20 0 -31.5 -11t-23.5 -38l-57 16q17 58 41 85.5t62 27.5q25 0 84 -23q42 -17 60 -17q20 0 31.5 11t23.5 38l57 -17q-16 -58 -40 -85t-63 -27zM104 0v728h89l438 -559v559h95v-728h-79l-449 573v-573h-94z" />
    <glyph glyph-name="Ograve" unicode="&#xd2;" horiz-adv-x="892" 
d="M485 801h-76l-124 98l92 41zM445 -12q-163 0 -268 109.5t-105 264.5v2q0 155 106 265.5t269 110.5t268 -109.5t105 -264.5v-2q0 -155 -106 -265.5t-269 -110.5zM447 76q118 0 195.5 83t77.5 203v2q0 120 -78.5 204t-196.5 84t-195.5 -83t-77.5 -203v-2q0 -120 78.5 -204
t196.5 -84z" />
    <glyph glyph-name="Oacute" unicode="&#xd3;" horiz-adv-x="892" 
d="M407 801l109 139l91 -41l-123 -98h-77zM445 -12q-163 0 -268 109.5t-105 264.5v2q0 155 106 265.5t269 110.5t268 -109.5t105 -264.5v-2q0 -155 -106 -265.5t-269 -110.5zM447 76q118 0 195.5 83t77.5 203v2q0 120 -78.5 204t-196.5 84t-195.5 -83t-77.5 -203v-2
q0 -120 78.5 -204t196.5 -84z" />
    <glyph glyph-name="Ocircumflex" unicode="&#xd4;" horiz-adv-x="892" 
d="M284 801l118 128h88l118 -128h-85l-78 62l-78 -62h-83zM445 -12q-163 0 -268 109.5t-105 264.5v2q0 155 106 265.5t269 110.5t268 -109.5t105 -264.5v-2q0 -155 -106 -265.5t-269 -110.5zM447 76q118 0 195.5 83t77.5 203v2q0 120 -78.5 204t-196.5 84t-195.5 -83
t-77.5 -203v-2q0 -120 78.5 -204t196.5 -84z" />
    <glyph glyph-name="Otilde" unicode="&#xd5;" horiz-adv-x="892" 
d="M526 801q-25 0 -84 23q-42 17 -60 17q-20 0 -31.5 -11t-23.5 -38l-57 16q17 58 41 85.5t62 27.5q25 0 84 -23q42 -17 60 -17q20 0 31.5 11t23.5 38l57 -17q-16 -58 -40 -85t-63 -27zM445 -12q-163 0 -268 109.5t-105 264.5v2q0 155 106 265.5t269 110.5t268 -109.5
t105 -264.5v-2q0 -155 -106 -265.5t-269 -110.5zM447 76q118 0 195.5 83t77.5 203v2q0 120 -78.5 204t-196.5 84t-195.5 -83t-77.5 -203v-2q0 -120 78.5 -204t196.5 -84z" />
    <glyph glyph-name="Odieresis" unicode="&#xd6;" horiz-adv-x="892" 
d="M293 801v101h107v-101h-107zM494 801v101h106v-101h-106zM445 -12q-163 0 -268 109.5t-105 264.5v2q0 155 106 265.5t269 110.5t268 -109.5t105 -264.5v-2q0 -155 -106 -265.5t-269 -110.5zM447 76q118 0 195.5 83t77.5 203v2q0 120 -78.5 204t-196.5 84t-195.5 -83
t-77.5 -203v-2q0 -120 78.5 -204t196.5 -84z" />
    <glyph glyph-name="multiply" unicode="&#xd7;" horiz-adv-x="661" 
d="M507 128l-177 180l-178 -180l-60 60l181 177l-181 177l62 62l178 -180l177 180l60 -59l-180 -178l180 -177z" />
    <glyph glyph-name="Oslash" unicode="&#xd8;" horiz-adv-x="892" 
d="M730 733h99l-103 -114q94 -107 94 -253v-2q0 -155 -106 -265.5t-269 -110.5q-127 0 -224 71l-59 -64h-99l103 114q-94 105 -94 253v2q0 155 106 265.5t269 110.5q126 0 224 -72zM170 365q0 -106 61 -186l379 419q-72 56 -165 56q-119 0 -197 -83.5t-78 -204.5v-1zM447 74
q119 0 197 83.5t78 204.5v1q0 105 -61 185l-380 -419q73 -55 166 -55z" />
    <glyph glyph-name="Ugrave" unicode="&#xd9;" horiz-adv-x="797" 
d="M437 788h-76l-124 98l92 41zM398 -11q-141 0 -223.5 82t-82.5 235v422h97v-417q0 -112 55.5 -173t155.5 -61q97 0 152.5 58.5t55.5 170.5v422h96v-416q0 -156 -82.5 -239.5t-223.5 -83.5z" />
    <glyph glyph-name="Uacute" unicode="&#xda;" horiz-adv-x="797" 
d="M359 788l109 139l91 -41l-123 -98h-77zM398 -11q-141 0 -223.5 82t-82.5 235v422h97v-417q0 -112 55.5 -173t155.5 -61q97 0 152.5 58.5t55.5 170.5v422h96v-416q0 -156 -82.5 -239.5t-223.5 -83.5z" />
    <glyph glyph-name="Ucircumflex" unicode="&#xdb;" horiz-adv-x="797" 
d="M236 788l118 128h88l118 -128h-85l-78 62l-78 -62h-83zM398 -11q-141 0 -223.5 82t-82.5 235v422h97v-417q0 -112 55.5 -173t155.5 -61q97 0 152.5 58.5t55.5 170.5v422h96v-416q0 -156 -82.5 -239.5t-223.5 -83.5z" />
    <glyph glyph-name="Udieresis" unicode="&#xdc;" horiz-adv-x="797" 
d="M245 788v101h107v-101h-107zM446 788v101h106v-101h-106zM398 -11q-141 0 -223.5 82t-82.5 235v422h97v-417q0 -112 55.5 -173t155.5 -61q97 0 152.5 58.5t55.5 170.5v422h96v-416q0 -156 -82.5 -239.5t-223.5 -83.5z" />
    <glyph glyph-name="Yacute" unicode="&#xdd;" horiz-adv-x="753" 
d="M337 788l109 139l91 -41l-123 -98h-77zM328 0v288l-299 440h115l233 -352l235 352h112l-299 -438v-290h-97z" />
    <glyph glyph-name="Thorn" unicode="&#xde;" horiz-adv-x="708" 
d="M104 0v728h96v-122h181q125 0 199.5 -63t74.5 -171v-2q0 -114 -82.5 -178t-205.5 -64h-167v-128h-96zM200 215h171q84 0 135.5 42t51.5 110v2q0 72 -50 111t-135 39h-173v-304z" />
    <glyph glyph-name="germandbls" unicode="&#xdf;" horiz-adv-x="653" 
d="M309 -2v74q89 3 138 36t49 94v2q0 57 -50 91.5t-137 43.5v68q142 54 142 160v3q0 51 -35 83t-91 32q-62 0 -101.5 -44t-39.5 -117v-524h-94v521q0 112 65 178.5t175 66.5q98 0 157.5 -54t59.5 -135v-3q0 -124 -136 -186q79 -20 130 -65.5t51 -119.5v-2q0 -97 -76.5 -151
t-206.5 -52z" />
    <glyph glyph-name="agrave" unicode="&#xe0;" horiz-adv-x="612" 
d="M273 619l-121 114l92 42l101 -156h-72zM271 61q72 0 121 38.5t49 98.5v47q-71 23 -148 23q-70 0 -109.5 -28t-39.5 -77v-2q0 -46 36.5 -73t90.5 -27zM250 -12q-81 0 -140 45t-59 123v2q0 84 62.5 129.5t166.5 45.5q83 0 160 -23v18q0 67 -40 102.5t-113 35.5
q-80 0 -161 -38l-27 75q101 46 199 46q116 0 176 -60q56 -56 56 -161v-328h-91v77q-70 -89 -189 -89z" />
    <glyph glyph-name="aacute" unicode="&#xe1;" horiz-adv-x="612" 
d="M269 619l101 156l92 -42l-121 -114h-72zM271 61q72 0 121 38.5t49 98.5v47q-71 23 -148 23q-70 0 -109.5 -28t-39.5 -77v-2q0 -46 36.5 -73t90.5 -27zM250 -12q-81 0 -140 45t-59 123v2q0 84 62.5 129.5t166.5 45.5q83 0 160 -23v18q0 67 -40 102.5t-113 35.5
q-80 0 -161 -38l-27 75q101 46 199 46q116 0 176 -60q56 -56 56 -161v-328h-91v77q-70 -89 -189 -89z" />
    <glyph glyph-name="acircumflex" unicode="&#xe2;" horiz-adv-x="612" 
d="M151 619l114 141h84l114 -141h-78l-79 70l-79 -70h-76zM271 61q72 0 121 38.5t49 98.5v47q-71 23 -148 23q-70 0 -109.5 -28t-39.5 -77v-2q0 -46 36.5 -73t90.5 -27zM250 -12q-81 0 -140 45t-59 123v2q0 84 62.5 129.5t166.5 45.5q83 0 160 -23v18q0 67 -40 102.5
t-113 35.5q-80 0 -161 -38l-27 75q101 46 199 46q116 0 176 -60q56 -56 56 -161v-328h-91v77q-70 -89 -189 -89z" />
    <glyph glyph-name="atilde" unicode="&#xe3;" horiz-adv-x="612" 
d="M385 619q-28 0 -78 21t-64 21q-20 0 -31.5 -11.5t-23.5 -40.5l-55 16q16 61 40 88t64 27q28 0 78 -21q48 -20 64 -20q20 0 31.5 11t23.5 40l55 -16q-16 -61 -40 -88t-64 -27zM271 61q72 0 121 38.5t49 98.5v47q-71 23 -148 23q-70 0 -109.5 -28t-39.5 -77v-2
q0 -46 36.5 -73t90.5 -27zM250 -12q-81 0 -140 45t-59 123v2q0 84 62.5 129.5t166.5 45.5q83 0 160 -23v18q0 67 -40 102.5t-113 35.5q-80 0 -161 -38l-27 75q101 46 199 46q116 0 176 -60q56 -56 56 -161v-328h-91v77q-70 -89 -189 -89z" />
    <glyph glyph-name="adieresis" unicode="&#xe4;" horiz-adv-x="612" 
d="M161 619v106h104v-106h-104zM349 619v106h104v-106h-104zM271 61q72 0 121 38.5t49 98.5v47q-71 23 -148 23q-70 0 -109.5 -28t-39.5 -77v-2q0 -46 36.5 -73t90.5 -27zM250 -12q-81 0 -140 45t-59 123v2q0 84 62.5 129.5t166.5 45.5q83 0 160 -23v18q0 67 -40 102.5
t-113 35.5q-80 0 -161 -38l-27 75q101 46 199 46q116 0 176 -60q56 -56 56 -161v-328h-91v77q-70 -89 -189 -89z" />
    <glyph glyph-name="aring" unicode="&#xe5;" horiz-adv-x="612" 
d="M307 617q-47 0 -81 32.5t-34 78.5t34 78.5t81 32.5t81 -32.5t34 -78.5t-34 -78.5t-81 -32.5zM307 657q29 0 50 21t21 50t-21 50t-50 21t-50 -21t-21 -50t21 -50t50 -21zM271 61q72 0 121 38.5t49 98.5v47q-71 23 -148 23q-70 0 -109.5 -28t-39.5 -77v-2q0 -46 36.5 -73
t90.5 -27zM250 -12q-81 0 -140 45t-59 123v2q0 84 62.5 129.5t166.5 45.5q83 0 160 -23v18q0 67 -40 102.5t-113 35.5q-80 0 -161 -38l-27 75q101 46 199 46q116 0 176 -60q56 -56 56 -161v-328h-91v77q-70 -89 -189 -89z" />
    <glyph glyph-name="ae" unicode="&#xe6;" horiz-adv-x="999" 
d="M524 303h326q-6 74 -48 122.5t-113 48.5q-66 0 -111.5 -48t-53.5 -123zM255 -12q-85 0 -144.5 45t-59.5 123v2q0 84 61.5 129.5t164.5 45.5q78 0 154 -23v18q0 67 -38 102.5t-110 35.5q-76 0 -157 -38l-27 75q99 46 195 46q152 0 196 -108q33 52 86 82t116 30
q118 0 185.5 -82.5t67.5 -205.5q0 -18 -1 -29h-420q9 -79 59.5 -124t120.5 -45q92 0 163 73l57 -51q-88 -101 -222 -101q-65 0 -121 27t-93 76q-105 -103 -233 -103zM268 62q103 0 184 88q-18 48 -21 96q-76 22 -141 22q-69 0 -107.5 -28t-38.5 -77v-2q0 -46 35.5 -72.5
t88.5 -26.5z" />
    <glyph glyph-name="ccedilla" unicode="&#xe7;" horiz-adv-x="602" 
d="M285 -164l-87 38l81 120q-97 19 -159 96t-62 178v2q0 116 80.5 199.5t198.5 83.5q125 0 216 -96l-60 -64q-75 77 -157 77q-77 0 -130 -58t-53 -140v-2q0 -84 54 -141.5t134 -57.5q84 0 158 76l58 -56q-86 -96 -203 -102z" />
    <glyph glyph-name="egrave" unicode="&#xe8;" horiz-adv-x="627" 
d="M284 619l-121 114l92 42l101 -156h-72zM330 -12q-115 0 -193.5 78.5t-78.5 202.5v2q0 118 74.5 200t186.5 82q119 0 187 -82t68 -206q0 -7 -2 -29h-419q9 -79 59 -124t120 -45q93 0 164 73l57 -51q-88 -101 -223 -101zM152 303h327q-6 74 -48 122.5t-113 48.5
q-67 0 -112.5 -48t-53.5 -123z" />
    <glyph glyph-name="eacute" unicode="&#xe9;" horiz-adv-x="627" 
d="M280 619l101 156l92 -42l-121 -114h-72zM330 -12q-115 0 -193.5 78.5t-78.5 202.5v2q0 118 74.5 200t186.5 82q119 0 187 -82t68 -206q0 -7 -2 -29h-419q9 -79 59 -124t120 -45q93 0 164 73l57 -51q-88 -101 -223 -101zM152 303h327q-6 74 -48 122.5t-113 48.5
q-67 0 -112.5 -48t-53.5 -123z" />
    <glyph glyph-name="ecircumflex" unicode="&#xea;" horiz-adv-x="627" 
d="M162 619l114 141h84l114 -141h-78l-79 70l-79 -70h-76zM330 -12q-115 0 -193.5 78.5t-78.5 202.5v2q0 118 74.5 200t186.5 82q119 0 187 -82t68 -206q0 -7 -2 -29h-419q9 -79 59 -124t120 -45q93 0 164 73l57 -51q-88 -101 -223 -101zM152 303h327q-6 74 -48 122.5
t-113 48.5q-67 0 -112.5 -48t-53.5 -123z" />
    <glyph glyph-name="edieresis" unicode="&#xeb;" horiz-adv-x="627" 
d="M172 619v106h104v-106h-104zM360 619v106h104v-106h-104zM330 -12q-115 0 -193.5 78.5t-78.5 202.5v2q0 118 74.5 200t186.5 82q119 0 187 -82t68 -206q0 -7 -2 -29h-419q9 -79 59 -124t120 -45q93 0 164 73l57 -51q-88 -101 -223 -101zM152 303h327q-6 74 -48 122.5
t-113 48.5q-67 0 -112.5 -48t-53.5 -123z" />
    <glyph glyph-name="igrave" unicode="&#xec;" horiz-adv-x="289" 
d="M110 619l-121 114l92 42l101 -156h-72zM98 0v541h93v-541h-93z" />
    <glyph glyph-name="iacute" unicode="&#xed;" horiz-adv-x="289" 
d="M107 619l101 156l92 -42l-121 -114h-72zM98 0v541h93v-541h-93z" />
    <glyph glyph-name="icircumflex" unicode="&#xee;" horiz-adv-x="289" 
d="M-12 619l114 141h84l114 -141h-78l-79 70l-79 -70h-76zM98 0v541h93v-541h-93z" />
    <glyph glyph-name="idieresis" unicode="&#xef;" horiz-adv-x="289" 
d="M-2 619v106h104v-106h-104zM186 619v106h104v-106h-104zM98 0v541h93v-541h-93z" />
    <glyph glyph-name="eth" unicode="&#xf0;" horiz-adv-x="683" 
d="M525 707l-88 -34q187 -184 187 -376v-2q0 -134 -78.5 -220.5t-207.5 -86.5q-119 0 -199.5 82.5t-80.5 202.5v2q0 114 74.5 189.5t177.5 75.5q95 0 176 -68q-37 75 -134 168l-121 -46l-25 56l96 36q-30 25 -92 73h131q32 -26 47 -40l113 43zM342 71q82 0 134.5 56.5
t52.5 140.5v2q0 82 -54.5 137t-139.5 55q-81 0 -131.5 -55t-50.5 -137v-3q0 -81 54.5 -138.5t134.5 -57.5z" />
    <glyph glyph-name="ntilde" unicode="&#xf1;" horiz-adv-x="650" 
d="M406 619q-28 0 -78 21t-64 21q-20 0 -31.5 -11.5t-23.5 -40.5l-55 16q16 61 40 88t64 27q28 0 78 -21q48 -20 64 -20q20 0 31.5 11t23.5 40l55 -16q-16 -61 -40 -88t-64 -27zM90 0v541h94v-91q66 103 180 103q95 0 149 -58.5t54 -155.5v-339h-94v313q0 72 -36.5 113
t-102.5 41q-65 0 -107.5 -43.5t-42.5 -115.5v-308h-94z" />
    <glyph glyph-name="ograve" unicode="&#xf2;" horiz-adv-x="684" 
d="M307 619l-121 114l92 42l101 -156h-72zM341 -12q-121 0 -202 82t-81 198v2q0 116 82 199.5t203 83.5t202 -82t81 -199v-2q0 -116 -82 -199t-203 -83zM343 71q82 0 134.5 57t52.5 140v2q0 83 -54.5 141.5t-134.5 58.5q-82 0 -135 -57.5t-53 -140.5v-2q0 -83 54.5 -141
t135.5 -58z" />
    <glyph glyph-name="oacute" unicode="&#xf3;" horiz-adv-x="684" 
d="M304 619l101 156l92 -42l-121 -114h-72zM341 -12q-121 0 -202 82t-81 198v2q0 116 82 199.5t203 83.5t202 -82t81 -199v-2q0 -116 -82 -199t-203 -83zM343 71q82 0 134.5 57t52.5 140v2q0 83 -54.5 141.5t-134.5 58.5q-82 0 -135 -57.5t-53 -140.5v-2q0 -83 54.5 -141
t135.5 -58z" />
    <glyph glyph-name="ocircumflex" unicode="&#xf4;" horiz-adv-x="684" 
d="M186 619l114 141h84l114 -141h-78l-79 70l-79 -70h-76zM341 -12q-121 0 -202 82t-81 198v2q0 116 82 199.5t203 83.5t202 -82t81 -199v-2q0 -116 -82 -199t-203 -83zM343 71q82 0 134.5 57t52.5 140v2q0 83 -54.5 141.5t-134.5 58.5q-82 0 -135 -57.5t-53 -140.5v-2
q0 -83 54.5 -141t135.5 -58z" />
    <glyph glyph-name="otilde" unicode="&#xf5;" horiz-adv-x="684" 
d="M420 619q-28 0 -78 21t-64 21q-20 0 -31.5 -11.5t-23.5 -40.5l-55 16q16 61 40 88t64 27q28 0 78 -21q48 -20 64 -20q20 0 31.5 11t23.5 40l55 -16q-16 -61 -40 -88t-64 -27zM341 -12q-121 0 -202 82t-81 198v2q0 116 82 199.5t203 83.5t202 -82t81 -199v-2
q0 -116 -82 -199t-203 -83zM343 71q82 0 134.5 57t52.5 140v2q0 83 -54.5 141.5t-134.5 58.5q-82 0 -135 -57.5t-53 -140.5v-2q0 -83 54.5 -141t135.5 -58z" />
    <glyph glyph-name="odieresis" unicode="&#xf6;" horiz-adv-x="684" 
d="M196 619v106h104v-106h-104zM384 619v106h104v-106h-104zM341 -12q-121 0 -202 82t-81 198v2q0 116 82 199.5t203 83.5t202 -82t81 -199v-2q0 -116 -82 -199t-203 -83zM343 71q82 0 134.5 57t52.5 140v2q0 83 -54.5 141.5t-134.5 58.5q-82 0 -135 -57.5t-53 -140.5v-2
q0 -83 54.5 -141t135.5 -58z" />
    <glyph glyph-name="divide" unicode="&#xf7;" horiz-adv-x="661" 
d="M273 518v115h115v-115h-115zM586 324h-511v84h511v-84zM273 99v115h115v-115h-115z" />
    <glyph glyph-name="oslash" unicode="&#xf8;" horiz-adv-x="684" 
d="M551 548h91l-84 -92q68 -77 68 -184v-2q0 -116 -82 -199t-203 -83q-93 0 -166 51l-42 -44h-91l83 90q-67 76 -67 183v2q0 116 82 199.5t203 83.5q93 0 165 -52zM151 271q0 -68 36 -121l265 286q-49 36 -111 36q-84 0 -137 -58t-53 -142v-1zM343 68q83 0 136.5 58
t53.5 142v1q0 66 -37 121l-264 -287q49 -35 111 -35z" />
    <glyph glyph-name="ugrave" unicode="&#xf9;" horiz-adv-x="650" 
d="M286 619l-121 114l92 42l101 -156h-72zM285 -12q-95 0 -149 58.5t-54 155.5v339h94v-313q0 -72 37 -113t103 -41q65 0 107.5 44t42.5 115v308h93v-541h-93v91q-66 -103 -181 -103z" />
    <glyph glyph-name="uacute" unicode="&#xfa;" horiz-adv-x="650" 
d="M283 619l101 156l92 -42l-121 -114h-72zM285 -12q-95 0 -149 58.5t-54 155.5v339h94v-313q0 -72 37 -113t103 -41q65 0 107.5 44t42.5 115v308h93v-541h-93v91q-66 -103 -181 -103z" />
    <glyph glyph-name="ucircumflex" unicode="&#xfb;" horiz-adv-x="650" 
d="M164 619l114 141h84l114 -141h-78l-79 70l-79 -70h-76zM285 -12q-95 0 -149 58.5t-54 155.5v339h94v-313q0 -72 37 -113t103 -41q65 0 107.5 44t42.5 115v308h93v-541h-93v91q-66 -103 -181 -103z" />
    <glyph glyph-name="udieresis" unicode="&#xfc;" horiz-adv-x="650" 
d="M174 619v106h104v-106h-104zM362 619v106h104v-106h-104zM285 -12q-95 0 -149 58.5t-54 155.5v339h94v-313q0 -72 37 -113t103 -41q65 0 107.5 44t42.5 115v308h93v-541h-93v91q-66 -103 -181 -103z" />
    <glyph glyph-name="yacute" unicode="&#xfd;" horiz-adv-x="625" 
d="M277 619l101 156l92 -42l-121 -114h-72zM322 105l164 436h99l-223 -558q-34 -84 -75.5 -118.5t-104.5 -34.5q-59 0 -119 30l32 72q38 -20 81 -20q34 0 57 20t44 69l-240 540h102z" />
    <glyph glyph-name="thorn" unicode="&#xfe;" horiz-adv-x="701" 
d="M365 71q77 0 128.5 54t51.5 144v2q0 88 -52.5 143.5t-127.5 55.5q-74 0 -129 -56t-55 -142v-2q0 -87 55 -143t129 -56zM90 -166v925h94v-321q78 115 201 115q102 0 179 -77t77 -204v-2q0 -128 -76.5 -205t-179.5 -77q-123 0 -201 110v-264h-94z" />
    <glyph glyph-name="ydieresis" unicode="&#xff;" horiz-adv-x="625" 
d="M168 619v106h104v-106h-104zM356 619v106h104v-106h-104zM322 105l164 436h99l-223 -558q-34 -84 -75.5 -118.5t-104.5 -34.5q-59 0 -119 30l32 72q38 -20 81 -20q34 0 57 20t44 69l-240 540h102z" />
    <glyph glyph-name="Amacron" unicode="&#x100;" horiz-adv-x="830" 
d="M239 820v75h352v-75h-352zM259 274h308l-154 347zM41 0l329 733h90l328 -733h-102l-83 188h-380l-83 -188h-99z" />
    <glyph glyph-name="amacron" unicode="&#x101;" horiz-adv-x="612" 
d="M140 637v73h334v-73h-334zM271 61q72 0 121 38.5t49 98.5v47q-71 23 -148 23q-70 0 -109.5 -28t-39.5 -77v-2q0 -46 36.5 -73t90.5 -27zM250 -12q-81 0 -140 45t-59 123v2q0 84 62.5 129.5t166.5 45.5q83 0 160 -23v18q0 67 -40 102.5t-113 35.5q-80 0 -161 -38l-27 75
q101 46 199 46q116 0 176 -60q56 -56 56 -161v-328h-91v77q-70 -89 -189 -89z" />
    <glyph glyph-name="Abreve" unicode="&#x102;" horiz-adv-x="830" 
d="M415 799q-69 0 -113 33t-49 92h71q19 -53 91 -53t91 53h71q-5 -59 -49 -92t-113 -33zM259 274h308l-154 347zM41 0l329 733h90l328 -733h-102l-83 188h-380l-83 -188h-99z" />
    <glyph glyph-name="abreve" unicode="&#x103;" horiz-adv-x="612" 
d="M307 617q-68 0 -112 36t-49 100h67q21 -65 94 -65t94 65h67q-5 -64 -49 -100t-112 -36zM271 61q72 0 121 38.5t49 98.5v47q-71 23 -148 23q-70 0 -109.5 -28t-39.5 -77v-2q0 -46 36.5 -73t90.5 -27zM250 -12q-81 0 -140 45t-59 123v2q0 84 62.5 129.5t166.5 45.5
q83 0 160 -23v18q0 67 -40 102.5t-113 35.5q-80 0 -161 -38l-27 75q101 46 199 46q116 0 176 -60q56 -56 56 -161v-328h-91v77q-70 -89 -189 -89z" />
    <glyph glyph-name="Aogonek" unicode="&#x104;" horiz-adv-x="830" 
d="M796 -120v-51q-3 0 -9.5 -0.5t-8.5 -0.5q-65 1 -100 24.5t-35 61.5q0 42 47 86h-4l-83 188h-380l-83 -188h-99l329 733h90l328 -733h-24q-44 -40 -44 -73q0 -44 76 -47zM259 274h308l-154 347z" />
    <glyph glyph-name="aogonek" unicode="&#x105;" horiz-adv-x="612" 
d="M523 -172q-65 1 -100 24.5t-35 61.5q0 42 51 90v73q-70 -89 -189 -89q-81 0 -140 45t-59 123v2q0 84 62.5 129.5t166.5 45.5q83 0 160 -23v18q0 67 -40 102.5t-113 35.5q-80 0 -161 -38l-27 75q101 46 199 46q116 0 176 -60q56 -56 56 -161v-328h-21q-44 -40 -44 -73
q0 -44 76 -47v-51q-3 0 -9.5 -0.5t-8.5 -0.5zM271 61q72 0 121 38.5t49 98.5v47q-71 23 -148 23q-70 0 -109.5 -28t-39.5 -77v-2q0 -46 36.5 -73t90.5 -27z" />
    <glyph glyph-name="Cacute" unicode="&#x106;" horiz-adv-x="779" 
d="M394 801l109 139l91 -41l-123 -98h-77zM438 -12q-157 0 -261.5 108t-104.5 266v2q0 157 105 266.5t265 109.5q93 0 158.5 -29t125.5 -85l-63 -71q-104 97 -222 97q-115 0 -192 -82.5t-77 -203.5v-2q0 -121 77 -204.5t192 -83.5q69 0 121 25t106 77l63 -62
q-62 -63 -130 -95.5t-163 -32.5z" />
    <glyph glyph-name="cacute" unicode="&#x107;" horiz-adv-x="602" 
d="M293 619l101 156l92 -42l-121 -114h-72zM336 -12q-118 0 -198 82t-80 198v2q0 116 80.5 199.5t198.5 83.5q125 0 216 -96l-60 -64q-75 77 -157 77q-77 0 -130 -58t-53 -140v-2q0 -84 54 -141.5t134 -57.5q84 0 158 76l58 -56q-93 -103 -221 -103z" />
    <glyph glyph-name="Cdotaccent" unicode="&#x10a;" horiz-adv-x="779" 
d="M378 801v101h110v-101h-110zM438 -12q-157 0 -261.5 108t-104.5 266v2q0 157 105 266.5t265 109.5q93 0 158.5 -29t125.5 -85l-63 -71q-104 97 -222 97q-115 0 -192 -82.5t-77 -203.5v-2q0 -121 77 -204.5t192 -83.5q69 0 121 25t106 77l63 -62q-62 -63 -130 -95.5
t-163 -32.5z" />
    <glyph glyph-name="cdotaccent" unicode="&#x10b;" horiz-adv-x="602" 
d="M277 619v107h108v-107h-108zM336 -12q-118 0 -198 82t-80 198v2q0 116 80.5 199.5t198.5 83.5q125 0 216 -96l-60 -64q-75 77 -157 77q-77 0 -130 -58t-53 -140v-2q0 -84 54 -141.5t134 -57.5q84 0 158 76l58 -56q-93 -103 -221 -103z" />
    <glyph glyph-name="Ccaron" unicode="&#x10c;" horiz-adv-x="779" 
d="M595 929l-118 -128h-88l-118 128h85l78 -61l78 61h83zM438 -12q-157 0 -261.5 108t-104.5 266v2q0 157 105 266.5t265 109.5q93 0 158.5 -29t125.5 -85l-63 -71q-104 97 -222 97q-115 0 -192 -82.5t-77 -203.5v-2q0 -121 77 -204.5t192 -83.5q69 0 121 25t106 77l63 -62
q-62 -63 -130 -95.5t-163 -32.5z" />
    <glyph glyph-name="ccaron" unicode="&#x10d;" horiz-adv-x="602" 
d="M487 760l-114 -141h-84l-114 141h78l79 -70l79 70h76zM336 -12q-118 0 -198 82t-80 198v2q0 116 80.5 199.5t198.5 83.5q125 0 216 -96l-60 -64q-75 77 -157 77q-77 0 -130 -58t-53 -140v-2q0 -84 54 -141.5t134 -57.5q84 0 158 76l58 -56q-93 -103 -221 -103z" />
    <glyph glyph-name="Dcaron" unicode="&#x10e;" horiz-adv-x="821" 
d="M557 919l-118 -128h-88l-118 128h85l78 -61l78 61h83zM104 0v728h259q170 0 278.5 -103.5t108.5 -258.5v-2q0 -156 -108.5 -260t-278.5 -104h-259zM363 640h-163v-552h163q129 0 207.5 77.5t78.5 196.5v2q0 119 -79 197.5t-207 78.5z" />
    <glyph glyph-name="dcaron" unicode="&#x10f;" horiz-adv-x="701" 
d="M674 580l15 179h84v-3l-55 -176h-44zM335 71q75 0 129.5 56t54.5 143v2q0 86 -55 142t-129 56q-76 0 -127.5 -54t-51.5 -144v-2q0 -88 52.5 -143.5t126.5 -55.5zM316 -12q-103 0 -179.5 77t-76.5 204v2q0 128 76.5 205t179.5 77q121 0 201 -110v316h93v-759h-93v103
q-80 -115 -201 -115z" />
    <glyph glyph-name="Dcroat" unicode="&#x110;" horiz-adv-x="852" 
d="M135 0v329h-78v74h78v325h259q170 0 278.5 -103.5t108.5 -258.5v-2q0 -156 -108.5 -260t-278.5 -104h-259zM439 329h-207v-241h162q129 0 207.5 77.5t78.5 196.5v2q0 119 -79 197.5t-207 78.5h-162v-237h207v-74z" />
    <glyph glyph-name="dcroat" unicode="&#x111;" horiz-adv-x="701" 
d="M335 71q75 0 129.5 56t54.5 143v2q0 86 -55 142t-129 56q-76 0 -127.5 -54t-51.5 -144v-2q0 -88 52.5 -143.5t126.5 -55.5zM337 632v64h180v63h93v-63h72v-64h-72v-632h-93v103q-80 -115 -201 -115q-103 0 -179.5 77t-76.5 204v2q0 128 76.5 205t179.5 77q121 0 201 -110
v189h-180z" />
    <glyph glyph-name="Emacron" unicode="&#x112;" horiz-adv-x="705" 
d="M195 810v75h352v-75h-352zM104 0v728h530v-87h-434v-231h387v-87h-387v-236h439v-87h-535z" />
    <glyph glyph-name="emacron" unicode="&#x113;" horiz-adv-x="627" 
d="M151 637v73h334v-73h-334zM330 -12q-115 0 -193.5 78.5t-78.5 202.5v2q0 118 74.5 200t186.5 82q119 0 187 -82t68 -206q0 -7 -2 -29h-419q9 -79 59 -124t120 -45q93 0 164 73l57 -51q-88 -101 -223 -101zM152 303h327q-6 74 -48 122.5t-113 48.5q-67 0 -112.5 -48
t-53.5 -123z" />
    <glyph glyph-name="Ebreve" unicode="&#x114;" horiz-adv-x="705" 
d="M371 789q-69 0 -113 33t-49 92h71q19 -53 91 -53t91 53h71q-5 -59 -49 -92t-113 -33zM104 0v728h530v-87h-434v-231h387v-87h-387v-236h439v-87h-535z" />
    <glyph glyph-name="ebreve" unicode="&#x115;" horiz-adv-x="627" 
d="M318 617q-68 0 -112 36t-49 100h67q21 -65 94 -65t94 65h67q-5 -64 -49 -100t-112 -36zM330 -12q-115 0 -193.5 78.5t-78.5 202.5v2q0 118 74.5 200t186.5 82q119 0 187 -82t68 -206q0 -7 -2 -29h-419q9 -79 59 -124t120 -45q93 0 164 73l57 -51q-88 -101 -223 -101z
M152 303h327q-6 74 -48 122.5t-113 48.5q-67 0 -112.5 -48t-53.5 -123z" />
    <glyph glyph-name="Edotaccent" unicode="&#x116;" horiz-adv-x="705" 
d="M316 791v101h110v-101h-110zM104 0v728h530v-87h-434v-231h387v-87h-387v-236h439v-87h-535z" />
    <glyph glyph-name="edotaccent" unicode="&#x117;" horiz-adv-x="627" 
d="M264 619v107h108v-107h-108zM330 -12q-115 0 -193.5 78.5t-78.5 202.5v2q0 118 74.5 200t186.5 82q119 0 187 -82t68 -206q0 -7 -2 -29h-419q9 -79 59 -124t120 -45q93 0 164 73l57 -51q-88 -101 -223 -101zM152 303h327q-6 74 -48 122.5t-113 48.5q-67 0 -112.5 -48
t-53.5 -123z" />
    <glyph glyph-name="Eogonek" unicode="&#x118;" horiz-adv-x="705" 
d="M104 0v728h530v-87h-434v-231h387v-87h-387v-236h439v-87h-33q-44 -40 -44 -73q0 -44 76 -47v-51q-3 0 -9.5 -0.5t-8.5 -0.5q-65 1 -100 24.5t-35 61.5q0 42 47 86h-428z" />
    <glyph glyph-name="eogonek" unicode="&#x119;" horiz-adv-x="627" 
d="M496 140l57 -51q-24 -26 -57 -55q-68 -59 -68 -101q0 -49 77 -53v-51q-4 0 -10 -0.5t-9 -0.5q-65 1 -99.5 24.5t-34.5 62.5q0 38 37 78q-28 -5 -59 -5q-115 0 -193.5 78.5t-78.5 202.5v2q0 118 74.5 200t186.5 82q119 0 187 -82t68 -206q0 -7 -2 -29h-419q9 -79 59 -124
t120 -45q93 0 164 73zM152 303h327q-6 74 -48 122.5t-113 48.5q-67 0 -112.5 -48t-53.5 -123z" />
    <glyph glyph-name="Ecaron" unicode="&#x11a;" horiz-adv-x="705" 
d="M533 919l-118 -128h-88l-118 128h85l78 -61l78 61h83zM104 0v728h530v-87h-434v-231h387v-87h-387v-236h439v-87h-535z" />
    <glyph glyph-name="ecaron" unicode="&#x11b;" horiz-adv-x="627" 
d="M474 760l-114 -141h-84l-114 141h78l79 -70l79 70h76zM330 -12q-115 0 -193.5 78.5t-78.5 202.5v2q0 118 74.5 200t186.5 82q119 0 187 -82t68 -206q0 -7 -2 -29h-419q9 -79 59 -124t120 -45q93 0 164 73l57 -51q-88 -101 -223 -101zM152 303h327q-6 74 -48 122.5
t-113 48.5q-67 0 -112.5 -48t-53.5 -123z" />
    <glyph glyph-name="Gbreve" unicode="&#x11e;" horiz-adv-x="823" 
d="M432 799q-69 0 -113 33t-49 92h71q19 -53 91 -53t91 53h71q-5 -59 -49 -92t-113 -33zM444 -12q-168 0 -270 107t-102 267v2q0 155 104 265.5t264 110.5q89 0 152 -24t122 -73l-61 -73q-47 41 -97 61.5t-120 20.5q-112 0 -188 -84t-76 -202v-2q0 -127 75.5 -208.5
t200.5 -81.5q115 0 199 68v167h-210v85h303v-295q-128 -111 -296 -111z" />
    <glyph glyph-name="gbreve" unicode="&#x11f;" horiz-adv-x="701" 
d="M355 617q-68 0 -112 36t-49 100h67q21 -65 94 -65t94 65h67q-5 -64 -49 -100t-112 -36zM333 124q75 0 130.5 49t55.5 123v2q0 76 -55.5 124.5t-130.5 48.5t-126 -47.5t-51 -124.5v-2q0 -76 51.5 -124.5t125.5 -48.5zM330 -168q-136 0 -245 71l40 73q94 -65 204 -65
q89 0 138.5 47t49.5 137v57q-82 -110 -205 -110q-102 0 -177 70.5t-75 183.5v2q0 114 75.5 184.5t176.5 70.5q124 0 205 -105v93h93v-441q0 -129 -69 -196q-72 -72 -211 -72z" />
    <glyph glyph-name="Gdotaccent" unicode="&#x120;" horiz-adv-x="823" 
d="M377 801v101h110v-101h-110zM444 -12q-168 0 -270 107t-102 267v2q0 155 104 265.5t264 110.5q89 0 152 -24t122 -73l-61 -73q-47 41 -97 61.5t-120 20.5q-112 0 -188 -84t-76 -202v-2q0 -127 75.5 -208.5t200.5 -81.5q115 0 199 68v167h-210v85h303v-295
q-128 -111 -296 -111z" />
    <glyph glyph-name="gdotaccent" unicode="&#x121;" horiz-adv-x="701" 
d="M301 619v107h108v-107h-108zM333 124q75 0 130.5 49t55.5 123v2q0 76 -55.5 124.5t-130.5 48.5t-126 -47.5t-51 -124.5v-2q0 -76 51.5 -124.5t125.5 -48.5zM330 -168q-136 0 -245 71l40 73q94 -65 204 -65q89 0 138.5 47t49.5 137v57q-82 -110 -205 -110
q-102 0 -177 70.5t-75 183.5v2q0 114 75.5 184.5t176.5 70.5q124 0 205 -105v93h93v-441q0 -129 -69 -196q-72 -72 -211 -72z" />
    <glyph glyph-name="Gcommaaccent" unicode="&#x122;" horiz-adv-x="823" 
d="M444 -12q-168 0 -270 107t-102 267v2q0 155 104 265.5t264 110.5q89 0 152 -24t122 -73l-61 -73q-47 41 -97 61.5t-120 20.5q-112 0 -188 -84t-76 -202v-2q0 -127 75.5 -208.5t200.5 -81.5q115 0 199 68v167h-210v85h303v-295q-128 -111 -296 -111zM368 -264l-7 34
q36 6 52 22t14 43h-46v92h102v-79q0 -101 -115 -112z" />
    <glyph glyph-name="gcommaaccent" unicode="&#x123;" horiz-adv-x="701" 
d="M418 810l7 -34q-36 -6 -52 -21.5t-14 -43.5h46v-92h-103v79q0 103 116 112zM333 124q75 0 130.5 49t55.5 123v2q0 76 -55.5 124.5t-130.5 48.5t-126 -47.5t-51 -124.5v-2q0 -76 51.5 -124.5t125.5 -48.5zM330 -168q-136 0 -245 71l40 73q94 -65 204 -65q89 0 138.5 47
t49.5 137v57q-82 -110 -205 -110q-102 0 -177 70.5t-75 183.5v2q0 114 75.5 184.5t176.5 70.5q124 0 205 -105v93h93v-441q0 -129 -69 -196q-72 -72 -211 -72z" />
    <glyph glyph-name="Hbar" unicode="&#x126;" horiz-adv-x="836" 
d="M219 407h398v124h-398v-124zM47 531v71h76v126h96v-126h398v126h96v-126h76v-71h-76v-531h-96v318h-398v-318h-96v531h-76z" />
    <glyph glyph-name="hbar" unicode="&#x127;" horiz-adv-x="650" 
d="M364 632h-180v-182q66 103 180 103q95 0 149 -58.5t54 -155.5v-339h-94v313q0 72 -36.5 113t-102.5 41q-65 0 -107.5 -43.5t-42.5 -115.5v-308h-94v632h-72v64h72v63h94v-63h180v-64z" />
    <glyph glyph-name="Imacron" unicode="&#x12a;" horiz-adv-x="319" 
d="M-17 810v75h352v-75h-352zM111 0v728h97v-728h-97z" />
    <glyph glyph-name="imacron" unicode="&#x12b;" horiz-adv-x="289" 
d="M-23 637v73h334v-73h-334zM98 0v541h93v-541h-93z" />
    <glyph glyph-name="Ibreve" unicode="&#x12c;" horiz-adv-x="319" 
d="M159 789q-69 0 -113 33t-49 92h71q19 -53 91 -53t91 53h71q-5 -59 -49 -92t-113 -33zM111 0v728h97v-728h-97z" />
    <glyph glyph-name="ibreve" unicode="&#x12d;" horiz-adv-x="289" 
d="M144 617q-68 0 -112 36t-49 100h67q21 -65 94 -65t94 65h67q-5 -64 -49 -100t-112 -36zM98 0v541h93v-541h-93z" />
    <glyph glyph-name="Iogonek" unicode="&#x12e;" horiz-adv-x="319" 
d="M111 0v728h97v-728h-16q-44 -40 -44 -73q0 -44 76 -47v-51q-3 0 -9.5 -0.5t-8.5 -0.5q-65 1 -100 24.5t-35 61.5q0 42 47 86h-7z" />
    <glyph glyph-name="iogonek" unicode="&#x12f;" horiz-adv-x="289" 
d="M92 649v98h105v-98h-105zM98 0v541h93v-541h-14q-44 -40 -44 -73q0 -44 76 -47v-51q-3 0 -9.5 -0.5t-8.5 -0.5q-65 1 -100 24.5t-35 61.5q0 42 47 86h-5z" />
    <glyph glyph-name="Idotaccent" unicode="&#x130;" horiz-adv-x="319" 
d="M104 791v101h110v-101h-110zM111 0v728h97v-728h-97z" />
    <glyph glyph-name="dotlessi" unicode="&#x131;" horiz-adv-x="289" 
d="M98 0v541h93v-541h-93z" />
    <glyph glyph-name="Kcommaaccent" unicode="&#x136;" horiz-adv-x="758" 
d="M104 0v728h96v-414l396 414h123l-310 -316l323 -412h-119l-270 345l-143 -145v-200h-96zM318 -257l-7 34q36 6 52 22t14 43h-46v92h102v-79q0 -101 -115 -112z" />
    <glyph glyph-name="kcommaaccent" unicode="&#x137;" horiz-adv-x="604" 
d="M90 0v759h94v-503l271 285h117l-224 -229l231 -312h-112l-183 247l-100 -102v-145h-94zM252 -262l-7 34q36 6 52 22t14 43h-46v92h102v-79q0 -101 -115 -112z" />
    <glyph glyph-name="Lacute" unicode="&#x139;" horiz-adv-x="649" 
d="M126 791l109 139l91 -41l-123 -98h-77zM104 0v728h96v-640h402v-88h-498z" />
    <glyph glyph-name="lacute" unicode="&#x13a;" horiz-adv-x="289" 
d="M107 812l109 139l91 -41l-123 -98h-77zM98 0v759h93v-759h-93z" />
    <glyph glyph-name="Lcommaaccent" unicode="&#x13b;" horiz-adv-x="649" 
d="M104 0v728h96v-640h402v-88h-498zM285 -262l-7 34q36 6 52 22t14 43h-46v92h102v-79q0 -101 -115 -112z" />
    <glyph glyph-name="lcommaaccent" unicode="&#x13c;" horiz-adv-x="289" 
d="M98 0v759h93v-759h-93zM80 -262l-7 34q36 6 52 22t14 43h-46v92h102v-79q0 -101 -115 -112z" />
    <glyph glyph-name="Lcaron" unicode="&#x13d;" horiz-adv-x="649" 
d="M292 549l15 179h84v-3l-55 -176h-44zM104 0v728h96v-640h402v-88h-498z" />
    <glyph glyph-name="lcaron" unicode="&#x13e;" horiz-adv-x="289" 
d="M98 0v759h93v-759h-93zM255 580l15 179h84v-3l-55 -176h-44z" />
    <glyph glyph-name="Ldot" unicode="&#x13f;" horiz-adv-x="649" 
d="M104 0v728h96v-640h402v-88h-498zM436 332v107h105v-107h-105z" />
    <glyph glyph-name="ldot" unicode="&#x140;" horiz-adv-x="364" 
d="M98 0v759h93v-759h-93zM276 334v103h94v-103h-94z" />
    <glyph glyph-name="Lslash" unicode="&#x141;" horiz-adv-x="680" 
d="M410 412l-180 -83v-241h403v-88h-498v285l-78 -35v93l78 35v350h95v-307l180 84v-93z" />
    <glyph glyph-name="lslash" unicode="&#x142;" horiz-adv-x="351" 
d="M301 405l-79 -42v-363h-93v314l-79 -42v93l79 41v353h93v-304l79 42v-92z" />
    <glyph glyph-name="Nacute" unicode="&#x143;" horiz-adv-x="830" 
d="M376 788l109 139l91 -41l-123 -98h-77zM104 0v728h89l438 -559v559h95v-728h-79l-449 573v-573h-94z" />
    <glyph glyph-name="nacute" unicode="&#x144;" horiz-adv-x="650" 
d="M291 619l101 156l92 -42l-121 -114h-72zM90 0v541h94v-91q66 103 180 103q95 0 149 -58.5t54 -155.5v-339h-94v313q0 72 -36.5 113t-102.5 41q-65 0 -107.5 -43.5t-42.5 -115.5v-308h-94z" />
    <glyph glyph-name="Ncommaaccent" unicode="&#x145;" horiz-adv-x="830" 
d="M104 0v728h89l438 -559v559h95v-728h-79l-449 573v-573h-94zM350 -257l-7 34q36 6 52 22t14 43h-46v92h102v-79q0 -101 -115 -112z" />
    <glyph glyph-name="ncommaaccent" unicode="&#x146;" horiz-adv-x="650" 
d="M90 0v541h94v-91q66 103 180 103q95 0 149 -58.5t54 -155.5v-339h-94v313q0 72 -36.5 113t-102.5 41q-65 0 -107.5 -43.5t-42.5 -115.5v-308h-94zM264 -262l-7 34q36 6 52 22t14 43h-46v92h102v-79q0 -101 -115 -112z" />
    <glyph glyph-name="Ncaron" unicode="&#x147;" horiz-adv-x="830" 
d="M577 916l-118 -128h-88l-118 128h85l78 -61l78 61h83zM104 0v728h89l438 -559v559h95v-728h-79l-449 573v-573h-94z" />
    <glyph glyph-name="ncaron" unicode="&#x148;" horiz-adv-x="650" 
d="M484 760l-114 -141h-84l-114 141h78l79 -70l79 70h76zM90 0v541h94v-91q66 103 180 103q95 0 149 -58.5t54 -155.5v-339h-94v313q0 72 -36.5 113t-102.5 41q-65 0 -107.5 -43.5t-42.5 -115.5v-308h-94z" />
    <glyph glyph-name="Omacron" unicode="&#x14c;" horiz-adv-x="892" 
d="M270 820v75h352v-75h-352zM445 -12q-163 0 -268 109.5t-105 264.5v2q0 155 106 265.5t269 110.5t268 -109.5t105 -264.5v-2q0 -155 -106 -265.5t-269 -110.5zM447 76q118 0 195.5 83t77.5 203v2q0 120 -78.5 204t-196.5 84t-195.5 -83t-77.5 -203v-2q0 -120 78.5 -204
t196.5 -84z" />
    <glyph glyph-name="omacron" unicode="&#x14d;" horiz-adv-x="684" 
d="M175 637v73h334v-73h-334zM341 -12q-121 0 -202 82t-81 198v2q0 116 82 199.5t203 83.5t202 -82t81 -199v-2q0 -116 -82 -199t-203 -83zM343 71q82 0 134.5 57t52.5 140v2q0 83 -54.5 141.5t-134.5 58.5q-82 0 -135 -57.5t-53 -140.5v-2q0 -83 54.5 -141t135.5 -58z" />
    <glyph glyph-name="Obreve" unicode="&#x14e;" horiz-adv-x="892" 
d="M446 799q-69 0 -113 33t-49 92h71q19 -53 91 -53t91 53h71q-5 -59 -49 -92t-113 -33zM445 -12q-163 0 -268 109.5t-105 264.5v2q0 155 106 265.5t269 110.5t268 -109.5t105 -264.5v-2q0 -155 -106 -265.5t-269 -110.5zM447 76q118 0 195.5 83t77.5 203v2q0 120 -78.5 204
t-196.5 84t-195.5 -83t-77.5 -203v-2q0 -120 78.5 -204t196.5 -84z" />
    <glyph glyph-name="obreve" unicode="&#x14f;" horiz-adv-x="684" 
d="M342 617q-68 0 -112 36t-49 100h67q21 -65 94 -65t94 65h67q-5 -64 -49 -100t-112 -36zM341 -12q-121 0 -202 82t-81 198v2q0 116 82 199.5t203 83.5t202 -82t81 -199v-2q0 -116 -82 -199t-203 -83zM343 71q82 0 134.5 57t52.5 140v2q0 83 -54.5 141.5t-134.5 58.5
q-82 0 -135 -57.5t-53 -140.5v-2q0 -83 54.5 -141t135.5 -58z" />
    <glyph glyph-name="Ohungarumlaut" unicode="&#x150;" horiz-adv-x="892" 
d="M482 801l108 139l89 -41l-123 -98h-74zM315 801l109 139l89 -41l-123 -98h-75zM445 -12q-163 0 -268 109.5t-105 264.5v2q0 155 106 265.5t269 110.5t268 -109.5t105 -264.5v-2q0 -155 -106 -265.5t-269 -110.5zM447 76q118 0 195.5 83t77.5 203v2q0 120 -78.5 204
t-196.5 84t-195.5 -83t-77.5 -203v-2q0 -120 78.5 -204t196.5 -84z" />
    <glyph glyph-name="ohungarumlaut" unicode="&#x151;" horiz-adv-x="684" 
d="M216 619l100 156l88 -41l-117 -115h-71zM377 619l102 156l88 -41l-118 -115h-72zM341 -12q-121 0 -202 82t-81 198v2q0 116 82 199.5t203 83.5t202 -82t81 -199v-2q0 -116 -82 -199t-203 -83zM343 71q82 0 134.5 57t52.5 140v2q0 83 -54.5 141.5t-134.5 58.5
q-82 0 -135 -57.5t-53 -140.5v-2q0 -83 54.5 -141t135.5 -58z" />
    <glyph glyph-name="OE" unicode="&#x152;" horiz-adv-x="1174" 
d="M458 0q-169 0 -277.5 103.5t-108.5 258.5v2q0 156 108.5 260t277.5 104h645v-87h-414v-231h368v-87h-368v-236h420v-87h-651zM458 88h135v552h-135q-129 0 -207.5 -77.5t-78.5 -196.5v-2q0 -119 79 -197.5t207 -78.5z" />
    <glyph glyph-name="oe" unicode="&#x153;" horiz-adv-x="1096" 
d="M336 -12q-116 0 -197 82.5t-81 197.5v2q0 116 81.5 199.5t200.5 83.5q75 0 135.5 -36.5t94.5 -98.5q33 62 90 98.5t128 36.5q118 0 186 -82.5t68 -205.5q0 -18 -1 -29h-419q8 -79 58 -124t121 -45q92 0 163 73l58 -51q-89 -101 -222 -101q-73 0 -134.5 36t-96.5 99
q-34 -61 -95.5 -98t-137.5 -37zM621 303h326q-6 74 -48 122.5t-113 48.5q-66 0 -111.5 -48t-53.5 -123zM341 71q81 0 133 57t52 140v2q0 83 -53.5 141.5t-133.5 58.5q-81 0 -133.5 -58t-52.5 -140v-2q0 -83 54 -141t134 -58z" />
    <glyph glyph-name="Racute" unicode="&#x154;" horiz-adv-x="760" 
d="M331 791l109 139l91 -41l-123 -98h-77zM200 360h213q79 0 127.5 38t48.5 103v2q0 65 -46.5 101t-129.5 36h-213v-280zM104 0v728h316q137 0 208 -73q58 -56 58 -147v-2q0 -87 -51.5 -142t-138.5 -73l215 -291h-116l-201 274h-194v-274h-96z" />
    <glyph glyph-name="racute" unicode="&#x155;" horiz-adv-x="431" 
d="M193 619l101 156l92 -42l-121 -114h-72zM90 0v541h94v-135q30 68 85 108t127 36v-99h-6q-91 0 -148.5 -62t-57.5 -176v-213h-94z" />
    <glyph glyph-name="Rcommaaccent" unicode="&#x156;" horiz-adv-x="760" 
d="M200 360h213q79 0 127.5 38t48.5 103v2q0 65 -46.5 101t-129.5 36h-213v-280zM104 0v728h316q137 0 208 -73q58 -56 58 -147v-2q0 -87 -51.5 -142t-138.5 -73l215 -291h-116l-201 274h-194v-274h-96zM305 -257l-7 34q36 6 52 22t14 43h-46v92h102v-79q0 -101 -115 -112z
" />
    <glyph glyph-name="rcommaaccent" unicode="&#x157;" horiz-adv-x="431" 
d="M90 0v541h94v-135q30 68 85 108t127 36v-99h-6q-91 0 -148.5 -62t-57.5 -176v-213h-94zM80 -262l-7 34q36 6 52 22t14 43h-46v92h102v-79q0 -101 -115 -112z" />
    <glyph glyph-name="Rcaron" unicode="&#x158;" horiz-adv-x="760" 
d="M532 919l-118 -128h-88l-118 128h85l78 -61l78 61h83zM200 360h213q79 0 127.5 38t48.5 103v2q0 65 -46.5 101t-129.5 36h-213v-280zM104 0v728h316q137 0 208 -73q58 -56 58 -147v-2q0 -87 -51.5 -142t-138.5 -73l215 -291h-116l-201 274h-194v-274h-96z" />
    <glyph glyph-name="rcaron" unicode="&#x159;" horiz-adv-x="431" 
d="M387 760l-114 -141h-84l-114 141h78l79 -70l79 70h76zM90 0v541h94v-135q30 68 85 108t127 36v-99h-6q-91 0 -148.5 -62t-57.5 -176v-213h-94z" />
    <glyph glyph-name="Sacute" unicode="&#x15a;" horiz-adv-x="674" 
d="M304 801l109 139l91 -41l-123 -98h-77zM355 -10q-170 0 -299 116l59 70q112 -100 243 -100q69 0 111 31.5t42 82.5v2q0 49 -37.5 77.5t-144.5 52.5q-129 28 -186.5 75t-57.5 137v2q0 88 68.5 145t173.5 57q147 0 258 -90l-54 -74q-97 78 -206 78q-65 0 -104.5 -30.5
t-39.5 -76.5v-2q0 -51 39 -80t151 -54q123 -28 179.5 -76t56.5 -132v-2q0 -95 -70 -152t-182 -57z" />
    <glyph glyph-name="sacute" unicode="&#x15b;" horiz-adv-x="527" 
d="M229 619l101 156l92 -42l-121 -114h-72zM271 -10q-125 0 -226 79l46 66q91 -68 184 -68q46 0 74.5 21t28.5 56v2q0 18 -9.5 32t-31 25t-39 17.5t-50.5 15.5q-40 12 -64 21t-53.5 26.5t-44 44t-14.5 62.5v2q0 72 52.5 115.5t134.5 43.5q104 0 196 -61l-41 -69
q-83 52 -158 52q-44 0 -70 -20t-26 -51v-2q0 -14 8.5 -26t18 -19.5t31.5 -16.5t34.5 -13t41.5 -13q38 -12 63 -22t53.5 -28t42.5 -44t14 -61v-2q0 -78 -55 -121.5t-141 -43.5z" />
    <glyph glyph-name="Scedilla" unicode="&#x15e;" horiz-adv-x="674" 
d="M314 -164l-87 38l80 119q-141 14 -251 113l59 70q112 -100 243 -100q69 0 111 31.5t42 82.5v2q0 49 -37.5 77.5t-144.5 52.5q-129 28 -186.5 75t-57.5 137v2q0 88 68.5 145t173.5 57q147 0 258 -90l-54 -74q-97 78 -206 78q-65 0 -104.5 -30.5t-39.5 -76.5v-2
q0 -51 39 -80t151 -54q123 -28 179.5 -76t56.5 -132v-2q0 -89 -61.5 -144.5t-161.5 -63.5z" />
    <glyph glyph-name="scedilla" unicode="&#x15f;" horiz-adv-x="527" 
d="M226 -164l-87 38l81 120q-99 14 -175 75l46 66q91 -68 184 -68q46 0 74.5 21t28.5 56v2q0 18 -9.5 32t-31 25t-39 17.5t-50.5 15.5q-40 12 -64 21t-53.5 26.5t-44 44t-14.5 62.5v2q0 72 52.5 115.5t134.5 43.5q104 0 196 -61l-41 -69q-83 52 -158 52q-44 0 -70 -20
t-26 -51v-2q0 -14 8.5 -26t18 -19.5t31.5 -16.5t34.5 -13t41.5 -13q38 -12 63 -22t53.5 -28t42.5 -44t14 -61v-2q0 -72 -47.5 -115t-123.5 -49z" />
    <glyph glyph-name="Scaron" unicode="&#x160;" horiz-adv-x="674" 
d="M505 929l-118 -128h-88l-118 128h85l78 -61l78 61h83zM355 -10q-170 0 -299 116l59 70q112 -100 243 -100q69 0 111 31.5t42 82.5v2q0 49 -37.5 77.5t-144.5 52.5q-129 28 -186.5 75t-57.5 137v2q0 88 68.5 145t173.5 57q147 0 258 -90l-54 -74q-97 78 -206 78
q-65 0 -104.5 -30.5t-39.5 -76.5v-2q0 -51 39 -80t151 -54q123 -28 179.5 -76t56.5 -132v-2q0 -95 -70 -152t-182 -57z" />
    <glyph glyph-name="scaron" unicode="&#x161;" horiz-adv-x="527" 
d="M423 760l-114 -141h-84l-114 141h78l79 -70l79 70h76zM271 -10q-125 0 -226 79l46 66q91 -68 184 -68q46 0 74.5 21t28.5 56v2q0 18 -9.5 32t-31 25t-39 17.5t-50.5 15.5q-40 12 -64 21t-53.5 26.5t-44 44t-14.5 62.5v2q0 72 52.5 115.5t134.5 43.5q104 0 196 -61
l-41 -69q-83 52 -158 52q-44 0 -70 -20t-26 -51v-2q0 -14 8.5 -26t18 -19.5t31.5 -16.5t34.5 -13t41.5 -13q38 -12 63 -22t53.5 -28t42.5 -44t14 -61v-2q0 -78 -55 -121.5t-141 -43.5z" />
    <glyph glyph-name="Tcommaaccent" unicode="&#x162;" horiz-adv-x="676" 
d="M290 0v639h-241v89h578v-89h-241v-639h-96zM273 -262l-7 34q36 6 52 22t14 43h-46v92h102v-79q0 -101 -115 -112z" />
    <glyph glyph-name="tcommaaccent" unicode="&#x163;" horiz-adv-x="430" 
d="M272 -9q-71 0 -112.5 37t-41.5 117v314h-73v82h73v159h93v-159h164v-82h-164v-301q0 -83 84 -83q39 0 78 19v-79q-43 -24 -101 -24zM173 -262l-7 34q36 6 52 22t14 43h-46v92h102v-79q0 -101 -115 -112z" />
    <glyph glyph-name="Tcaron" unicode="&#x164;" horiz-adv-x="676" 
d="M500 919l-118 -128h-88l-118 128h85l78 -61l78 61h83zM290 0v639h-241v89h578v-89h-241v-639h-96z" />
    <glyph glyph-name="tcaron" unicode="&#x165;" horiz-adv-x="430" 
d="M296 609l15 179h84v-3l-55 -176h-44zM272 -9q-71 0 -112.5 37t-41.5 117v314h-73v82h73v159h93v-159h164v-82h-164v-301q0 -83 84 -83q39 0 78 19v-79q-43 -24 -101 -24z" />
    <glyph glyph-name="Umacron" unicode="&#x16a;" horiz-adv-x="797" 
d="M222 807v75h352v-75h-352zM398 -11q-141 0 -223.5 82t-82.5 235v422h97v-417q0 -112 55.5 -173t155.5 -61q97 0 152.5 58.5t55.5 170.5v422h96v-416q0 -156 -82.5 -239.5t-223.5 -83.5z" />
    <glyph glyph-name="umacron" unicode="&#x16b;" horiz-adv-x="650" 
d="M153 637v73h334v-73h-334zM285 -12q-95 0 -149 58.5t-54 155.5v339h94v-313q0 -72 37 -113t103 -41q65 0 107.5 44t42.5 115v308h93v-541h-93v91q-66 -103 -181 -103z" />
    <glyph glyph-name="Ubreve" unicode="&#x16c;" horiz-adv-x="797" 
d="M398 782q-69 0 -113 33t-49 92h71q19 -53 91 -53t91 53h71q-5 -59 -49 -92t-113 -33zM398 -11q-141 0 -223.5 82t-82.5 235v422h97v-417q0 -112 55.5 -173t155.5 -61q97 0 152.5 58.5t55.5 170.5v422h96v-416q0 -156 -82.5 -239.5t-223.5 -83.5z" />
    <glyph glyph-name="ubreve" unicode="&#x16d;" horiz-adv-x="650" 
d="M320 617q-68 0 -112 36t-49 100h67q21 -65 94 -65t94 65h67q-5 -64 -49 -100t-112 -36zM285 -12q-95 0 -149 58.5t-54 155.5v339h94v-313q0 -72 37 -113t103 -41q65 0 107.5 44t42.5 115v308h93v-541h-93v91q-66 -103 -181 -103z" />
    <glyph glyph-name="Uring" unicode="&#x16e;" horiz-adv-x="797" 
d="M398 769q-49 0 -83.5 30.5t-34.5 74.5q0 45 34.5 75t83.5 30t83.5 -30t34.5 -75q0 -44 -34.5 -74.5t-83.5 -30.5zM398 812q30 0 49.5 18t19.5 44q0 27 -19.5 45t-49.5 18t-49.5 -18t-19.5 -45q0 -26 19.5 -44t49.5 -18zM398 -11q-141 0 -223.5 82t-82.5 235v422h97v-417
q0 -112 55.5 -173t155.5 -61q97 0 152.5 58.5t55.5 170.5v422h96v-416q0 -156 -82.5 -239.5t-223.5 -83.5z" />
    <glyph glyph-name="uring" unicode="&#x16f;" horiz-adv-x="650" 
d="M320 605q-47 0 -81 32.5t-34 78.5t34 78.5t81 32.5t81 -32.5t34 -78.5t-34 -78.5t-81 -32.5zM320 645q29 0 50 21t21 50t-21 50t-50 21t-50 -21t-21 -50t21 -50t50 -21zM285 -12q-95 0 -149 58.5t-54 155.5v339h94v-313q0 -72 37 -113t103 -41q65 0 107.5 44t42.5 115
v308h93v-541h-93v91q-66 -103 -181 -103z" />
    <glyph glyph-name="Uhungarumlaut" unicode="&#x170;" horiz-adv-x="797" 
d="M434 788l108 139l89 -41l-123 -98h-74zM267 788l109 139l89 -41l-123 -98h-75zM398 -11q-141 0 -223.5 82t-82.5 235v422h97v-417q0 -112 55.5 -173t155.5 -61q97 0 152.5 58.5t55.5 170.5v422h96v-416q0 -156 -82.5 -239.5t-223.5 -83.5z" />
    <glyph glyph-name="uhungarumlaut" unicode="&#x171;" horiz-adv-x="650" 
d="M195 619l100 156l88 -41l-117 -115h-71zM356 619l102 156l88 -41l-118 -115h-72zM285 -12q-95 0 -149 58.5t-54 155.5v339h94v-313q0 -72 37 -113t103 -41q65 0 107.5 44t42.5 115v308h93v-541h-93v91q-66 -103 -181 -103z" />
    <glyph glyph-name="Uogonek" unicode="&#x172;" horiz-adv-x="797" 
d="M471 -120v-51q-3 0 -9.5 -0.5t-8.5 -0.5q-65 1 -100 24.5t-35 61.5q0 37 38 77q-123 11 -193.5 92.5t-70.5 222.5v422h97v-417q0 -112 55.5 -173t155.5 -61q97 0 152.5 58.5t55.5 170.5v422h96v-416q0 -148 -73.5 -230.5t-201.5 -90.5q-34 -34 -34 -64q0 -44 76 -47z" />
    <glyph glyph-name="uogonek" unicode="&#x173;" horiz-adv-x="650" 
d="M285 -12q-95 0 -149 58.5t-54 155.5v339h94v-313q0 -72 37 -113t103 -41q65 0 107.5 44t42.5 115v308h93v-541h-18q-44 -40 -44 -73q0 -44 76 -47v-51q-3 0 -9.5 -0.5t-8.5 -0.5q-65 1 -100 24.5t-35 61.5q0 42 47 86h-1v91q-66 -103 -181 -103z" />
    <glyph glyph-name="Wcircumflex" unicode="&#x174;" horiz-adv-x="1162" 
d="M419 791l118 128h88l118 -128h-85l-78 62l-78 -62h-83zM306 -5l-258 733h105l197 -586l193 588h80l193 -588l198 586h101l-258 -733h-82l-194 570l-193 -570h-82z" />
    <glyph glyph-name="wcircumflex" unicode="&#x175;" horiz-adv-x="903" 
d="M295 619l114 141h84l114 -141h-78l-79 70l-79 -70h-76zM230 -4l-185 545h98l132 -415l138 417h79l138 -417l133 415h96l-186 -545h-83l-138 409l-139 -409h-83z" />
    <glyph glyph-name="Ycircumflex" unicode="&#x176;" horiz-adv-x="753" 
d="M214 788l118 128h88l118 -128h-85l-78 62l-78 -62h-83zM328 0v288l-299 440h115l233 -352l235 352h112l-299 -438v-290h-97z" />
    <glyph glyph-name="ycircumflex" unicode="&#x177;" horiz-adv-x="625" 
d="M158 619l114 141h84l114 -141h-78l-79 70l-79 -70h-76zM322 105l164 436h99l-223 -558q-34 -84 -75.5 -118.5t-104.5 -34.5q-59 0 -119 30l32 72q38 -20 81 -20q34 0 57 20t44 69l-240 540h102z" />
    <glyph glyph-name="Ydieresis" unicode="&#x178;" horiz-adv-x="753" 
d="M223 788v101h107v-101h-107zM424 788v101h106v-101h-106zM328 0v288l-299 440h115l233 -352l235 352h112l-299 -438v-290h-97z" />
    <glyph glyph-name="Zacute" unicode="&#x179;" horiz-adv-x="732" 
d="M335 791l109 139l91 -41l-123 -98h-77zM73 0v67l459 576h-444v85h572v-67l-459 -576h459v-85h-587z" />
    <glyph glyph-name="zacute" unicode="&#x17a;" horiz-adv-x="588" 
d="M260 619l101 156l92 -42l-121 -114h-72zM61 0v62l345 401h-333v78h457v-62l-345 -400h345v-79h-469z" />
    <glyph glyph-name="Zdotaccent" unicode="&#x17b;" horiz-adv-x="732" 
d="M319 791v101h110v-101h-110zM73 0v67l459 576h-444v85h572v-67l-459 -576h459v-85h-587z" />
    <glyph glyph-name="zdotaccent" unicode="&#x17c;" horiz-adv-x="588" 
d="M244 619v107h108v-107h-108zM61 0v62l345 401h-333v78h457v-62l-345 -400h345v-79h-469z" />
    <glyph glyph-name="Zcaron" unicode="&#x17d;" horiz-adv-x="732" 
d="M536 919l-118 -128h-88l-118 128h85l78 -61l78 61h83zM73 0v67l459 576h-444v85h572v-67l-459 -576h459v-85h-587z" />
    <glyph glyph-name="zcaron" unicode="&#x17e;" horiz-adv-x="588" 
d="M454 760l-114 -141h-84l-114 141h78l79 -70l79 70h76zM61 0v62l345 401h-333v78h457v-62l-345 -400h345v-79h-469z" />
    <glyph glyph-name="uni018F" unicode="&#x18f;" horiz-adv-x="837" 
d="M99 602q122 138 307 138q157 0 258 -105t101 -269v-3q0 -159 -100 -267t-251 -108q-107 0 -186.5 52.5t-118 138.5t-38.5 192v1q0 23 1 36h591q-12 109 -81.5 176.5t-175.5 67.5q-138 0 -243 -112zM414 75q103 0 170.5 69t78.5 180h-490q8 -111 73.5 -180t167.5 -69z" />
    <glyph glyph-name="florin" unicode="&#x192;" horiz-adv-x="547" 
d="M102 -5q-35 0 -55 4v79q19 -4 44 -4q65 0 80 77l42 232h-96v80h110l22 115q15 80 54.5 117.5t113.5 37.5q54 0 88 -11v-80q-42 10 -72 10q-39 0 -60.5 -21t-29.5 -69l-19 -99h145v-80h-159l-45 -244q-13 -75 -52.5 -109.5t-110.5 -34.5z" />
    <glyph glyph-name="Aringacute" unicode="&#x1fa;" horiz-adv-x="830" 
d="M372 914l110 124l90 -41l-124 -83h-76zM415 716q29 0 48.5 18t19.5 45q0 26 -19.5 44t-48.5 18q-30 0 -49.5 -18t-19.5 -44q0 -27 19.5 -45t49.5 -18zM259 274h308l-154 347zM41 0l309 690q-53 30 -53 89q0 44 34.5 74.5t83.5 30.5t83.5 -30.5t34.5 -74.5q0 -59 -54 -89
l309 -690h-102l-83 188h-380l-83 -188h-99z" />
    <glyph glyph-name="aringacute" unicode="&#x1fb;" horiz-adv-x="612" 
d="M268 870l105 135l90 -43l-121 -92h-74zM307 617q-47 0 -81 32.5t-34 78.5t34 78.5t81 32.5t81 -32.5t34 -78.5t-34 -78.5t-81 -32.5zM307 657q29 0 50 21t21 50t-21 50t-50 21t-50 -21t-21 -50t21 -50t50 -21zM271 61q72 0 121 38.5t49 98.5v47q-71 23 -148 23
q-70 0 -109.5 -28t-39.5 -77v-2q0 -46 36.5 -73t90.5 -27zM250 -12q-81 0 -140 45t-59 123v2q0 84 62.5 129.5t166.5 45.5q83 0 160 -23v18q0 67 -40 102.5t-113 35.5q-80 0 -161 -38l-27 75q101 46 199 46q116 0 176 -60q56 -56 56 -161v-328h-91v77q-70 -89 -189 -89z" />
    <glyph glyph-name="AEacute" unicode="&#x1fc;" horiz-adv-x="1095" 
d="M617 791l109 139l91 -41l-123 -98h-77zM276 274h238v369h-24zM20 0l422 728h582v-87h-414v-231h367v-87h-367v-236h419v-87h-515v188h-285l-109 -188h-100z" />
    <glyph glyph-name="aeacute" unicode="&#x1fd;" horiz-adv-x="999" 
d="M460 619l101 156l92 -42l-121 -114h-72zM524 303h326q-6 74 -48 122.5t-113 48.5q-66 0 -111.5 -48t-53.5 -123zM255 -12q-85 0 -144.5 45t-59.5 123v2q0 84 61.5 129.5t164.5 45.5q78 0 154 -23v18q0 67 -38 102.5t-110 35.5q-76 0 -157 -38l-27 75q99 46 195 46
q152 0 196 -108q33 52 86 82t116 30q118 0 185.5 -82.5t67.5 -205.5q0 -18 -1 -29h-420q9 -79 59.5 -124t120.5 -45q92 0 163 73l57 -51q-88 -101 -222 -101q-65 0 -121 27t-93 76q-105 -103 -233 -103zM268 62q103 0 184 88q-18 48 -21 96q-76 22 -141 22q-69 0 -107.5 -28
t-38.5 -77v-2q0 -46 35.5 -72.5t88.5 -26.5z" />
    <glyph glyph-name="Oslashacute" unicode="&#x1fe;" horiz-adv-x="892" 
d="M407 801l109 139l91 -41l-123 -98h-77zM730 733h99l-103 -114q94 -107 94 -253v-2q0 -155 -106 -265.5t-269 -110.5q-127 0 -224 71l-59 -64h-99l103 114q-94 105 -94 253v2q0 155 106 265.5t269 110.5q126 0 224 -72zM170 365q0 -106 61 -186l379 419q-72 56 -165 56
q-119 0 -197 -83.5t-78 -204.5v-1zM447 74q119 0 197 83.5t78 204.5v1q0 105 -61 185l-380 -419q73 -55 166 -55z" />
    <glyph glyph-name="oslashacute" unicode="&#x1ff;" horiz-adv-x="684" 
d="M304 619l101 156l92 -42l-121 -114h-72zM551 548h91l-84 -92q68 -77 68 -184v-2q0 -116 -82 -199t-203 -83q-93 0 -166 51l-42 -44h-91l83 90q-67 76 -67 183v2q0 116 82 199.5t203 83.5q93 0 165 -52zM151 271q0 -68 36 -121l265 286q-49 36 -111 36q-84 0 -137 -58
t-53 -142v-1zM343 68q83 0 136.5 58t53.5 142v1q0 66 -37 121l-264 -287q49 -35 111 -35z" />
    <glyph glyph-name="Scommaaccent" unicode="&#x218;" horiz-adv-x="674" 
d="M355 -10q-170 0 -299 116l59 70q112 -100 243 -100q69 0 111 31.5t42 82.5v2q0 49 -37.5 77.5t-144.5 52.5q-129 28 -186.5 75t-57.5 137v2q0 88 68.5 145t173.5 57q147 0 258 -90l-54 -74q-97 78 -206 78q-65 0 -104.5 -30.5t-39.5 -76.5v-2q0 -51 39 -80t151 -54
q123 -28 179.5 -76t56.5 -132v-2q0 -95 -70 -152t-182 -57zM279 -264l-7 34q36 6 52 22t14 43h-46v92h102v-79q0 -101 -115 -112z" />
    <glyph glyph-name="scommaaccent" unicode="&#x219;" horiz-adv-x="527" 
d="M271 -10q-125 0 -226 79l46 66q91 -68 184 -68q46 0 74.5 21t28.5 56v2q0 18 -9.5 32t-31 25t-39 17.5t-50.5 15.5q-40 12 -64 21t-53.5 26.5t-44 44t-14.5 62.5v2q0 72 52.5 115.5t134.5 43.5q104 0 196 -61l-41 -69q-83 52 -158 52q-44 0 -70 -20t-26 -51v-2
q0 -14 8.5 -26t18 -19.5t31.5 -16.5t34.5 -13t41.5 -13q38 -12 63 -22t53.5 -28t42.5 -44t14 -61v-2q0 -78 -55 -121.5t-141 -43.5zM202 -262l-7 34q36 6 52 22t14 43h-46v92h102v-79q0 -101 -115 -112z" />
    <glyph glyph-name="schwa" unicode="&#x259;" horiz-adv-x="627" 
d="M297 554q115 0 194 -79t79 -203v-2q0 -118 -74.5 -200t-186.5 -82q-119 0 -187 82.5t-68 205.5q0 18 1 29h419q-8 79 -58 124t-121 45q-92 0 -163 -73l-57 51q89 102 222 102zM475 238h-326q6 -74 48 -122.5t113 -48.5q66 0 111.5 48t53.5 123z" />
    <glyph glyph-name="circumflex" unicode="&#x2c6;" horiz-adv-x="528" 
d="M108 619l114 141h84l114 -141h-78l-79 70l-79 -70h-76z" />
    <glyph glyph-name="caron" unicode="&#x2c7;" horiz-adv-x="528" 
d="M420 760l-114 -141h-84l-114 141h78l79 -70l79 70h76z" />
    <glyph glyph-name="breve" unicode="&#x2d8;" horiz-adv-x="528" 
d="M264 617q-68 0 -112 36t-49 100h67q21 -65 94 -65t94 65h67q-5 -64 -49 -100t-112 -36z" />
    <glyph glyph-name="dotaccent" unicode="&#x2d9;" horiz-adv-x="528" 
d="M210 619v107h108v-107h-108z" />
    <glyph glyph-name="ring" unicode="&#x2da;" horiz-adv-x="528" 
d="M264 617q-47 0 -81 32.5t-34 78.5t34 78.5t81 32.5t81 -32.5t34 -78.5t-34 -78.5t-81 -32.5zM264 657q29 0 50 21t21 50t-21 50t-50 21t-50 -21t-21 -50t21 -50t50 -21z" />
    <glyph glyph-name="ogonek" unicode="&#x2db;" horiz-adv-x="528" 
d="M352 -120v-51q-3 0 -9.5 -0.5t-8.5 -0.5q-65 1 -100 24.5t-35 61.5q0 44 63 101l64 -10q-50 -44 -50 -78q0 -44 76 -47z" />
    <glyph glyph-name="tilde" unicode="&#x2dc;" horiz-adv-x="528" 
d="M338 619q-28 0 -78 21t-64 21q-20 0 -31.5 -11.5t-23.5 -40.5l-55 16q16 61 40 88t64 27q28 0 78 -21q48 -20 64 -20q20 0 31.5 11t23.5 40l55 -16q-16 -61 -40 -88t-64 -27z" />
    <glyph glyph-name="hungarumlaut" unicode="&#x2dd;" horiz-adv-x="528" 
d="M91 619l100 156l88 -41l-117 -115h-71zM252 619l102 156l88 -41l-118 -115h-72z" />
    <glyph glyph-name="commaaccent" unicode="&#x326;" horiz-adv-x="528" 
d="M200 -262l-7 34q36 6 52 22t14 43h-46v92h102v-79q0 -101 -115 -112z" />
    <glyph glyph-name="uni0384" unicode="&#x384;" horiz-adv-x="528" 
d="M199 619l68 165l92 -39l-95 -126h-65z" />
    <glyph glyph-name="uni0385" unicode="&#x385;" horiz-adv-x="528" 
d="M212 619l42 186l90 -21l-74 -165h-58zM81 619v105h96v-105h-96zM351 619v105h96v-105h-96z" />
    <glyph glyph-name="uni0386" unicode="&#x386;" horiz-adv-x="830" 
d="M91 537l16 191h99l-64 -191h-51zM259 274h308l-154 347zM41 0l329 733h90l328 -733h-102l-83 188h-380l-83 -188h-99z" />
    <glyph glyph-name="uni0387" unicode="&#x387;" horiz-adv-x="281" 
d="M86 422v119h109v-119h-109z" />
    <glyph glyph-name="uni0388" unicode="&#x388;" horiz-adv-x="705" 
d="M104 0v728h530v-87h-434v-231h387v-87h-387v-236h439v-87h-535zM-67 537l16 191h99l-64 -191h-51z" />
    <glyph glyph-name="uni0389" unicode="&#x389;" horiz-adv-x="798" 
d="M-67 537l16 191h99l-64 -191h-51zM104 0v728h96v-317h398v317h97v-728h-97v322h-398v-322h-96z" />
    <glyph glyph-name="uni038A" unicode="&#x38a;" horiz-adv-x="319" 
d="M-65 537l16 191h99l-64 -191h-51zM111 0v728h97v-728h-97z" />
    <glyph glyph-name="uni038C" unicode="&#x38c;" horiz-adv-x="892" 
d="M445 -12q-163 0 -268 109.5t-105 264.5v2q0 155 106 265.5t269 110.5t268 -109.5t105 -264.5v-2q0 -155 -106 -265.5t-269 -110.5zM-32 537l16 191h99l-64 -191h-51zM447 76q118 0 195.5 83t77.5 203v2q0 120 -78.5 204t-196.5 84t-195.5 -83t-77.5 -203v-2
q0 -120 78.5 -204t196.5 -84z" />
    <glyph glyph-name="uni038E" unicode="&#x38e;" horiz-adv-x="753" 
d="M-118 537l16 191h99l-64 -191h-51zM328 0v288l-299 440h115l233 -352l235 352h112l-299 -438v-290h-97z" />
    <glyph glyph-name="uni038F" unicode="&#x38f;" horiz-adv-x="912" 
d="M-30 537l16 191h99l-64 -191h-51zM456 740q165 0 265 -97t100 -247v-1q0 -184 -182 -312l204 1v-84h-313v81q93 62 141.5 132t48.5 174v1q0 117 -72.5 191t-192.5 73q-119 0 -191.5 -73t-72.5 -190v-1q0 -100 49 -172t142 -135v-81h-314v84l205 -1q-89 64 -135.5 139
t-46.5 174v1q0 94 44 172t128 124.5t193 46.5z" />
    <glyph glyph-name="uni0390" unicode="&#x390;" horiz-adv-x="314" 
d="M95 619l42 186l90 -21l-74 -165h-58zM-36 619v105h96v-105h-96zM234 619v105h96v-105h-96zM88 143v398h94v-394q0 -74 67 -74q25 0 38 4v-77q-28 -7 -62 -7q-137 0 -137 150z" />
    <glyph glyph-name="uni0391" unicode="&#x391;" horiz-adv-x="830" 
d="M259 274h308l-154 347zM41 0l329 733h90l328 -733h-102l-83 188h-380l-83 -188h-99z" />
    <glyph glyph-name="uni0392" unicode="&#x392;" horiz-adv-x="759" 
d="M104 0v728h315q124 0 190 -64q48 -50 48 -119v-2q0 -114 -112 -166q153 -48 153 -176v-2q0 -93 -72 -146t-194 -53h-328zM560 529v2q0 52 -39.5 81.5t-111.5 29.5h-210v-233h203q72 0 115 31t43 89zM601 209q0 56 -46 86.5t-134 30.5h-222v-240h234q78 0 123 32t45 89v2z
" />
    <glyph glyph-name="uni0393" unicode="&#x393;" horiz-adv-x="649" 
d="M104 0v728h498v-88h-402v-640h-96z" />
    <glyph glyph-name="uni0394" unicode="&#x394;" horiz-adv-x="828" 
d="M62 0l-8 71l311 662h98l311 -662l-8 -71h-704zM413 626l-251 -539h499z" />
    <glyph glyph-name="uni0395" unicode="&#x395;" horiz-adv-x="705" 
d="M104 0v728h530v-87h-434v-231h387v-87h-387v-236h439v-87h-535z" />
    <glyph glyph-name="uni0396" unicode="&#x396;" horiz-adv-x="732" 
d="M73 0v67l459 576h-444v85h572v-67l-459 -576h459v-85h-587z" />
    <glyph glyph-name="uni0397" unicode="&#x397;" horiz-adv-x="798" 
d="M104 0v728h96v-317h398v317h97v-728h-97v322h-398v-322h-96z" />
    <glyph glyph-name="uni0398" unicode="&#x398;" horiz-adv-x="892" 
d="M445 -12q-163 0 -268 109.5t-105 264.5v2q0 155 106 265.5t269 110.5t268 -109.5t105 -264.5v-2q0 -155 -106 -265.5t-269 -110.5zM447 75q120 0 197.5 82.5t77.5 204.5v2q0 122 -78.5 205.5t-198.5 83.5t-197.5 -82.5t-77.5 -204.5v-2q0 -122 78.5 -205.5t198.5 -83.5z
M628 411v-90h-364v90h364z" />
    <glyph glyph-name="uni0399" unicode="&#x399;" horiz-adv-x="319" 
d="M111 0v728h97v-728h-97z" />
    <glyph glyph-name="uni039A" unicode="&#x39a;" horiz-adv-x="758" 
d="M104 0v728h96v-414l396 414h123l-310 -316l323 -412h-119l-270 345l-143 -145v-200h-96z" />
    <glyph glyph-name="uni039B" unicode="&#x39b;" horiz-adv-x="810" 
d="M448 733l321 -733h-107l-259 603l-258 -603h-104l321 733h86z" />
    <glyph glyph-name="uni039C" unicode="&#x39c;" horiz-adv-x="911" 
d="M104 0v728h99l252 -381l252 381h100v-728h-96v570l-255 -376h-4l-254 374v-568h-94z" />
    <glyph glyph-name="uni039D" unicode="&#x39d;" horiz-adv-x="830" 
d="M104 0v728h89l438 -559v559h95v-728h-79l-449 573v-573h-94z" />
    <glyph glyph-name="uni039E" unicode="&#x39e;" horiz-adv-x="701" 
d="M631 639h-560v89h560v-89zM603 322h-505v89h505v-89zM636 0h-571v89h571v-89z" />
    <glyph glyph-name="uni039F" unicode="&#x39f;" horiz-adv-x="892" 
d="M445 -12q-163 0 -268 109.5t-105 264.5v2q0 155 106 265.5t269 110.5t268 -109.5t105 -264.5v-2q0 -155 -106 -265.5t-269 -110.5zM447 76q118 0 195.5 83t77.5 203v2q0 120 -78.5 204t-196.5 84t-195.5 -83t-77.5 -203v-2q0 -120 78.5 -204t196.5 -84z" />
    <glyph glyph-name="uni03A0" unicode="&#x3a0;" horiz-adv-x="796" 
d="M104 0v728h588v-728h-96v640h-396v-640h-96z" />
    <glyph glyph-name="uni03A1" unicode="&#x3a1;" horiz-adv-x="703" 
d="M104 0v728h277q125 0 199.5 -63t74.5 -171v-2q0 -114 -82.5 -178t-205.5 -64h-167v-250h-96zM200 337h171q84 0 135.5 42t51.5 110v2q0 72 -50 110.5t-135 38.5h-173v-303z" />
    <glyph glyph-name="uni03A3" unicode="&#x3a3;" horiz-adv-x="712" 
d="M482 364l-273 -278h442v-86h-578v72l286 292l-284 292v72h570v-86h-434z" />
    <glyph glyph-name="uni03A4" unicode="&#x3a4;" horiz-adv-x="676" 
d="M290 0v639h-241v89h578v-89h-241v-639h-96z" />
    <glyph glyph-name="uni03A5" unicode="&#x3a5;" horiz-adv-x="753" 
d="M328 0v288l-299 440h115l233 -352l235 352h112l-299 -438v-290h-97z" />
    <glyph glyph-name="uni03A6" unicode="&#x3a6;" horiz-adv-x="972" 
d="M438 -13v86q-177 2 -277 82t-100 211v1q0 130 100 211t277 83v80h96v-80q176 -3 276 -83t100 -211v-1q0 -129 -100 -210t-276 -83v-86h-96zM810 368q0 92 -71 149.5t-207 58.5v-418q136 1 207 58t71 151v1zM162 366q0 -93 70.5 -150t207.5 -58v418q-136 -2 -207 -58.5
t-71 -150.5v-1z" />
    <glyph glyph-name="uni03A7" unicode="&#x3a7;" horiz-adv-x="763" 
d="M593 728h111l-264 -356l274 -372h-113l-221 303l-220 -303h-111l274 371l-264 357h114l210 -289z" />
    <glyph glyph-name="uni03A8" unicode="&#x3a8;" horiz-adv-x="897" 
d="M816 728v-253q0 -151 -84 -225.5t-235 -77.5v-172h-96v172q-152 3 -236 76.5t-84 223.5v256h96v-254q0 -109 56.5 -160t168.5 -53v467h94v-467q112 2 168.5 52t56.5 158v257h95z" />
    <glyph glyph-name="uni03A9" unicode="&#x3a9;" horiz-adv-x="912" 
d="M456 740q165 0 265 -97t100 -247v-1q0 -184 -182 -312l204 1v-84h-313v81q93 62 141.5 132t48.5 174v1q0 117 -72.5 191t-192.5 73q-119 0 -191.5 -73t-72.5 -190v-1q0 -100 49 -172t142 -135v-81h-314v84l205 -1q-89 64 -135.5 139t-46.5 174v1q0 94 44 172t128 124.5
t193 46.5z" />
    <glyph glyph-name="uni03AA" unicode="&#x3aa;" horiz-adv-x="319" 
d="M6 791v101h107v-101h-107zM207 791v101h106v-101h-106zM111 0v728h97v-728h-97z" />
    <glyph glyph-name="uni03AB" unicode="&#x3ab;" horiz-adv-x="753" 
d="M223 788v101h107v-101h-107zM424 788v101h106v-101h-106zM328 0v288l-299 440h115l233 -352l235 352h112l-299 -438v-290h-97z" />
    <glyph glyph-name="uni03AC" unicode="&#x3ac;" horiz-adv-x="741" 
d="M328 619l68 165l92 -39l-95 -126h-65zM335 71q75 0 129.5 56t54.5 143v2q0 86 -55 142t-129 56q-76 0 -127.5 -54t-51.5 -144v-2q0 -88 52.5 -143.5t126.5 -55.5zM715 77v-77q-28 -7 -61 -7q-114 0 -131 102q-80 -107 -204 -107q-105 0 -182 76.5t-77 204.5v2
q0 128 76.5 205t179.5 77q121 0 201 -110v98h93v-402q3 -66 68 -66q24 0 37 4z" />
    <glyph glyph-name="uni03AD" unicode="&#x3ad;" horiz-adv-x="589" 
d="M267 619l68 165l92 -39l-95 -126h-65zM415 236h-120q-70 0 -105 -22.5t-35 -58.5v-1q0 -40 39 -63.5t110 -23.5q104 0 200 59l42 -66q-113 -72 -245 -72q-115 0 -177.5 43.5t-62.5 113.5v1q0 50 31.5 82t80.5 46q-97 35 -97 123v1q0 66 60 110t169 44q131 0 234 -72
l-48 -67q-85 61 -184 61q-66 0 -102 -24t-36 -60v-1q0 -79 125 -79h121v-74z" />
    <glyph glyph-name="uni03AE" unicode="&#x3ae;" horiz-adv-x="650" 
d="M292 619l68 165l92 -39l-95 -126h-65zM567 -166h-94v479q0 72 -36.5 113t-102.5 41q-65 0 -107.5 -43.5t-42.5 -115.5v-308h-94v541h94v-91q66 103 180 103q95 0 149 -58.5t54 -155.5v-505z" />
    <glyph glyph-name="uni03AF" unicode="&#x3af;" horiz-adv-x="314" 
d="M101 619l68 165l92 -39l-95 -126h-65zM88 143v398h94v-394q0 -74 67 -74q25 0 38 4v-77q-28 -7 -62 -7q-137 0 -137 150z" />
    <glyph glyph-name="uni03B0" unicode="&#x3b0;" horiz-adv-x="652" 
d="M274 619l42 186l90 -21l-74 -165h-58zM143 619v105h96v-105h-96zM413 619v105h96v-105h-96zM325 -12q-112 0 -177 62t-65 179v312h94v-309q0 -80 39.5 -121t109.5 -41q71 0 110.5 40.5t39.5 120.5v310h94v-310q0 -118 -66 -180.5t-179 -62.5z" />
    <glyph glyph-name="uni03B1" unicode="&#x3b1;" horiz-adv-x="741" 
d="M335 71q75 0 129.5 56t54.5 143v2q0 86 -55 142t-129 56q-76 0 -127.5 -54t-51.5 -144v-2q0 -88 52.5 -143.5t126.5 -55.5zM715 77v-77q-28 -7 -61 -7q-114 0 -131 102q-80 -107 -204 -107q-105 0 -182 76.5t-77 204.5v2q0 128 76.5 205t179.5 77q121 0 201 -110v98h93
v-402q3 -66 68 -66q24 0 37 4z" />
    <glyph glyph-name="uni03B2" unicode="&#x3b2;" horiz-adv-x="686" 
d="M183 501v-88h112q97 0 152 38.5t55 106.5q0 57 -40 92.5t-109 35.5q-79 0 -124.5 -49.5t-45.5 -135.5zM296 341h-113v-64q0 -98 55.5 -152.5t142.5 -54.5q70 0 110.5 35.5t40.5 89.5q0 146 -236 146zM184 -166h-94v667q0 124 70.5 194.5t192.5 70.5q114 0 179 -56
t65 -146v-1q0 -70 -41 -117.5t-114 -64.5q186 -41 186 -193v-1q0 -85 -61.5 -142.5t-167.5 -56.5q-140 0 -215 110v-264z" />
    <glyph glyph-name="uni03B3" unicode="&#x3b3;" horiz-adv-x="621" 
d="M583 541l-226 -529v-178h-94v180l-225 527h103l170 -428l171 428h101z" />
    <glyph glyph-name="uni03B4" unicode="&#x3b4;" horiz-adv-x="669" 
d="M538 680l-284 2l166 -132q100 -77 144.5 -143t44.5 -152q0 -112 -77.5 -189.5t-201.5 -77.5q-122 0 -197 75.5t-75 186.5q0 102 55 168.5t179 127.5l-170 144v69h416v-79zM358 492h-1q-114 -55 -161 -111t-46 -131q0 -77 50.5 -129t130.5 -52q82 0 133.5 53t51.5 129
q0 64 -34.5 115t-123.5 126z" />
    <glyph glyph-name="uni03B5" unicode="&#x3b5;" horiz-adv-x="589" 
d="M415 236h-120q-70 0 -105 -22.5t-35 -58.5v-1q0 -40 39 -63.5t110 -23.5q104 0 200 59l42 -66q-113 -72 -245 -72q-115 0 -177.5 43.5t-62.5 113.5v1q0 50 31.5 82t80.5 46q-97 35 -97 123v1q0 66 60 110t169 44q131 0 234 -72l-48 -67q-85 61 -184 61q-66 0 -102 -24
t-36 -60v-1q0 -79 125 -79h121v-74z" />
    <glyph glyph-name="uni03B6" unicode="&#x3b6;" horiz-adv-x="571" 
d="M440 -133v121l-121 14q-261 32 -261 212q0 66 32 120.5t122 145.5l196 199h-309v80h431v-73l-254 -264q-72 -74 -97.5 -113.5t-25.5 -86.5q0 -112 184 -135l191 -24v-196h-88z" />
    <glyph glyph-name="uni03B7" unicode="&#x3b7;" horiz-adv-x="650" 
d="M567 -166h-94v479q0 72 -36.5 113t-102.5 41q-65 0 -107.5 -43.5t-42.5 -115.5v-308h-94v541h94v-91q66 103 180 103q95 0 149 -58.5t54 -155.5v-505z" />
    <glyph glyph-name="uni03B8" unicode="&#x3b8;" horiz-adv-x="698" 
d="M348 -12q-129 0 -205 107t-76 268v26q0 161 77 268t206 107t205 -107t76 -268v-26q0 -161 -77 -268t-206 -107zM348 682q-84 0 -134 -74t-53 -192h377q-4 117 -55.5 191.5t-134.5 74.5zM350 69q84 0 134.5 74.5t53.5 193.5h-377q3 -118 54.5 -193t134.5 -75z" />
    <glyph glyph-name="uni03B9" unicode="&#x3b9;" horiz-adv-x="314" 
d="M88 143v398h94v-394q0 -74 67 -74q25 0 38 4v-77q-28 -7 -62 -7q-137 0 -137 150z" />
    <glyph glyph-name="uni03BA" unicode="&#x3ba;" horiz-adv-x="604" 
d="M184 541v-298l274 298h117l-224 -235l228 -306h-112l-179 241l-104 -107v-134h-94v541h94z" />
    <glyph glyph-name="uni03BB" unicode="&#x3bb;" horiz-adv-x="634" 
d="M101 669v79q37 15 81 15q65 0 98.5 -33t69.5 -121l247 -609h-102l-174 442l-182 -442h-100l238 548l-13 34q-23 56 -43.5 78t-55.5 22q-29 0 -64 -13z" />
    <glyph glyph-name="uni03BC" unicode="&#x3bc;" horiz-adv-x="700" 
d="M675 77v-77q-28 -7 -61 -7q-106 0 -128 88q-56 -91 -154 -91q-52 0 -94 25.5t-65 74.5h-2q12 -79 12 -131v-125h-93v707h94v-310q0 -70 41 -114.5t105 -44.5t105 44.5t41 114.5v310h94v-402q3 -66 67 -66q25 0 38 4z" />
    <glyph glyph-name="uni03BD" unicode="&#x3bd;" horiz-adv-x="621" 
d="M269 -4l-231 545h102l171 -433l172 433h100l-231 -545h-83z" />
    <glyph glyph-name="uni03BE" unicode="&#x3be;" horiz-adv-x="581" 
d="M557 685l-50 -72q-84 70 -172 70q-67 0 -107.5 -35.5t-40.5 -94.5q0 -63 49 -98.5t124 -35.5h95v-79h-113q-88 0 -138 -35t-50 -92q0 -59 48.5 -87.5t143.5 -39.5l186 -24v-195h-89v121l-116 14q-128 14 -198.5 61t-70.5 140q0 71 44.5 116t115.5 65q-49 19 -87.5 61.5
t-38.5 114.5q0 87 66.5 146.5t176.5 59.5q122 0 222 -81z" />
    <glyph glyph-name="uni03BF" unicode="&#x3bf;" horiz-adv-x="684" 
d="M341 -12q-121 0 -202 82t-81 198v2q0 116 82 199.5t203 83.5t202 -82t81 -199v-2q0 -116 -82 -199t-203 -83zM343 71q82 0 134.5 57t52.5 140v2q0 83 -54.5 141.5t-134.5 58.5q-82 0 -135 -57.5t-53 -140.5v-2q0 -83 54.5 -141t135.5 -58z" />
    <glyph glyph-name="uni03C0" unicode="&#x3c0;" horiz-adv-x="731" 
d="M31 541h650v-84h-104v-310q0 -74 68 -74q24 0 37 4v-77q-28 -7 -61 -7q-69 0 -103 36.5t-34 113.5v314h-256v-457h-94v457h-103v84z" />
    <glyph glyph-name="uni03C1" unicode="&#x3c1;" horiz-adv-x="689" 
d="M355 71q75 0 126.5 54t51.5 144v2q0 89 -51.5 144t-126.5 55q-78 0 -130 -55.5t-52 -142.5v-2q0 -87 54 -143t128 -56zM78 -166v430q0 126 77 207.5t199 81.5q117 0 196 -78.5t79 -202.5v-2q0 -126 -76.5 -204t-177.5 -78q-128 0 -203 113v-267h-94z" />
    <glyph glyph-name="uni03C2" unicode="&#x3c2;" horiz-adv-x="602" 
d="M444 -133v122l-93 11q-142 18 -217.5 89t-75.5 192v1q0 112 77 192t198 79q75 0 126.5 -26t95.5 -75l-63 -66q-70 84 -160 84q-77 0 -128 -53.5t-51 -132.5v-1q0 -172 219 -199l161 -21v-196h-89z" />
    <glyph glyph-name="uni03C3" unicode="&#x3c3;" horiz-adv-x="712" 
d="M679 459l-172 1q114 -69 114 -201v-1q0 -113 -80 -191.5t-202 -78.5q-121 0 -201 79t-80 195v1q0 117 82 197.5t212 80.5h327v-82zM341 71q83 0 134.5 54t51.5 136v2q0 83 -53 139t-135 56t-134 -55.5t-52 -137.5v-1q0 -83 53.5 -138t134.5 -55z" />
    <glyph glyph-name="uni03C4" unicode="&#x3c4;" horiz-adv-x="591" 
d="M549 457h-218v-285q0 -55 23 -77.5t70 -22.5q36 0 74 11v-77q-45 -15 -91 -15q-87 0 -128.5 40.5t-41.5 136.5v289h-207v84h519v-84z" />
    <glyph glyph-name="uni03C5" unicode="&#x3c5;" horiz-adv-x="652" 
d="M325 -12q-112 0 -177 62t-65 179v312h94v-309q0 -80 39.5 -121t109.5 -41q71 0 110.5 40.5t39.5 120.5v310h94v-310q0 -118 -66 -180.5t-179 -62.5z" />
    <glyph glyph-name="uni03C6" unicode="&#x3c6;" horiz-adv-x="873" 
d="M483 -166h-93v163q-158 4 -245.5 79.5t-87.5 193.5v1q0 116 88 192.5t245 80.5v215h93v-215q157 -4 245 -79.5t88 -192.5v-1q0 -117 -88 -194t-245 -80v-163zM152 270q0 -85 61.5 -137.5t178.5 -53.5v384q-118 -2 -179 -54t-61 -138v-1zM722 271q0 85 -62 137.5
t-178 54.5v-384q117 2 178.5 54t61.5 137v1z" />
    <glyph glyph-name="uni03C7" unicode="&#x3c7;" horiz-adv-x="633" 
d="M154 541l163 -267l165 267h105l-217 -334l243 -373h-109l-189 303l-190 -303h-105l241 371l-216 336h109z" />
    <glyph glyph-name="uni03C8" unicode="&#x3c8;" horiz-adv-x="851" 
d="M472 -166h-93v163q-141 1 -219 74t-78 200v270h93v-268q0 -89 53.5 -140.5t151.5 -52.5v679h92v-679q97 1 150.5 52t53.5 140v269h94v-267q0 -129 -79 -202t-219 -75v-163z" />
    <glyph glyph-name="uni03C9" unicode="&#x3c9;" horiz-adv-x="924" 
d="M416 437h92v-165q0 -93 34 -146.5t98 -53.5q58 0 91.5 46.5t33.5 130.5q0 145 -130 292h107q117 -134 117 -294q0 -120 -56.5 -189.5t-153.5 -69.5q-74 0 -120.5 41.5t-67.5 108.5q-21 -67 -67.5 -108.5t-121.5 -41.5q-96 0 -151.5 69t-55.5 190q0 158 117 294h105
q-128 -143 -128 -292q0 -83 33.5 -130t89.5 -47q65 0 99.5 53.5t34.5 146.5v165z" />
    <glyph glyph-name="uni03CA" unicode="&#x3ca;" horiz-adv-x="314" 
d="M-9 619v106h104v-106h-104zM179 619v106h104v-106h-104zM88 143v398h94v-394q0 -74 67 -74q25 0 38 4v-77q-28 -7 -62 -7q-137 0 -137 150z" />
    <glyph glyph-name="uni03CB" unicode="&#x3cb;" horiz-adv-x="652" 
d="M180 619v106h104v-106h-104zM368 619v106h104v-106h-104zM325 -12q-112 0 -177 62t-65 179v312h94v-309q0 -80 39.5 -121t109.5 -41q71 0 110.5 40.5t39.5 120.5v310h94v-310q0 -118 -66 -180.5t-179 -62.5z" />
    <glyph glyph-name="uni03CC" unicode="&#x3cc;" horiz-adv-x="684" 
d="M305 619l68 165l92 -39l-95 -126h-65zM341 -12q-121 0 -202 82t-81 198v2q0 116 82 199.5t203 83.5t202 -82t81 -199v-2q0 -116 -82 -199t-203 -83zM343 71q82 0 134.5 57t52.5 140v2q0 83 -54.5 141.5t-134.5 58.5q-82 0 -135 -57.5t-53 -140.5v-2q0 -83 54.5 -141
t135.5 -58z" />
    <glyph glyph-name="uni03CD" unicode="&#x3cd;" horiz-adv-x="652" 
d="M290 619l68 165l92 -39l-95 -126h-65zM325 -12q-112 0 -177 62t-65 179v312h94v-309q0 -80 39.5 -121t109.5 -41q71 0 110.5 40.5t39.5 120.5v310h94v-310q0 -118 -66 -180.5t-179 -62.5z" />
    <glyph glyph-name="uni03CE" unicode="&#x3ce;" horiz-adv-x="924" 
d="M425 619l68 165l92 -39l-95 -126h-65zM416 437h92v-165q0 -93 34 -146.5t98 -53.5q58 0 91.5 46.5t33.5 130.5q0 145 -130 292h107q117 -134 117 -294q0 -120 -56.5 -189.5t-153.5 -69.5q-74 0 -120.5 41.5t-67.5 108.5q-21 -67 -67.5 -108.5t-121.5 -41.5
q-96 0 -151.5 69t-55.5 190q0 158 117 294h105q-128 -143 -128 -292q0 -83 33.5 -130t89.5 -47q65 0 99.5 53.5t34.5 146.5v165z" />
    <glyph glyph-name="uni0400" unicode="&#x400;" horiz-adv-x="705" 
d="M410 791h-76l-124 98l92 41zM104 0v728h530v-87h-434v-231h387v-87h-387v-236h439v-87h-535z" />
    <glyph glyph-name="uni0401" unicode="&#x401;" horiz-adv-x="705" 
d="M218 791v101h107v-101h-107zM419 791v101h106v-101h-106zM104 0v728h530v-87h-434v-231h387v-87h-387v-236h439v-87h-535z" />
    <glyph glyph-name="uni0402" unicode="&#x402;" horiz-adv-x="881" 
d="M620 728v-89h-246v-209q93 25 182 25q132 0 202.5 -60t70.5 -167q0 -105 -72.5 -167.5t-201.5 -62.5h-21v86h12q93 0 139.5 37.5t46.5 103.5q0 143 -186 143q-83 0 -172 -23v-345h-97v639h-231v89h574z" />
    <glyph glyph-name="uni0403" unicode="&#x403;" horiz-adv-x="649" 
d="M301 791l109 139l91 -41l-123 -98h-77zM104 0v728h498v-88h-402v-640h-96z" />
    <glyph glyph-name="uni0404" unicode="&#x404;" horiz-adv-x="778" 
d="M436 -12q-156 0 -260 108t-104 266v2q0 157 104.5 266.5t264.5 109.5q93 0 158.5 -29t125.5 -85l-62 -70q-100 97 -222 97q-106 0 -180.5 -69t-87.5 -175h387v-84h-387q11 -109 86 -179.5t182 -70.5q69 0 121.5 25.5t104.5 77.5l62 -62q-62 -63 -130 -95.5t-163 -32.5z
" />
    <glyph glyph-name="uni0405" unicode="&#x405;" horiz-adv-x="674" 
d="M355 -10q-170 0 -299 116l59 70q112 -100 243 -100q69 0 111 31.5t42 82.5v2q0 49 -37.5 77.5t-144.5 52.5q-129 28 -186.5 75t-57.5 137v2q0 88 68.5 145t173.5 57q147 0 258 -90l-54 -74q-97 78 -206 78q-65 0 -104.5 -30.5t-39.5 -76.5v-2q0 -51 39 -80t151 -54
q123 -28 179.5 -76t56.5 -132v-2q0 -95 -70 -152t-182 -57z" />
    <glyph glyph-name="uni0406" unicode="&#x406;" horiz-adv-x="319" 
d="M111 0v728h97v-728h-97z" />
    <glyph glyph-name="uni0407" unicode="&#x407;" horiz-adv-x="319" 
d="M6 791v101h107v-101h-107zM207 791v101h106v-101h-106zM111 0v728h97v-728h-97z" />
    <glyph glyph-name="uni0408" unicode="&#x408;" horiz-adv-x="585" 
d="M260 -10q-145 0 -227 125l67 62q35 -51 72 -75t89 -24q60 0 97 43t37 122v485h98v-485q0 -125 -68 -191q-62 -62 -165 -62z" />
    <glyph glyph-name="uni0409" unicode="&#x409;" horiz-adv-x="1080" 
d="M490 0v647h-4l-364 -647h-101l411 728h154v-257h167q127 0 202 -60.5t75 -170.5v-1q0 -112 -79.5 -175.5t-207.5 -63.5h-253zM586 88h160q85 0 136 40t51 109v1q0 70 -49 108t-134 38h-164v-296z" />
    <glyph glyph-name="uni040A" unicode="&#x40a;" horiz-adv-x="1178" 
d="M684 88h159q86 0 137 40t51 109v1q0 70 -49 108t-134 38h-164v-296zM588 0v322h-388v-322h-96v728h96v-317h388v317h96v-257h167q126 0 201.5 -60.5t75.5 -170.5v-1q0 -112 -80 -175.5t-208 -63.5h-252z" />
    <glyph glyph-name="uni040B" unicode="&#x40b;" horiz-adv-x="914" 
d="M620 728v-89h-246v-209q93 26 183 26q273 0 273 -246v-210h-97v196q0 92 -45 132.5t-140 40.5q-86 0 -174 -25v-344h-97v639h-231v89h574z" />
    <glyph glyph-name="uni040C" unicode="&#x40c;" horiz-adv-x="762" 
d="M339 788l109 139l91 -41l-123 -98h-77zM104 0v728h96v-314h108l293 314h124l-339 -351l355 -377h-126l-305 328h-110v-328h-96z" />
    <glyph glyph-name="uni040D" unicode="&#x40d;" horiz-adv-x="830" 
d="M454 788h-76l-124 98l92 41zM726 0h-97v578l-444 -578h-81v728h96v-564l434 564h92v-728z" />
    <glyph glyph-name="uni040E" unicode="&#x40e;" horiz-adv-x="748" 
d="M386 786q-69 0 -113 33t-49 92h71q19 -53 91 -53t91 53h71q-5 -59 -49 -92t-113 -33zM297 0h-108l149 252l-302 476h110l246 -392l221 392h108z" />
    <glyph glyph-name="uni040F" unicode="&#x40f;" horiz-adv-x="801" 
d="M353 -151v151h-249v728h96v-640h396v640h96v-728h-248v-151h-91z" />
    <glyph glyph-name="uni0410" unicode="&#x410;" horiz-adv-x="830" 
d="M259 274h308l-154 347zM41 0l329 733h90l328 -733h-102l-83 188h-380l-83 -188h-99z" />
    <glyph glyph-name="uni0411" unicode="&#x411;" horiz-adv-x="739" 
d="M104 0v728h519v-87h-424v-218h220q123 0 194 -52.5t71 -152.5v-1q0 -104 -76.5 -160.5t-198.5 -56.5h-305zM199 87h213q79 0 127.5 33t48.5 93v2q0 62 -46.5 92.5t-125.5 30.5h-217v-251z" />
    <glyph glyph-name="uni0412" unicode="&#x412;" horiz-adv-x="759" 
d="M104 0v728h315q124 0 190 -64q48 -50 48 -119v-2q0 -114 -112 -166q153 -48 153 -176v-2q0 -93 -72 -146t-194 -53h-328zM560 529v2q0 52 -39.5 81.5t-111.5 29.5h-210v-233h203q72 0 115 31t43 89zM601 209q0 56 -46 86.5t-134 30.5h-222v-240h234q78 0 123 32t45 89v2z
" />
    <glyph glyph-name="uni0413" unicode="&#x413;" horiz-adv-x="649" 
d="M104 0v728h498v-88h-402v-640h-96z" />
    <glyph glyph-name="uni0414" unicode="&#x414;" horiz-adv-x="888" 
d="M443 625l-231 -539h461zM41 88h70l283 645h100l283 -645h70v-239h-92v151h-622v-151h-92v239z" />
    <glyph glyph-name="uni0415" unicode="&#x415;" horiz-adv-x="705" 
d="M104 0v728h530v-87h-434v-231h387v-87h-387v-236h439v-87h-535z" />
    <glyph glyph-name="uni0416" unicode="&#x416;" horiz-adv-x="1117" 
d="M36 728h117l277 -315h82l-1 315h95v-315h81l278 315h116l-313 -352l326 -376h-117l-285 329h-86v-329h-95l1 329h-91l-283 -329h-115l327 376z" />
    <glyph glyph-name="uni0417" unicode="&#x417;" horiz-adv-x="695" 
d="M117 562l-59 65q126 113 290 113q119 0 190.5 -53t71.5 -141v-1q0 -131 -142 -174q73 -16 116 -60t43 -112v-1q0 -92 -78.5 -151t-211.5 -59q-169 0 -290 104l57 69q107 -87 235 -87q84 0 137 35.5t53 92.5v2q0 59 -52 90.5t-143 31.5h-127v82h128q80 0 128.5 33t48.5 93
v1q0 54 -45 86.5t-121 32.5q-121 0 -229 -92z" />
    <glyph glyph-name="uni0418" unicode="&#x418;" horiz-adv-x="830" 
d="M726 0h-97v578l-444 -578h-81v728h96v-564l434 564h92v-728z" />
    <glyph glyph-name="uni0419" unicode="&#x419;" horiz-adv-x="830" 
d="M415 786q-69 0 -113 33t-49 92h71q19 -53 91 -53t91 53h71q-5 -59 -49 -92t-113 -33zM726 0h-97v578l-444 -578h-81v728h96v-564l434 564h92v-728z" />
    <glyph glyph-name="uni041A" unicode="&#x41a;" horiz-adv-x="762" 
d="M104 0v728h96v-314h108l293 314h124l-339 -351l355 -377h-126l-305 328h-110v-328h-96z" />
    <glyph glyph-name="uni041B" unicode="&#x41b;" horiz-adv-x="810" 
d="M448 733l321 -733h-107l-259 603l-258 -603h-104l321 733h86z" />
    <glyph glyph-name="uni041C" unicode="&#x41c;" horiz-adv-x="911" 
d="M104 0v728h99l252 -381l252 381h100v-728h-96v570l-255 -376h-4l-254 374v-568h-94z" />
    <glyph glyph-name="uni041D" unicode="&#x41d;" horiz-adv-x="798" 
d="M104 0v728h96v-317h398v317h97v-728h-97v322h-398v-322h-96z" />
    <glyph glyph-name="uni041E" unicode="&#x41e;" horiz-adv-x="892" 
d="M445 -12q-163 0 -268 109.5t-105 264.5v2q0 155 106 265.5t269 110.5t268 -109.5t105 -264.5v-2q0 -155 -106 -265.5t-269 -110.5zM447 76q118 0 195.5 83t77.5 203v2q0 120 -78.5 204t-196.5 84t-195.5 -83t-77.5 -203v-2q0 -120 78.5 -204t196.5 -84z" />
    <glyph glyph-name="uni041F" unicode="&#x41f;" horiz-adv-x="796" 
d="M104 0v728h588v-728h-96v640h-396v-640h-96z" />
    <glyph glyph-name="uni0420" unicode="&#x420;" horiz-adv-x="703" 
d="M104 0v728h277q125 0 199.5 -63t74.5 -171v-2q0 -114 -82.5 -178t-205.5 -64h-167v-250h-96zM200 337h171q84 0 135.5 42t51.5 110v2q0 72 -50 110.5t-135 38.5h-173v-303z" />
    <glyph glyph-name="uni0421" unicode="&#x421;" horiz-adv-x="779" 
d="M438 -12q-157 0 -261.5 108t-104.5 266v2q0 157 105 266.5t265 109.5q93 0 158.5 -29t125.5 -85l-63 -71q-104 97 -222 97q-115 0 -192 -82.5t-77 -203.5v-2q0 -121 77 -204.5t192 -83.5q69 0 121 25t106 77l63 -62q-62 -63 -130 -95.5t-163 -32.5z" />
    <glyph glyph-name="uni0422" unicode="&#x422;" horiz-adv-x="676" 
d="M290 0v639h-241v89h578v-89h-241v-639h-96z" />
    <glyph glyph-name="uni0423" unicode="&#x423;" horiz-adv-x="748" 
d="M297 0h-108l149 252l-302 476h110l246 -392l221 392h108z" />
    <glyph glyph-name="uni0424" unicode="&#x424;" horiz-adv-x="972" 
d="M438 -13v86q-177 2 -277 82t-100 211v1q0 130 100 211t277 83v80h96v-80q176 -3 276 -83t100 -211v-1q0 -129 -100 -210t-276 -83v-86h-96zM810 368q0 92 -71 149.5t-207 58.5v-418q136 1 207 58t71 151v1zM162 366q0 -93 70.5 -150t207.5 -58v418q-136 -2 -207 -58.5
t-71 -150.5v-1z" />
    <glyph glyph-name="uni0425" unicode="&#x425;" horiz-adv-x="763" 
d="M593 728h111l-264 -356l274 -372h-113l-221 303l-220 -303h-111l274 371l-264 357h114l210 -289z" />
    <glyph glyph-name="uni0426" unicode="&#x426;" horiz-adv-x="815" 
d="M679 -151v151h-575v728h96v-640h396v640h96v-640h78v-239h-91z" />
    <glyph glyph-name="uni0427" unicode="&#x427;" horiz-adv-x="746" 
d="M546 0v276q-93 -26 -188 -26q-273 0 -273 245v233h97v-218q0 -92 45 -132t140 -40q89 0 179 26v364h96v-728h-96z" />
    <glyph glyph-name="uni0428" unicode="&#x428;" horiz-adv-x="1157" 
d="M104 0v728h96v-640h330v640h97v-640h330v640h97v-728h-950z" />
    <glyph glyph-name="uni0429" unicode="&#x429;" horiz-adv-x="1177" 
d="M104 0v728h96v-640h330v640h97v-640h330v640h97v-640h78v-239h-91v151h-937z" />
    <glyph glyph-name="uni042A" unicode="&#x42a;" horiz-adv-x="884" 
d="M283 0v641h-237v87h333v-257h178q126 0 201.5 -60.5t75.5 -169.5v-2q0 -112 -80 -175.5t-208 -63.5h-263zM379 88h170q85 0 136.5 40t51.5 108v2q0 70 -49 108t-134 38h-175v-296z" />
    <glyph glyph-name="uni042B" unicode="&#x42b;" horiz-adv-x="989" 
d="M789 0v728h96v-728h-96zM104 0v728h96v-257h178q126 0 201.5 -60.5t75.5 -170.5v-1q0 -112 -80 -175.5t-208 -63.5h-263zM200 88h170q86 0 137 40t51 109v1q0 70 -49 108t-134 38h-175v-296z" />
    <glyph glyph-name="uni042C" unicode="&#x42c;" horiz-adv-x="705" 
d="M104 0v728h96v-257h178q126 0 201.5 -60.5t75.5 -169.5v-2q0 -112 -80 -175.5t-208 -63.5h-263zM200 88h170q85 0 136.5 40t51.5 108v2q0 70 -49 108t-134 38h-175v-296z" />
    <glyph glyph-name="uni042D" unicode="&#x42d;" horiz-adv-x="779" 
d="M56 622q125 118 294 118q156 0 257 -106t101 -268v-2q0 -159 -103 -267.5t-264 -108.5q-168 0 -291 121l62 67q106 -101 228 -101q108 0 181.5 70t84.5 180h-387v84h386q-12 108 -83.5 176t-175.5 68q-124 0 -232 -96z" />
    <glyph glyph-name="uni042E" unicode="&#x42e;" horiz-adv-x="1148" 
d="M104 0v728h96v-317h158q16 138 115.5 233.5t243.5 95.5q156 0 257.5 -110.5t101.5 -263.5v-2q0 -153 -102.5 -264.5t-258.5 -111.5q-146 0 -245 97t-113 237h-157v-322h-96zM717 76q113 0 186 83.5t73 202.5v2q0 119 -74 203.5t-187 84.5t-186.5 -83.5t-73.5 -202.5v-2
q0 -119 74.5 -203.5t187.5 -84.5z" />
    <glyph glyph-name="uni042F" unicode="&#x42f;" horiz-adv-x="760" 
d="M560 360v280h-214q-82 0 -128.5 -37t-46.5 -100v-2q0 -67 50.5 -104t133.5 -37h205zM268 285q-88 18 -141 74t-53 143v1q0 106 75.5 165.5t204.5 59.5h302v-728h-96v274h-186l-208 -274h-117z" />
    <glyph glyph-name="uni0430" unicode="&#x430;" horiz-adv-x="612" 
d="M271 61q72 0 121 38.5t49 98.5v47q-71 23 -148 23q-70 0 -109.5 -28t-39.5 -77v-2q0 -46 36.5 -73t90.5 -27zM250 -12q-81 0 -140 45t-59 123v2q0 84 62.5 129.5t166.5 45.5q83 0 160 -23v18q0 67 -40 102.5t-113 35.5q-80 0 -161 -38l-27 75q101 46 199 46
q116 0 176 -60q56 -56 56 -161v-328h-91v77q-70 -89 -189 -89z" />
    <glyph glyph-name="uni0431" unicode="&#x431;" horiz-adv-x="682" 
d="M345 -12q-120 0 -191 73q-87 87 -87 255v1q0 202 70 299t224 123l184 31l16 -87l-186 -30q-108 -19 -157.5 -72t-61.5 -165q35 47 90 74.5t123 27.5q116 0 185.5 -71t69.5 -183v-1q0 -116 -78 -196t-201 -79zM346 69q81 0 132 54.5t51 137.5v1q0 80 -48.5 131t-127.5 50
q-85 0 -138 -51t-53 -130q0 -86 52.5 -139.5t131.5 -53.5z" />
    <glyph glyph-name="uni0432" unicode="&#x432;" horiz-adv-x="629" 
d="M90 0v541h274q85 0 134.5 -37t49.5 -102q0 -88 -93 -124q115 -32 115 -130q0 -71 -55.5 -109.5t-150.5 -38.5h-274zM455 392q0 36 -27 56.5t-77 20.5h-169v-161h163q53 0 81.5 23t28.5 61zM477 152q0 41 -32 63.5t-92 22.5h-171v-165h179q55 0 85.5 21.5t30.5 57.5z" />
    <glyph glyph-name="uni0433" unicode="&#x433;" horiz-adv-x="523" 
d="M90 0v541h397v-85h-303v-456h-94z" />
    <glyph glyph-name="uni0434" unicode="&#x434;" horiz-adv-x="693" 
d="M346 450l-158 -367h314zM297 545h98l206 -460h62v-225h-86v140h-461v-140h-86v225h61z" />
    <glyph glyph-name="uni0435" unicode="&#x435;" horiz-adv-x="627" 
d="M330 -12q-115 0 -193.5 78.5t-78.5 202.5v2q0 118 74.5 200t186.5 82q119 0 187 -82t68 -206q0 -7 -2 -29h-419q9 -79 59 -124t120 -45q93 0 164 73l57 -51q-88 -101 -223 -101zM152 303h327q-6 74 -48 122.5t-113 48.5q-67 0 -112.5 -48t-53.5 -123z" />
    <glyph glyph-name="uni0436" unicode="&#x436;" horiz-adv-x="918" 
d="M505 541l-1 -227h82l189 227h112l-229 -265l237 -276h-113l-195 232h-83l1 -232h-92l1 232h-85l-194 -232h-112l237 272l-229 269h114l188 -227h81l-1 227h92z" />
    <glyph glyph-name="uni0437" unicode="&#x437;" horiz-adv-x="587" 
d="M45 62l48 67q89 -62 193 -62q69 0 108.5 24t39.5 64v1q0 38 -38 59.5t-102 20.5h-121v74h119q61 0 94 22t33 60v1q0 37 -34.5 59t-95.5 22q-98 0 -189 -65l-49 63q109 81 242 81q101 0 160.5 -41.5t59.5 -109.5v-1q0 -89 -105 -125q52 -11 85.5 -44t33.5 -84v-1
q0 -68 -64 -113.5t-176 -45.5q-140 0 -242 74z" />
    <glyph glyph-name="uni0438" unicode="&#x438;" horiz-adv-x="671" 
d="M90 0v541h94v-397l307 397h90v-541h-93v401l-311 -401h-87z" />
    <glyph glyph-name="uni0439" unicode="&#x439;" horiz-adv-x="671" 
d="M335 617q-68 0 -112 36t-49 100h67q21 -65 94 -65t94 65h67q-5 -64 -49 -100t-112 -36zM90 0v541h94v-397l307 397h90v-541h-93v401l-311 -401h-87z" />
    <glyph glyph-name="uni043A" unicode="&#x43a;" horiz-adv-x="609" 
d="M184 541v-227h87l194 227h116l-235 -264l241 -277h-116l-198 232h-89v-232h-94v541h94z" />
    <glyph glyph-name="uni043B" unicode="&#x43b;" horiz-adv-x="646" 
d="M367 545l242 -545h-104l-183 429l-184 -429h-101l242 545h88z" />
    <glyph glyph-name="uni043C" unicode="&#x43c;" horiz-adv-x="762" 
d="M90 0v541h98l194 -287l192 287h98v-541h-93v398l-197 -287h-3l-197 285v-396h-92z" />
    <glyph glyph-name="uni043D" unicode="&#x43d;" horiz-adv-x="669" 
d="M90 0v541h94v-225h301v225h93v-541h-93v230h-301v-230h-94z" />
    <glyph glyph-name="uni043E" unicode="&#x43e;" horiz-adv-x="684" 
d="M341 -12q-121 0 -202 82t-81 198v2q0 116 82 199.5t203 83.5t202 -82t81 -199v-2q0 -116 -82 -199t-203 -83zM343 71q82 0 134.5 57t52.5 140v2q0 83 -54.5 141.5t-134.5 58.5q-82 0 -135 -57.5t-53 -140.5v-2q0 -83 54.5 -141t135.5 -58z" />
    <glyph glyph-name="uni043F" unicode="&#x43f;" horiz-adv-x="668" 
d="M90 0v541h487v-541h-94v456h-299v-456h-94z" />
    <glyph glyph-name="uni0440" unicode="&#x440;" horiz-adv-x="701" 
d="M365 71q77 0 128.5 54t51.5 144v2q0 88 -52.5 143.5t-127.5 55.5q-74 0 -129 -56t-55 -142v-2q0 -87 55 -143t129 -56zM90 -166v707h94v-103q78 115 201 115q102 0 179 -77t77 -204v-2q0 -128 -76.5 -205t-179.5 -77q-123 0 -201 110v-264h-94z" />
    <glyph glyph-name="uni0441" unicode="&#x441;" horiz-adv-x="602" 
d="M336 -12q-118 0 -198 82t-80 198v2q0 116 80.5 199.5t198.5 83.5q125 0 216 -96l-60 -64q-75 77 -157 77q-77 0 -130 -58t-53 -140v-2q0 -84 54 -141.5t134 -57.5q84 0 158 76l58 -56q-93 -103 -221 -103z" />
    <glyph glyph-name="uni0442" unicode="&#x442;" horiz-adv-x="584" 
d="M245 0v457h-210v84h513v-84h-209v-457h-94z" />
    <glyph glyph-name="uni0443" unicode="&#x443;" horiz-adv-x="625" 
d="M322 105l164 436h99l-223 -558q-34 -84 -75.5 -118.5t-104.5 -34.5q-59 0 -119 30l32 72q38 -20 81 -20q34 0 57 20t44 69l-240 540h102z" />
    <glyph glyph-name="uni0444" unicode="&#x444;" horiz-adv-x="873" 
d="M483 -166h-93v163q-158 4 -245.5 79.5t-87.5 193.5v1q0 116 88 192.5t245 80.5v215h93v-215q157 -4 245 -79.5t88 -192.5v-1q0 -117 -88 -194t-245 -80v-163zM152 270q0 -85 61.5 -137.5t178.5 -53.5v384q-118 -2 -179 -54t-61 -138v-1zM722 271q0 85 -62 137.5
t-178 54.5v-384q117 2 178.5 54t61.5 137v1z" />
    <glyph glyph-name="uni0445" unicode="&#x445;" horiz-adv-x="607" 
d="M155 541l149 -203l150 203h103l-201 -264l209 -277h-106l-157 214l-157 -214h-103l207 275l-199 266h105z" />
    <glyph glyph-name="uni0446" unicode="&#x446;" horiz-adv-x="685" 
d="M557 -140v140h-467v541h94v-456h299v456h94v-456h66v-225h-86z" />
    <glyph glyph-name="uni0447" unicode="&#x447;" horiz-adv-x="621" 
d="M437 0v185q-84 -21 -147 -21q-219 0 -219 202v175h93v-167q0 -66 33.5 -95t104.5 -29q66 0 135 21v270h94v-541h-94z" />
    <glyph glyph-name="uni0448" unicode="&#x448;" horiz-adv-x="973" 
d="M90 0v541h94v-456h256v456h94v-456h255v456h94v-541h-793z" />
    <glyph glyph-name="uni0449" unicode="&#x449;" horiz-adv-x="991" 
d="M90 0v541h94v-456h256v456h94v-456h255v456h94v-456h66v-225h-86v140h-773z" />
    <glyph glyph-name="uni044A" unicode="&#x44a;" horiz-adv-x="710" 
d="M30 541h269v-180h154q98 0 155.5 -48t57.5 -131v-1q0 -83 -58 -132t-160 -49h-242v458h-176v83zM299 282v-203h147q62 0 94 26.5t32 75.5v1q0 46 -32.5 73.5t-92.5 26.5h-148z" />
    <glyph glyph-name="uni044B" unicode="&#x44b;" horiz-adv-x="830" 
d="M646 0v541h94v-541h-94zM184 541v-180h153q99 0 156.5 -48t57.5 -131v-1q0 -83 -58 -132t-161 -49h-242v541h94zM183 282v-203h148q62 0 93.5 26.5t31.5 75.5v1q0 46 -32 73.5t-92 26.5h-149z" />
    <glyph glyph-name="uni044C" unicode="&#x44c;" horiz-adv-x="595" 
d="M184 541v-180h153q99 0 156.5 -48t57.5 -131v-1q0 -83 -58 -132t-161 -49h-242v541h94zM183 282v-203h148q62 0 93.5 26.5t31.5 75.5v1q0 46 -32 73.5t-92 26.5h-149z" />
    <glyph glyph-name="uni044D" unicode="&#x44d;" horiz-adv-x="605" 
d="M97 141q76 -73 174 -73q73 0 123 47.5t58 119.5l-278 -1v78h277q-9 71 -58 115.5t-122 44.5q-92 0 -172 -71l-51 63q101 89 227 89q119 0 195.5 -79.5t76.5 -202.5v-2q0 -117 -78 -199t-196 -82q-133 0 -229 90z" />
    <glyph glyph-name="uni044E" unicode="&#x44e;" horiz-adv-x="917" 
d="M184 230v-230h-94v541h94v-225h123q16 101 92.5 169t183.5 68q119 0 197.5 -82t78.5 -199v-2q0 -117 -79 -199.5t-199 -82.5q-109 0 -185 69t-90 173h-122zM583 71q80 0 130.5 57t50.5 140v2q0 84 -52 142t-131 58q-80 0 -130.5 -57.5t-50.5 -140.5v-2q0 -83 52 -141
t131 -58z" />
    <glyph glyph-name="uni044F" unicode="&#x44f;" horiz-adv-x="639" 
d="M455 465h-166q-56 0 -89.5 -26.5t-33.5 -70.5v-1q0 -45 33 -71.5t90 -26.5h166v196zM455 196h-147l-145 -196h-110l155 206q-63 15 -99 57t-36 104v1q0 80 58 126.5t157 46.5h260v-541h-93v196z" />
    <glyph glyph-name="uni0450" unicode="&#x450;" horiz-adv-x="627" 
d="M284 619l-121 114l92 42l101 -156h-72zM330 -12q-115 0 -193.5 78.5t-78.5 202.5v2q0 118 74.5 200t186.5 82q119 0 187 -82t68 -206q0 -7 -2 -29h-419q9 -79 59 -124t120 -45q93 0 164 73l57 -51q-88 -101 -223 -101zM152 303h327q-6 74 -48 122.5t-113 48.5
q-67 0 -112.5 -48t-53.5 -123z" />
    <glyph glyph-name="uni0451" unicode="&#x451;" horiz-adv-x="627" 
d="M172 619v106h104v-106h-104zM360 619v106h104v-106h-104zM330 -12q-115 0 -193.5 78.5t-78.5 202.5v2q0 118 74.5 200t186.5 82q119 0 187 -82t68 -206q0 -7 -2 -29h-419q9 -79 59 -124t120 -45q93 0 164 73l57 -51q-88 -101 -223 -101zM152 303h327q-6 74 -48 122.5
t-113 48.5q-67 0 -112.5 -48t-53.5 -123z" />
    <glyph glyph-name="uni0452" unicode="&#x452;" horiz-adv-x="630" 
d="M372 591h-187v-153q78 21 147 21q220 0 220 -202v-221q0 -206 -184 -206q-31 0 -66 8v78q30 -7 53 -7q51 0 77 29t27 98v214q0 66 -33.5 94.5t-105.5 28.5q-64 0 -135 -21v-352h-93v591h-113v77h113v91h93v-91h187v-77z" />
    <glyph glyph-name="uni0453" unicode="&#x453;" horiz-adv-x="523" 
d="M238 619l101 156l92 -42l-121 -114h-72zM90 0v541h397v-85h-303v-456h-94z" />
    <glyph glyph-name="uni0454" unicode="&#x454;" horiz-adv-x="605" 
d="M555 467l-53 -67q-77 72 -163 72q-72 0 -124 -45t-62 -115h278v-78l-279 1q8 -74 61 -120.5t129 -46.5q92 0 165 73l53 -60q-93 -93 -224 -93q-120 0 -199 81t-79 199v2q0 118 80 200.5t200 82.5q126 0 217 -86z" />
    <glyph glyph-name="uni0455" unicode="&#x455;" horiz-adv-x="527" 
d="M271 -10q-125 0 -226 79l46 66q91 -68 184 -68q46 0 74.5 21t28.5 56v2q0 18 -9.5 32t-31 25t-39 17.5t-50.5 15.5q-40 12 -64 21t-53.5 26.5t-44 44t-14.5 62.5v2q0 72 52.5 115.5t134.5 43.5q104 0 196 -61l-41 -69q-83 52 -158 52q-44 0 -70 -20t-26 -51v-2
q0 -14 8.5 -26t18 -19.5t31.5 -16.5t34.5 -13t41.5 -13q38 -12 63 -22t53.5 -28t42.5 -44t14 -61v-2q0 -78 -55 -121.5t-141 -43.5z" />
    <glyph glyph-name="uni0456" unicode="&#x456;" horiz-adv-x="289" 
d="M92 649v98h105v-98h-105zM98 0v541h93v-541h-93z" />
    <glyph glyph-name="uni0457" unicode="&#x457;" horiz-adv-x="289" 
d="M-2 619v106h104v-106h-104zM186 619v106h104v-106h-104zM98 0v541h93v-541h-93z" />
    <glyph glyph-name="uni0458" unicode="&#x458;" horiz-adv-x="289" 
d="M92 649v98h105v-98h-105zM52 -170q-23 0 -53 5v77q18 -3 38 -3q61 0 61 70v562h93v-565q0 -146 -139 -146z" />
    <glyph glyph-name="uni0459" unicode="&#x459;" horiz-adv-x="879" 
d="M385 0v466h-2l-270 -466h-100l312 541h154v-180h143q99 0 156 -48t57 -131v-1q0 -83 -57.5 -132t-160.5 -49h-232zM478 79h137q62 0 94 26.5t32 75.5v1q0 46 -32 73.5t-93 26.5h-138v-203z" />
    <glyph glyph-name="uni045A" unicode="&#x45a;" horiz-adv-x="971" 
d="M570 282v-203h137q62 0 93.5 26.5t31.5 75.5v1q0 46 -32 73.5t-92 26.5h-138zM570 541v-180h143q99 0 156.5 -48t57.5 -131v-1q0 -83 -58 -132t-161 -49h-231v230h-293v-230h-94v541h94v-225h293v225h93z" />
    <glyph glyph-name="uni045B" unicode="&#x45b;" horiz-adv-x="630" 
d="M185 759v-91h187v-77h-187v-153q78 21 147 21q220 0 220 -202v-257h-93v250q0 66 -33.5 94.5t-105.5 28.5q-64 0 -135 -21v-352h-93v591h-113v77h113v91h93z" />
    <glyph glyph-name="uni045C" unicode="&#x45c;" horiz-adv-x="609" 
d="M273 619l101 156l92 -42l-121 -114h-72zM184 541v-227h87l194 227h116l-235 -264l241 -277h-116l-198 232h-89v-232h-94v541h94z" />
    <glyph glyph-name="uni045D" unicode="&#x45d;" horiz-adv-x="671" 
d="M301 619l-121 114l92 42l101 -156h-72zM90 0v541h94v-397l307 397h90v-541h-93v401l-311 -401h-87z" />
    <glyph glyph-name="uni045E" unicode="&#x45e;" horiz-adv-x="625" 
d="M314 617q-68 0 -112 36t-49 100h67q21 -65 94 -65t94 65h67q-5 -64 -49 -100t-112 -36zM322 105l164 436h99l-223 -558q-34 -84 -75.5 -118.5t-104.5 -34.5q-59 0 -119 30l32 72q38 -20 81 -20q34 0 57 20t44 69l-240 540h102z" />
    <glyph glyph-name="uni045F" unicode="&#x45f;" horiz-adv-x="668" 
d="M90 0v541h94v-456h299v456h94v-541h-200v-140h-86v140h-201z" />
    <glyph glyph-name="uni0462" unicode="&#x462;" horiz-adv-x="882" 
d="M582 403q118 0 184 -51t66 -146v-1q0 -94 -69.5 -149.5t-185.5 -55.5h-296v547h-235v82h235v112h96v-112h260v-81h-260v-145h205zM581 318h-204v-232h203q72 0 114 32t42 85v1q0 114 -155 114z" />
    <glyph glyph-name="uni0463" unicode="&#x463;" horiz-adv-x="710" 
d="M299 343h160q96 0 151.5 -45t55.5 -124v-2q0 -79 -56.5 -125.5t-155.5 -46.5h-248v460h-176v81h176v218h93v-218h219v-80h-219v-118zM299 267v-190h154q58 0 88.5 25t30.5 70v1q0 44 -30.5 69t-88.5 25h-154z" />
    <glyph glyph-name="uni0472" unicode="&#x472;" horiz-adv-x="890" 
d="M444 -12q-162 0 -267 109.5t-105 264.5v2q0 155 106 265.5t268 110.5t267 -109.5t105 -264.5v-2q0 -155 -106 -265.5t-268 -110.5zM444 655q-109 0 -184.5 -69.5t-89.5 -176.5h548q-14 107 -90 176.5t-184 69.5zM446 73q110 0 185.5 70.5t87.5 179.5h-549
q13 -109 89.5 -179.5t186.5 -70.5z" />
    <glyph glyph-name="uni0473" unicode="&#x473;" horiz-adv-x="681" 
d="M340 -12q-121 0 -201.5 82t-80.5 198v2q0 116 81.5 199.5t202.5 83.5q120 0 200.5 -82t80.5 -199v-2q0 -116 -81 -199t-202 -83zM340 474q-75 0 -127 -46t-63 -118h380q-13 72 -66 118t-124 46zM342 67q75 0 127 47t62 120h-381q11 -73 64.5 -120t127.5 -47z" />
    <glyph glyph-name="uni0474" unicode="&#x474;" horiz-adv-x="829" 
d="M349 -5l-308 733h107l246 -607l171 426q41 103 93.5 143.5t139.5 40.5h14v-87h-6q-54 0 -88.5 -27.5t-63.5 -96.5l-220 -525h-85z" />
    <glyph glyph-name="uni0475" unicode="&#x475;" horiz-adv-x="634" 
d="M260 -4l-222 545h102l163 -433l107 272q36 93 78.5 129t114.5 36h13v-81h-2q-40 0 -66.5 -22.5t-52.5 -84.5l-152 -361h-83z" />
    <glyph glyph-name="uni0490" unicode="&#x490;" horiz-adv-x="649" 
d="M104 728h406v144h92v-232h-402v-640h-96v728z" />
    <glyph glyph-name="uni0491" unicode="&#x491;" horiz-adv-x="523" 
d="M90 0v541h310v136h87v-221h-303v-456h-94z" />
    <glyph glyph-name="uni0492" unicode="&#x492;" horiz-adv-x="680" 
d="M135 0v316h-78v74h78v338h498v-88h-402v-250h197v-74h-197v-316h-96z" />
    <glyph glyph-name="uni0493" unicode="&#x493;" horiz-adv-x="543" 
d="M110 0v224h-72v63h72v254h397v-85h-303v-169h144v-63h-144v-224h-94z" />
    <glyph glyph-name="uni0496" unicode="&#x496;" horiz-adv-x="1129" 
d="M1081 728l-313 -352l250 -288h93v-239h-91v151h-43l-285 329h-86v-329h-95l1 329h-91l-283 -329h-115l327 376l-314 352h117l277 -315h82l-1 315h95v-315h81l278 315h116z" />
    <glyph glyph-name="uni0497" unicode="&#x497;" horiz-adv-x="928" 
d="M887 541l-229 -265l164 -191h93v-225h-86v140h-47l-195 232h-83l1 -232h-92l1 232h-85l-194 -232h-112l237 272l-229 269h114l188 -227h81l-1 227h92l-1 -227h82l189 227h112z" />
    <glyph glyph-name="uni0498" unicode="&#x498;" horiz-adv-x="693" 
d="M116 562l-59 65q126 113 290 113q119 0 190.5 -53t71.5 -141v-1q0 -131 -142 -174q73 -16 116 -60t43 -112v-1q0 -84 -66 -141t-179 -67l3 -141h-94l3 141q-142 12 -247 102l57 69q107 -87 235 -87q84 0 137 35.5t53 92.5v2q0 59 -52 90.5t-143 31.5h-127v82h128
q80 0 128.5 33t48.5 93v1q0 54 -45 86.5t-121 32.5q-121 0 -229 -92z" />
    <glyph glyph-name="uni0499" unicode="&#x499;" horiz-adv-x="587" 
d="M45 62l48 67q89 -62 193 -62q69 0 108.5 24t39.5 64v1q0 38 -38 59.5t-102 20.5h-121v74h119q61 0 94 22t33 60v1q0 37 -34.5 59t-95.5 22q-98 0 -189 -65l-49 63q109 81 242 81q101 0 160.5 -41.5t59.5 -109.5v-1q0 -89 -105 -125q52 -11 85.5 -44t33.5 -84v-1
q0 -61 -53 -105t-147 -52l3 -130h-88l3 130q-116 10 -200 72z" />
    <glyph glyph-name="uni049A" unicode="&#x49a;" horiz-adv-x="772" 
d="M104 0v728h96v-314h108l293 314h124l-339 -351l272 -289h98v-239h-91v151h-50l-305 328h-110v-328h-96z" />
    <glyph glyph-name="uni049B" unicode="&#x49b;" horiz-adv-x="613" 
d="M184 541v-227h87l194 227h116l-235 -264l167 -192h86v-225h-86v140h-42l-198 232h-89v-232h-94v541h94z" />
    <glyph glyph-name="uni049C" unicode="&#x49c;" horiz-adv-x="793" 
d="M749 728l-281 -350l294 -378h-117l-254 329h-1l1 -223h-69l1 220h-123v-326h-96v728h96v-317h123l-1 223h69l-1 -223h1l243 317h115z" />
    <glyph glyph-name="uni049D" unicode="&#x49d;" horiz-adv-x="657" 
d="M622 541l-210 -258l211 -283h-109l-174 240h-19v-161h-59l1 161h-79v-240h-94v541h94v-225h79l-1 158h59v-158h19l174 225h108z" />
    <glyph glyph-name="uni04A0" unicode="&#x4a0;" horiz-adv-x="941" 
d="M46 641v87h333v-314h108l293 314h124l-339 -351l355 -377h-126l-305 328h-110v-328h-96v641h-237z" />
    <glyph glyph-name="uni04A1" unicode="&#x4a1;" horiz-adv-x="724" 
d="M299 541v-227h87l194 227h116l-235 -264l241 -277h-116l-198 232h-89v-232h-94v458h-175v83h269z" />
    <glyph glyph-name="uni04A2" unicode="&#x4a2;" horiz-adv-x="818" 
d="M104 0v728h96v-317h398v317h97v-640h78v-239h-91v151h-84v322h-398v-322h-96z" />
    <glyph glyph-name="uni04A3" unicode="&#x4a3;" horiz-adv-x="686" 
d="M89 0v541h94v-225h301v225h93v-456h68v-225h-86v140h-75v230h-301v-230h-94z" />
    <glyph glyph-name="uni04A4" unicode="&#x4a4;" horiz-adv-x="1071" 
d="M561 0v322h-387v-322h-96v728h96v-317h387v317h463v-88h-366v-640h-97z" />
    <glyph glyph-name="uni04A5" unicode="&#x4a5;" horiz-adv-x="899" 
d="M477 0v230h-293v-230h-94v541h94v-225h293v225h386v-85h-293v-456h-93z" />
    <glyph glyph-name="uni04AA" unicode="&#x4aa;" horiz-adv-x="779" 
d="M388 -151l3 142q-139 16 -229 121t-90 250v2q0 157 105 266.5t265 109.5q93 0 158.5 -29t125.5 -85l-63 -71q-104 97 -222 97q-115 0 -192 -82.5t-77 -203.5v-2q0 -121 77 -204.5t192 -83.5q69 0 121 25t106 77l63 -62q-110 -113 -252 -126l3 -141h-94z" />
    <glyph glyph-name="uni04AB" unicode="&#x4ab;" horiz-adv-x="602" 
d="M287 -140l3 132q-102 16 -167 94t-65 182v2q0 116 80.5 199.5t198.5 83.5q125 0 216 -96l-60 -64q-75 77 -157 77q-77 0 -130 -58t-53 -140v-2q0 -84 54 -141.5t134 -57.5q84 0 158 76l58 -56q-81 -90 -185 -101l3 -130h-88z" />
    <glyph glyph-name="uni04AE" unicode="&#x4ae;" horiz-adv-x="753" 
d="M328 0v288l-299 440h115l233 -352l235 352h112l-299 -438v-290h-97z" />
    <glyph glyph-name="uni04AF" unicode="&#x4af;" horiz-adv-x="621" 
d="M583 541l-226 -529v-178h-94v180l-225 527h103l170 -428l171 428h101z" />
    <glyph glyph-name="uni04B0" unicode="&#x4b0;" horiz-adv-x="753" 
d="M328 0v223h-187v74h181l-293 431h115l233 -352l235 352h112l-294 -431h181v-74h-186v-223h-97z" />
    <glyph glyph-name="uni04B1" unicode="&#x4b1;" horiz-adv-x="621" 
d="M523 63v-63h-166v-166h-94v166h-165v63h144l-204 478h103l170 -428l171 428h101l-205 -478h145z" />
    <glyph glyph-name="uni04B2" unicode="&#x4b2;" horiz-adv-x="778" 
d="M593 728h111l-264 -356l209 -284h97v-239h-91v151h-54l-221 303l-220 -303h-111l274 371l-264 357h114l210 -289z" />
    <glyph glyph-name="uni04B3" unicode="&#x4b3;" horiz-adv-x="613" 
d="M155 541l149 -203l150 203h103l-201 -264l145 -192h89v-225h-86v140h-45l-157 214l-157 -214h-103l207 275l-199 266h105z" />
    <glyph glyph-name="uni04B6" unicode="&#x4b6;" horiz-adv-x="765" 
d="M546 0v276q-93 -26 -188 -26q-273 0 -273 245v233h97v-218q0 -92 45 -132t140 -40q89 0 179 26v364h96v-640h78v-239h-91v151h-83z" />
    <glyph glyph-name="uni04B7" unicode="&#x4b7;" horiz-adv-x="639" 
d="M437 0v185q-84 -21 -147 -21q-219 0 -219 202v175h93v-167q0 -66 33.5 -95t104.5 -29q66 0 135 21v270h94v-456h66v-225h-86v140h-74z" />
    <glyph glyph-name="uni04B8" unicode="&#x4b8;" horiz-adv-x="742" 
d="M542 0v276q-64 -18 -145 -25l1 -169h-70l1 168q-248 11 -248 245v233h97v-218q0 -83 36.5 -123.5t114.5 -47.5l-1 223h70l-1 -223q76 5 145 25v364h97v-728h-97z" />
    <glyph glyph-name="uni04B9" unicode="&#x4b9;" horiz-adv-x="621" 
d="M437 0v185q-55 -15 -107 -20v-112h-59v111q-200 9 -200 200v177h93v-164q0 -63 26.5 -92t81.5 -34l-1 156h59v-157q54 4 107 21v270h94v-541h-94z" />
    <glyph glyph-name="uni04BA" unicode="&#x4ba;" horiz-adv-x="742" 
d="M193 728v-277q95 27 188 27q273 0 273 -245v-233h-97v218q0 92 -45 132t-140 40q-90 0 -179 -27v-363h-97v728h97z" />
    <glyph glyph-name="uni04BB" unicode="&#x4bb;" horiz-adv-x="650" 
d="M90 0v759h94v-309q66 103 180 103q95 0 149 -58.5t54 -155.5v-339h-94v313q0 72 -36.5 113t-102.5 41q-65 0 -107.5 -43.5t-42.5 -115.5v-308h-94z" />
    <glyph glyph-name="uni04C0" unicode="&#x4c0;" horiz-adv-x="319" 
d="M111 0v728h97v-728h-97z" />
    <glyph glyph-name="uni04C1" unicode="&#x4c1;" horiz-adv-x="1117" 
d="M559 789q-69 0 -113 33t-49 92h71q19 -53 91 -53t91 53h71q-5 -59 -49 -92t-113 -33zM36 728h117l277 -315h82l-1 315h95v-315h81l278 315h116l-313 -352l326 -376h-117l-285 329h-86v-329h-95l1 329h-91l-283 -329h-115l327 376z" />
    <glyph glyph-name="uni04C2" unicode="&#x4c2;" horiz-adv-x="918" 
d="M459 617q-68 0 -112 36t-49 100h67q21 -65 94 -65t94 65h67q-5 -64 -49 -100t-112 -36zM505 541l-1 -227h82l189 227h112l-229 -265l237 -276h-113l-195 232h-83l1 -232h-92l1 232h-85l-194 -232h-112l237 272l-229 269h114l188 -227h81l-1 227h92z" />
    <glyph glyph-name="uni04CF" unicode="&#x4cf;" horiz-adv-x="289" 
d="M98 0v759h93v-759h-93z" />
    <glyph glyph-name="uni04D0" unicode="&#x4d0;" horiz-adv-x="830" 
d="M415 799q-69 0 -113 33t-49 92h71q19 -53 91 -53t91 53h71q-5 -59 -49 -92t-113 -33zM259 274h308l-154 347zM41 0l329 733h90l328 -733h-102l-83 188h-380l-83 -188h-99z" />
    <glyph glyph-name="uni04D1" unicode="&#x4d1;" horiz-adv-x="612" 
d="M307 617q-68 0 -112 36t-49 100h67q21 -65 94 -65t94 65h67q-5 -64 -49 -100t-112 -36zM271 61q72 0 121 38.5t49 98.5v47q-71 23 -148 23q-70 0 -109.5 -28t-39.5 -77v-2q0 -46 36.5 -73t90.5 -27zM250 -12q-81 0 -140 45t-59 123v2q0 84 62.5 129.5t166.5 45.5
q83 0 160 -23v18q0 67 -40 102.5t-113 35.5q-80 0 -161 -38l-27 75q101 46 199 46q116 0 176 -60q56 -56 56 -161v-328h-91v77q-70 -89 -189 -89z" />
    <glyph glyph-name="uni04D2" unicode="&#x4d2;" horiz-adv-x="830" 
d="M261 801v101h107v-101h-107zM462 801v101h106v-101h-106zM259 274h308l-154 347zM41 0l329 733h90l328 -733h-102l-83 188h-380l-83 -188h-99z" />
    <glyph glyph-name="uni04D3" unicode="&#x4d3;" horiz-adv-x="612" 
d="M161 619v106h104v-106h-104zM349 619v106h104v-106h-104zM271 61q72 0 121 38.5t49 98.5v47q-71 23 -148 23q-70 0 -109.5 -28t-39.5 -77v-2q0 -46 36.5 -73t90.5 -27zM250 -12q-81 0 -140 45t-59 123v2q0 84 62.5 129.5t166.5 45.5q83 0 160 -23v18q0 67 -40 102.5
t-113 35.5q-80 0 -161 -38l-27 75q101 46 199 46q116 0 176 -60q56 -56 56 -161v-328h-91v77q-70 -89 -189 -89z" />
    <glyph glyph-name="uni04D4" unicode="&#x4d4;" horiz-adv-x="1095" 
d="M276 274h238v369h-24zM20 0l422 728h582v-87h-414v-231h367v-87h-367v-236h419v-87h-515v188h-285l-109 -188h-100z" />
    <glyph glyph-name="uni04D5" unicode="&#x4d5;" horiz-adv-x="999" 
d="M524 303h326q-6 74 -48 122.5t-113 48.5q-66 0 -111.5 -48t-53.5 -123zM255 -12q-85 0 -144.5 45t-59.5 123v2q0 84 61.5 129.5t164.5 45.5q78 0 154 -23v18q0 67 -38 102.5t-110 35.5q-76 0 -157 -38l-27 75q99 46 195 46q152 0 196 -108q33 52 86 82t116 30
q118 0 185.5 -82.5t67.5 -205.5q0 -18 -1 -29h-420q9 -79 59.5 -124t120.5 -45q92 0 163 73l57 -51q-88 -101 -222 -101q-65 0 -121 27t-93 76q-105 -103 -233 -103zM268 62q103 0 184 88q-18 48 -21 96q-76 22 -141 22q-69 0 -107.5 -28t-38.5 -77v-2q0 -46 35.5 -72.5
t88.5 -26.5z" />
    <glyph glyph-name="uni04D6" unicode="&#x4d6;" horiz-adv-x="705" 
d="M371 789q-69 0 -113 33t-49 92h71q19 -53 91 -53t91 53h71q-5 -59 -49 -92t-113 -33zM104 0v728h530v-87h-434v-231h387v-87h-387v-236h439v-87h-535z" />
    <glyph glyph-name="uni04D7" unicode="&#x4d7;" horiz-adv-x="627" 
d="M318 617q-68 0 -112 36t-49 100h67q21 -65 94 -65t94 65h67q-5 -64 -49 -100t-112 -36zM330 -12q-115 0 -193.5 78.5t-78.5 202.5v2q0 118 74.5 200t186.5 82q119 0 187 -82t68 -206q0 -7 -2 -29h-419q9 -79 59 -124t120 -45q93 0 164 73l57 -51q-88 -101 -223 -101z
M152 303h327q-6 74 -48 122.5t-113 48.5q-67 0 -112.5 -48t-53.5 -123z" />
    <glyph glyph-name="uni04D8" unicode="&#x4d8;" horiz-adv-x="837" 
d="M99 602q122 138 307 138q157 0 258 -105t101 -269v-3q0 -159 -100 -267t-251 -108q-107 0 -186.5 52.5t-118 138.5t-38.5 192v1q0 23 1 36h591q-12 109 -81.5 176.5t-175.5 67.5q-138 0 -243 -112zM414 75q103 0 170.5 69t78.5 180h-490q8 -111 73.5 -180t167.5 -69z" />
    <glyph glyph-name="uni04D9" unicode="&#x4d9;" horiz-adv-x="627" 
d="M297 554q115 0 194 -79t79 -203v-2q0 -118 -74.5 -200t-186.5 -82q-119 0 -187 82.5t-68 205.5q0 18 1 29h419q-8 79 -58 124t-121 45q-92 0 -163 -73l-57 51q89 102 222 102zM475 238h-326q6 -74 48 -122.5t113 -48.5q66 0 111.5 48t53.5 123z" />
    <glyph glyph-name="uni04DC" unicode="&#x4dc;" horiz-adv-x="1117" 
d="M405 791v101h107v-101h-107zM606 791v101h106v-101h-106zM36 728h117l277 -315h82l-1 315h95v-315h81l278 315h116l-313 -352l326 -376h-117l-285 329h-86v-329h-95l1 329h-91l-283 -329h-115l327 376z" />
    <glyph glyph-name="uni04DD" unicode="&#x4dd;" horiz-adv-x="918" 
d="M313 619v106h104v-106h-104zM501 619v106h104v-106h-104zM505 541l-1 -227h82l189 227h112l-229 -265l237 -276h-113l-195 232h-83l1 -232h-92l1 232h-85l-194 -232h-112l237 272l-229 269h114l188 -227h81l-1 227h92z" />
    <glyph glyph-name="uni04DE" unicode="&#x4de;" horiz-adv-x="693" 
d="M187 797v101h107v-101h-107zM388 797v101h106v-101h-106zM116 562l-59 65q126 113 290 113q119 0 190.5 -53t71.5 -141v-1q0 -131 -142 -174q73 -16 116 -60t43 -112v-1q0 -92 -79 -151t-211 -59q-169 0 -290 104l57 69q107 -87 235 -87q84 0 137 35.5t53 92.5v2
q0 59 -52 90.5t-143 31.5h-127v82h128q80 0 128.5 33t48.5 93v1q0 54 -45 86.5t-121 32.5q-121 0 -229 -92z" />
    <glyph glyph-name="uni04DF" unicode="&#x4df;" horiz-adv-x="587" 
d="M144 619v106h104v-106h-104zM332 619v106h104v-106h-104zM45 62l48 67q89 -62 193 -62q69 0 108.5 24t39.5 64v1q0 38 -38 59.5t-102 20.5h-121v74h119q61 0 94 22t33 60v1q0 37 -34.5 59t-95.5 22q-98 0 -189 -65l-49 63q109 81 242 81q101 0 160.5 -41.5t59.5 -109.5
v-1q0 -89 -105 -125q52 -11 85.5 -44t33.5 -84v-1q0 -68 -64 -113.5t-176 -45.5q-140 0 -242 74z" />
    <glyph glyph-name="uni04E2" unicode="&#x4e2;" horiz-adv-x="830" 
d="M239 807v75h352v-75h-352zM726 0h-97v578l-444 -578h-81v728h96v-564l434 564h92v-728z" />
    <glyph glyph-name="uni04E3" unicode="&#x4e3;" horiz-adv-x="671" 
d="M168 637v73h334v-73h-334zM90 0v541h94v-397l307 397h90v-541h-93v401l-311 -401h-87z" />
    <glyph glyph-name="uni04E4" unicode="&#x4e4;" horiz-adv-x="830" 
d="M261 788v101h107v-101h-107zM462 788v101h106v-101h-106zM726 0h-97v578l-444 -578h-81v728h96v-564l434 564h92v-728z" />
    <glyph glyph-name="uni04E5" unicode="&#x4e5;" horiz-adv-x="671" 
d="M189 619v106h104v-106h-104zM377 619v106h104v-106h-104zM90 0v541h94v-397l307 397h90v-541h-93v401l-311 -401h-87z" />
    <glyph glyph-name="uni04E6" unicode="&#x4e6;" horiz-adv-x="892" 
d="M293 801v101h107v-101h-107zM494 801v101h106v-101h-106zM445 -12q-163 0 -268 109.5t-105 264.5v2q0 155 106 265.5t269 110.5t268 -109.5t105 -264.5v-2q0 -155 -106 -265.5t-269 -110.5zM447 76q118 0 195.5 83t77.5 203v2q0 120 -78.5 204t-196.5 84t-195.5 -83
t-77.5 -203v-2q0 -120 78.5 -204t196.5 -84z" />
    <glyph glyph-name="uni04E7" unicode="&#x4e7;" horiz-adv-x="684" 
d="M196 619v106h104v-106h-104zM384 619v106h104v-106h-104zM341 -12q-121 0 -202 82t-81 198v2q0 116 82 199.5t203 83.5t202 -82t81 -199v-2q0 -116 -82 -199t-203 -83zM343 71q82 0 134.5 57t52.5 140v2q0 83 -54.5 141.5t-134.5 58.5q-82 0 -135 -57.5t-53 -140.5v-2
q0 -83 54.5 -141t135.5 -58z" />
    <glyph glyph-name="uni04E8" unicode="&#x4e8;" horiz-adv-x="890" 
d="M444 -12q-162 0 -267 109.5t-105 264.5v2q0 155 106 265.5t268 110.5t267 -109.5t105 -264.5v-2q0 -155 -106 -265.5t-268 -110.5zM444 655q-109 0 -184.5 -69.5t-89.5 -176.5h548q-14 107 -90 176.5t-184 69.5zM446 73q110 0 185.5 70.5t87.5 179.5h-549
q13 -109 89.5 -179.5t186.5 -70.5z" />
    <glyph glyph-name="uni04E9" unicode="&#x4e9;" horiz-adv-x="681" 
d="M340 -12q-121 0 -201.5 82t-80.5 198v2q0 116 81.5 199.5t202.5 83.5q120 0 200.5 -82t80.5 -199v-2q0 -116 -81 -199t-202 -83zM340 474q-75 0 -127 -46t-63 -118h380q-13 72 -66 118t-124 46zM342 67q75 0 127 47t62 120h-381q11 -73 64.5 -120t127.5 -47z" />
    <glyph glyph-name="uni04EE" unicode="&#x4ee;" horiz-adv-x="748" 
d="M210 807v75h352v-75h-352zM297 0h-108l149 252l-302 476h110l246 -392l221 392h108z" />
    <glyph glyph-name="uni04EF" unicode="&#x4ef;" horiz-adv-x="625" 
d="M147 637v73h334v-73h-334zM322 105l164 436h99l-223 -558q-34 -84 -75.5 -118.5t-104.5 -34.5q-59 0 -119 30l32 72q38 -20 81 -20q34 0 57 20t44 69l-240 540h102z" />
    <glyph glyph-name="uni04F0" unicode="&#x4f0;" horiz-adv-x="748" 
d="M233 788v101h107v-101h-107zM434 788v101h106v-101h-106zM297 0h-108l149 252l-302 476h110l246 -392l221 392h108z" />
    <glyph glyph-name="uni04F1" unicode="&#x4f1;" horiz-adv-x="625" 
d="M168 619v106h104v-106h-104zM356 619v106h104v-106h-104zM322 105l164 436h99l-223 -558q-34 -84 -75.5 -118.5t-104.5 -34.5q-59 0 -119 30l32 72q38 -20 81 -20q34 0 57 20t44 69l-240 540h102z" />
    <glyph glyph-name="uni04F2" unicode="&#x4f2;" horiz-adv-x="748" 
d="M422 788l108 139l89 -41l-123 -98h-74zM255 788l109 139l89 -41l-123 -98h-75zM297 0h-108l149 252l-302 476h110l246 -392l221 392h108z" />
    <glyph glyph-name="uni04F3" unicode="&#x4f3;" horiz-adv-x="625" 
d="M189 619l100 156l88 -41l-117 -115h-71zM350 619l102 156l88 -41l-118 -115h-72zM322 105l164 436h99l-223 -558q-34 -84 -75.5 -118.5t-104.5 -34.5q-59 0 -119 30l32 72q38 -20 81 -20q34 0 57 20t44 69l-240 540h102z" />
    <glyph glyph-name="uni04F4" unicode="&#x4f4;" horiz-adv-x="746" 
d="M210 788v101h107v-101h-107zM411 788v101h106v-101h-106zM546 0v276q-93 -26 -188 -26q-273 0 -273 245v233h97v-218q0 -92 45 -132t140 -40q89 0 179 26v364h96v-728h-96z" />
    <glyph glyph-name="uni04F5" unicode="&#x4f5;" horiz-adv-x="621" 
d="M155 619v106h104v-106h-104zM343 619v106h104v-106h-104zM437 0v185q-84 -21 -147 -21q-219 0 -219 202v175h93v-167q0 -66 33.5 -95t104.5 -29q66 0 135 21v270h94v-541h-94z" />
    <glyph glyph-name="uni04F8" unicode="&#x4f8;" horiz-adv-x="989" 
d="M340 788v101h107v-101h-107zM541 788v101h106v-101h-106zM789 0v728h96v-728h-96zM104 0v728h96v-257h178q126 0 201.5 -60.5t75.5 -170.5v-1q0 -112 -80 -175.5t-208 -63.5h-263zM200 88h170q86 0 137 40t51 109v1q0 70 -49 108t-134 38h-175v-296z" />
    <glyph glyph-name="uni04F9" unicode="&#x4f9;" horiz-adv-x="830" 
d="M269 619v106h104v-106h-104zM457 619v106h104v-106h-104zM646 0v541h94v-541h-94zM184 541v-180h153q99 0 156.5 -48t57.5 -131v-1q0 -83 -58 -132t-161 -49h-242v541h94zM183 282v-203h148q62 0 93.5 26.5t31.5 75.5v1q0 46 -32 73.5t-92 26.5h-149z" />
    <glyph glyph-name="baht" unicode="&#xe3f;" horiz-adv-x="672" 
d="M291 -123h-68l16 123h-146v728h250l12 83h69l-13 -86q83 -11 132 -59t49 -121v-1q0 -121 -123 -169q148 -47 148 -175v-1q0 -94 -69.5 -147t-185.5 -52h-54zM181 403h120l35 245h-155v-245zM503 531q0 46 -28.5 76.5t-80.5 37.5l-34 -242q67 2 105 35t38 92v1zM181 80h74
l35 251h-109v-251zM358 331h-8l-35 -251h49q77 0 120.5 33t43.5 93v1q0 59 -44 92t-126 32z" />
    <glyph glyph-name="Wgrave" unicode="&#x1e80;" horiz-adv-x="1162" 
d="M620 791h-76l-124 98l92 41zM306 -5l-258 733h105l197 -586l193 588h80l193 -588l198 586h101l-258 -733h-82l-194 570l-193 -570h-82z" />
    <glyph glyph-name="wgrave" unicode="&#x1e81;" horiz-adv-x="903" 
d="M417 619l-121 114l92 42l101 -156h-72zM230 -4l-185 545h98l132 -415l138 417h79l138 -417l133 415h96l-186 -545h-83l-138 409l-139 -409h-83z" />
    <glyph glyph-name="Wacute" unicode="&#x1e82;" horiz-adv-x="1162" 
d="M542 791l109 139l91 -41l-123 -98h-77zM306 -5l-258 733h105l197 -586l193 588h80l193 -588l198 586h101l-258 -733h-82l-194 570l-193 -570h-82z" />
    <glyph glyph-name="wacute" unicode="&#x1e83;" horiz-adv-x="903" 
d="M414 619l101 156l92 -42l-121 -114h-72zM230 -4l-185 545h98l132 -415l138 417h79l138 -417l133 415h96l-186 -545h-83l-138 409l-139 -409h-83z" />
    <glyph glyph-name="Wdieresis" unicode="&#x1e84;" horiz-adv-x="1162" 
d="M428 791v101h107v-101h-107zM629 791v101h106v-101h-106zM306 -5l-258 733h105l197 -586l193 588h80l193 -588l198 586h101l-258 -733h-82l-194 570l-193 -570h-82z" />
    <glyph glyph-name="wdieresis" unicode="&#x1e85;" horiz-adv-x="903" 
d="M305 619v106h104v-106h-104zM493 619v106h104v-106h-104zM230 -4l-185 545h98l132 -415l138 417h79l138 -417l133 415h96l-186 -545h-83l-138 409l-139 -409h-83z" />
    <glyph glyph-name="Ygrave" unicode="&#x1ef2;" horiz-adv-x="753" 
d="M415 788h-76l-124 98l92 41zM328 0v288l-299 440h115l233 -352l235 352h112l-299 -438v-290h-97z" />
    <glyph glyph-name="ygrave" unicode="&#x1ef3;" horiz-adv-x="625" 
d="M280 619l-121 114l92 42l101 -156h-72zM322 105l164 436h99l-223 -558q-34 -84 -75.5 -118.5t-104.5 -34.5q-59 0 -119 30l32 72q38 -20 81 -20q34 0 57 20t44 69l-240 540h102z" />
    <glyph glyph-name="enspace" unicode="&#x2002;" horiz-adv-x="500" 
 />
    <glyph glyph-name="emspace" unicode="&#x2003;" horiz-adv-x="1000" 
 />
    <glyph glyph-name="threeperemspace" unicode="&#x2004;" horiz-adv-x="333" 
 />
    <glyph glyph-name="fourperemspace" unicode="&#x2005;" horiz-adv-x="250" 
 />
    <glyph glyph-name="figurespace" unicode="&#x2007;" horiz-adv-x="630" 
 />
    <glyph glyph-name="thinspace" unicode="&#x2009;" horiz-adv-x="133" 
 />
    <glyph glyph-name="hairspace" unicode="&#x200a;" horiz-adv-x="75" 
 />
    <glyph glyph-name="endash" unicode="&#x2013;" horiz-adv-x="557" 
d="M68 269v91h421v-91h-421z" />
    <glyph glyph-name="emdash" unicode="&#x2014;" horiz-adv-x="942" 
d="M68 269v91h805v-91h-805z" />
    <glyph glyph-name="quoteleft" unicode="&#x2018;" horiz-adv-x="270" 
d="M76 479v103q0 69 31.5 104.5t97.5 46.5l12 -42q-81 -24 -75 -92h42v-120h-108z" />
    <glyph glyph-name="quoteright" unicode="&#x2019;" horiz-adv-x="270" 
d="M66 474l-13 42q82 25 76 92h-43v120h109v-102q0 -69 -31 -105t-98 -47z" />
    <glyph glyph-name="quotesinglbase" unicode="&#x201a;" horiz-adv-x="270" 
d="M61 -134l-13 42q82 24 76 92h-43v120h109v-103q0 -69 -31.5 -104.5t-97.5 -46.5z" />
    <glyph glyph-name="quotedblleft" unicode="&#x201c;" horiz-adv-x="488" 
d="M76 479v103q0 69 31.5 104.5t97.5 46.5l12 -42q-81 -24 -75 -92h42v-120h-108zM294 479v103q0 69 31 104.5t97 46.5l13 -42q-81 -24 -75 -92h42v-120h-108z" />
    <glyph glyph-name="quotedblright" unicode="&#x201d;" horiz-adv-x="488" 
d="M66 474l-13 42q82 25 76 92h-43v120h109v-102q0 -69 -31 -105t-98 -47zM284 474l-13 42q82 25 76 92h-43v120h109v-102q0 -69 -31 -105t-98 -47z" />
    <glyph glyph-name="quotedblbase" unicode="&#x201e;" horiz-adv-x="488" 
d="M61 -134l-13 42q82 24 76 92h-43v120h109v-103q0 -69 -31.5 -104.5t-97.5 -46.5zM279 -134l-13 42q82 24 76 92h-43v120h109v-103q0 -69 -31.5 -104.5t-97.5 -46.5z" />
    <glyph glyph-name="dagger" unicode="&#x2020;" horiz-adv-x="434" 
d="M186 248l7 290l-128 -8v62l127 -8l-10 144h70l-10 -144l127 8v-62l-128 8l7 -290h-62z" />
    <glyph glyph-name="daggerdbl" unicode="&#x2021;" horiz-adv-x="455" 
d="M193 0l10 144l-127 -8v62l127 -8l-7 174l7 174l-127 -8v62l127 -8l-10 144h69l-9 -144l126 8v-62l-127 8l7 -174l-7 -174l127 8v-62l-126 8l9 -144h-69z" />
    <glyph glyph-name="bullet" unicode="&#x2022;" horiz-adv-x="509" 
d="M255 227q-58 0 -99 40t-41 98v2q0 57 41.5 97.5t98.5 40.5q56 0 97.5 -40.5t41.5 -97.5v-2q0 -57 -41 -97.5t-98 -40.5z" />
    <glyph glyph-name="ellipsis" unicode="&#x2026;" horiz-adv-x="782" 
d="M81 0v117h106v-117h-106zM338 0v117h106v-117h-106zM595 0v117h106v-117h-106z" />
    <glyph glyph-name="perthousand" unicode="&#x2030;" horiz-adv-x="1273" 
d="M223 364q-73 0 -119.5 54t-46.5 130v2q0 77 47 131.5t121 54.5q72 0 119 -54t47 -130v-2q0 -76 -47.5 -131t-120.5 -55zM748 728l-283 -383l-250 -345h-83l282 381l251 347h83zM225 429q40 0 65 34.5t25 84.5v2q0 51 -27 86.5t-65 35.5q-40 0 -65 -35t-25 -85v-2
q0 -52 26.5 -86.5t65.5 -34.5zM1048 -8q-73 0 -119.5 54t-46.5 130v2q0 77 47 131.5t121 54.5q72 0 119 -54t47 -130v-2q0 -77 -47.5 -131.5t-120.5 -54.5zM655 -8q-73 0 -119.5 54t-46.5 130v2q0 77 47.5 131.5t120.5 54.5t119.5 -54t46.5 -130v-2q0 -77 -47 -131.5
t-121 -54.5zM1050 56q40 0 64.5 34.5t24.5 85.5v2q0 51 -26.5 86t-64.5 35q-40 0 -65 -34.5t-25 -84.5v-2q0 -52 26.5 -87t65.5 -35zM657 56q40 0 65 34.5t25 85.5v2q0 51 -26.5 86t-65.5 35q-40 0 -65 -34.5t-25 -84.5v-2q0 -52 27 -87t65 -35z" />
    <glyph glyph-name="guilsinglleft" unicode="&#x2039;" horiz-adv-x="357" 
d="M227 44l-174 222v9l174 223l67 -37l-135 -189l135 -191z" />
    <glyph glyph-name="guilsinglright" unicode="&#x203a;" horiz-adv-x="357" 
d="M130 44l-67 36l136 190l-136 190l67 38l174 -223v-9z" />
    <glyph glyph-name="fraction" unicode="&#x2044;" horiz-adv-x="112" 
d="M-222 0l259 375l236 353h61l-259 -375l-236 -353h-61z" />
    <glyph glyph-name="zero.sup" unicode="&#x2070;" 
d="M209 431q-69 0 -112 58t-43 151v3q0 94 43.5 153t112.5 59t112.5 -58.5t43.5 -151.5v-3q0 -93 -44.5 -152t-112.5 -59zM209 799q-42 0 -67.5 -42.5t-25.5 -111.5v-5q0 -69 25.5 -111t68.5 -42t68.5 42t25.5 111v5q0 69 -26 111.5t-69 42.5z" />
    <glyph glyph-name="four.sup" unicode="&#x2074;" 
d="M317 530v-91h-57v91h-196l-11 54l199 266h65v-270h56v-50h-56zM261 579v199l-150 -199h150z" />
    <glyph glyph-name="five.sup" unicode="&#x2075;" 
d="M206 431q-83 0 -151 65l39 44q54 -54 114 -54q39 0 64 22t25 56q0 33 -25 53t-65 20q-45 0 -86 -19l-40 23l15 203h243v-57h-193l-8 -110q34 14 79 14q61 0 101.5 -33.5t40.5 -90.5q0 -60 -43 -98t-110 -38z" />
    <glyph glyph-name="six.sup" unicode="&#x2076;" 
d="M210 431q-63 0 -103 40q-51 51 -51 157v2q0 101 46 163t123 62q66 0 117 -46l-33 -46q-42 37 -86 37q-42 0 -72.5 -41t-32.5 -103q42 44 103 44q56 0 94 -35t38 -95t-41 -99.5t-102 -39.5zM208 484q38 0 62 23t24 60t-22.5 59.5t-60.5 22.5q-39 0 -63.5 -22.5
t-24.5 -59.5v-1q0 -35 25 -59t60 -23z" />
    <glyph glyph-name="seven.sup" unicode="&#x2077;" 
d="M174 439h-69l179 347h-212v58h282v-46z" />
    <glyph glyph-name="eight.sup" unicode="&#x2078;" 
d="M210 431q-66 0 -108 32.5t-42 85.5q0 67 72 101q-61 30 -61 92q0 49 40.5 81t99.5 32t98.5 -32t39.5 -81q0 -61 -61 -92q73 -32 73 -99q0 -54 -42.5 -87t-108.5 -33zM211 804q-36 0 -59 -18t-23 -47q0 -30 23 -49t59 -19q35 0 58 19t23 49q0 28 -23 46.5t-58 18.5z
M211 623q-41 0 -67 -20t-26 -52q0 -31 25.5 -50.5t67.5 -19.5q41 0 66.5 19.5t25.5 50.5q0 32 -26 52t-66 20z" />
    <glyph glyph-name="nine.sup" unicode="&#x2079;" 
d="M209 632q39 0 63.5 23t24.5 61v1q0 36 -25 60.5t-60 23.5q-38 0 -62 -23.5t-24 -61.5q0 -39 22.5 -61.5t60.5 -22.5zM210 854q63 0 103 -40q51 -51 51 -157v-2q0 -102 -45.5 -163t-123.5 -61q-70 0 -123 48l33 46q43 -40 92 -40q43 0 73 39t31 100q-41 -43 -101 -43
q-56 0 -94.5 35.5t-38.5 96.5t41 101t102 40z" />
    <glyph glyph-name="zero.inf" unicode="&#x2080;" 
d="M209 -147q-69 0 -112 58t-43 151v3q0 94 43.5 153t112.5 59t112.5 -58.5t43.5 -151.5v-3q0 -93 -44.5 -152t-112.5 -59zM209 221q-42 0 -67.5 -42.5t-25.5 -111.5v-5q0 -69 25.5 -111t68.5 -42t68.5 42t25.5 111v5q0 69 -26 111.5t-69 42.5z" />
    <glyph glyph-name="one.inf" unicode="&#x2081;" horiz-adv-x="342" 
d="M225 -137h-60v346l-87 -33l-17 52l117 45h47v-410z" />
    <glyph glyph-name="two.inf" unicode="&#x2082;" 
d="M62 -137v52l148 127q43 36 60.5 61t17.5 52q0 29 -21 47.5t-52 18.5q-58 0 -104 -67l-45 32q61 91 153 91q57 0 94.5 -33.5t37.5 -83.5q0 -41 -21 -72.5t-72 -74.5l-113 -95h209v-55h-292z" />
    <glyph glyph-name="three.inf" unicode="&#x2083;" 
d="M207 -147q-91 0 -154 71l39 42q51 -59 116 -59q34 0 57 20t23 51q0 33 -27.5 51.5t-72.5 18.5h-37l-10 38l126 125h-190v55h267v-48l-126 -123q59 -5 95.5 -34t36.5 -82q0 -56 -41 -91t-102 -35z" />
    <glyph glyph-name="four.inf" unicode="&#x2084;" 
d="M317 -48v-91h-57v91h-196l-11 54l199 266h65v-270h56v-50h-56zM261 1v199l-150 -199h150z" />
    <glyph glyph-name="five.inf" unicode="&#x2085;" 
d="M206 -147q-83 0 -151 65l39 44q54 -54 114 -54q39 0 64 22t25 56q0 33 -25 53t-65 20q-45 0 -86 -19l-40 23l15 203h243v-57h-193l-8 -110q34 14 79 14q61 0 101.5 -33.5t40.5 -90.5q0 -60 -43 -98t-110 -38z" />
    <glyph glyph-name="six.inf" unicode="&#x2086;" 
d="M210 -147q-63 0 -103 40q-51 51 -51 157v2q0 101 46 163t123 62q66 0 117 -46l-33 -46q-42 37 -86 37q-42 0 -72.5 -41t-32.5 -103q42 44 103 44q56 0 94 -35t38 -95t-41 -99.5t-102 -39.5zM208 -94q38 0 62 23t24 60t-22.5 59.5t-60.5 22.5q-39 0 -63.5 -22.5
t-24.5 -59.5v-1q0 -35 25 -59t60 -23z" />
    <glyph glyph-name="seven.inf" unicode="&#x2087;" 
d="M174 -139h-69l179 347h-212v58h282v-46z" />
    <glyph glyph-name="eight.inf" unicode="&#x2088;" 
d="M210 -147q-66 0 -108 32.5t-42 85.5q0 67 72 101q-61 30 -61 92q0 49 40.5 81t99.5 32t98.5 -32t39.5 -81q0 -61 -61 -92q73 -32 73 -99q0 -54 -42.5 -87t-108.5 -33zM211 226q-36 0 -59 -18t-23 -47q0 -30 23 -49t59 -19q35 0 58 19t23 49q0 28 -23 46.5t-58 18.5z
M211 45q-41 0 -67 -20t-26 -52q0 -31 25.5 -50.5t67.5 -19.5q41 0 66.5 19.5t25.5 50.5q0 32 -26 52t-66 20z" />
    <glyph glyph-name="nine.inf" unicode="&#x2089;" 
d="M209 54q39 0 63.5 23t24.5 61v1q0 36 -25 60.5t-60 23.5q-38 0 -62 -23.5t-24 -61.5q0 -39 22.5 -61.5t60.5 -22.5zM210 276q63 0 103 -40q51 -51 51 -157v-2q0 -102 -45.5 -163t-123.5 -61q-70 0 -123 48l33 46q43 -40 92 -40q43 0 73 39t31 100q-41 -43 -101 -43
q-56 0 -94.5 35.5t-38.5 96.5t41 101t102 40z" />
    <glyph glyph-name="colonmonetary" unicode="&#x20a1;" horiz-adv-x="640" 
d="M281 96q42 -19 94 -19l87 555q-43 19 -89 19h-5zM144 358q0 -157 91 -232l80 517q-77 -21 -124 -94t-47 -183v-8zM487 811h56l-18 -116q36 -19 66 -45l-40 -77q-23 20 -43 34l-82 -525q58 14 122 73l48 -62q-84 -79 -179 -92l-19 -124h-56l18 122q-52 2 -89 15l-21 -137
h-56l24 160q-75 43 -119 127t-44 195v9q0 146 76 243t195 115l13 85h56l-12 -81q47 -1 89 -14z" />
    <glyph glyph-name="naira" unicode="&#x20a6;" horiz-adv-x="869" 
d="M240 605v-311h195l-193 311h-2zM627 135h2v303h-190zM822 231h-104v-231h-105l-143 231h-229v-231h-90v231h-104v64h104v142h-104v64h104v227h114l139 -227h224v227h90v-227h104v-64h-104v-142h104v-64z" />
    <glyph glyph-name="rupee" unicode="&#x20a8;" horiz-adv-x="1137" 
d="M179 354h157q75 0 120.5 39t45.5 106v3q0 69 -44 105.5t-122 36.5h-157v-290zM88 0v728h254q116 0 184 -60t68 -162v-3q0 -81 -45 -136t-119 -77l188 -290h-108l-175 273h-156v-273h-91zM891 -10q-118 0 -217 75l43 65q88 -65 177 -65q44 0 73.5 21t29.5 55v3
q0 29 -25 48t-97 43q-94 31 -134.5 66t-40.5 94v2q0 69 52 111.5t130 42.5q98 0 187 -58l-37 -69q-82 52 -152 52q-43 0 -69.5 -20.5t-26.5 -51.5v-2q0 -30 27 -50t101 -43q91 -30 130.5 -65t39.5 -94v-2q0 -73 -55 -115.5t-136 -42.5z" />
    <glyph glyph-name="won" unicode="&#x20a9;" horiz-adv-x="1160" 
d="M578 622l-91 -325h186l-90 325h-5zM811 99h5l82 334h-179zM349 99h5l90 334h-179zM1071 728l-64 -231h110v-66h-129l-36 -132h165v-66h-184l-65 -236h-110l-68 236h-220l-67 -236h-110l-66 236h-183v66h165l-37 132h-128v66h109l-64 231h104l58 -231h210l65 233h113
l64 -233h210l59 231h99z" />
    <glyph glyph-name="sheqel" unicode="&#x20aa;" horiz-adv-x="657" 
d="M366 364q0 98 -102 98h-112v-462h-76v541h198q151 0 151 -146v-199h-59v168zM249 145l-32 207h59l29 -176q8 -50 34 -73.5t74 -23.5h92v462h76v-541h-169q-73 0 -112.5 35.5t-50.5 109.5z" />
    <glyph glyph-name="Euro" unicode="&#x20ac;" horiz-adv-x="757" 
d="M699 600l-73 -54q-39 56 -80.5 82.5t-100.5 26.5q-66 0 -115 -44t-73 -119h255v-72h-270q-3 -27 -3 -55v-1q0 -33 2 -49h271v-72h-257q23 -79 75.5 -125t124.5 -45q55 0 96 28.5t81 85.5l69 -49q-48 -71 -107 -110.5t-141 -39.5q-111 0 -190 69.5t-107 185.5h-95v72h83
q-2 16 -2 48v1q0 28 3 56h-84v72h97q31 111 108 180t181 68q88 0 147 -36.5t105 -103.5z" />
    <glyph glyph-name="peso" unicode="&#x20b1;" horiz-adv-x="768" 
d="M143 0v453h-104v63h104v212h223q116 0 189 -57.5t82 -154.5h102v-63h-102q-10 -102 -90.5 -159.5t-195.5 -57.5h-112v-236h-96zM237 644v-130h305q-9 63 -58.5 96.5t-127.5 33.5h-119zM354 319q80 0 130.5 37t58.5 100h-306v-137h117z" />
    <glyph glyph-name="hryvnia" unicode="&#x20b4;" horiz-adv-x="670" 
d="M63 447l7 52l317 -38q42 34 58.5 58.5t15.5 51.5q0 40 -30.5 63t-83.5 23q-91 0 -177 -73l-52 67q104 89 236 89q98 0 154 -47t56 -119q0 -65 -64 -127l131 -15l-7 -52l-180 21l-98 -81l265 -31l-7 -52l-315 37q-47 -39 -64.5 -64.5t-16.5 -52.5q0 -42 33 -64t87 -22
q97 0 193 74l51 -68q-116 -89 -250 -89q-105 0 -161.5 46.5t-56.5 117.5q0 68 71 136l-132 16l7 52l181 -22l99 81z" />
    <glyph glyph-name="numero" unicode="&#x2116;" horiz-adv-x="1178" 
d="M924 295q-82 0 -134.5 61.5t-52.5 153.5v6q0 92 53 154t136 62t135.5 -61.5t52.5 -154.5v-6q0 -92 -53.5 -153.5t-136.5 -61.5zM925 359q51 0 83.5 43.5t32.5 106.5v6q0 65 -32.5 108.5t-83.5 43.5q-50 0 -82.5 -43.5t-32.5 -106.5v-6q0 -65 32.5 -108.5t82.5 -43.5z
M89 0v728h85l363 -546v546h89v-728h-77l-371 561v-561h-89zM742 146v61h366v-61h-366z" />
    <glyph glyph-name="published" unicode="&#x2117;" horiz-adv-x="871" 
d="M435 -12q-158 0 -267 109.5t-109 264.5v2q0 155 110.5 265.5t267.5 110.5t266 -109.5t109 -264.5v-2q0 -155 -110 -265.5t-267 -110.5zM435 22q144 0 242.5 100t98.5 242v2q0 142 -97.5 241t-241.5 99q-145 0 -243.5 -100t-98.5 -242v-2q0 -142 98 -241t242 -99zM306 177
v389h154q69 0 110 -34t41 -93v-2q0 -63 -45.5 -97t-113.5 -34h-83v-129h-63zM369 362h84q43 0 68 19.5t25 53.5v2q0 35 -24 53.5t-67 18.5h-86v-147z" />
    <glyph glyph-name="servicemark" unicode="&#x2120;" horiz-adv-x="742" 
d="M372 408v320h54l108 -168l109 168h52v-320h-49v240l-110 -168h-5l-110 168v-240h-49zM177 402q-80 0 -140 52l29 36q53 -45 113 -45q31 0 49.5 13.5t18.5 34.5q0 20 -17 31.5t-64 22.5q-59 13 -86.5 33t-27.5 60q0 41 32 67.5t84 26.5q69 0 120 -42l-28 -36
q-45 34 -94 34q-29 0 -46.5 -13t-17.5 -32q0 -20 17.5 -32t64.5 -22q57 -13 85 -34.5t28 -58.5q0 -43 -34 -69.5t-86 -26.5z" />
    <glyph glyph-name="trademark" unicode="&#x2122;" horiz-adv-x="726" 
d="M132 408v273h-101v47h254v-47h-102v-273h-51zM355 408v320h54l109 -168l108 168h53v-320h-50v240l-109 -168h-6l-109 168v-240h-50z" />
    <glyph glyph-name="Omega" unicode="&#x2126;" horiz-adv-x="912" 
d="M456 740q165 0 265 -97t100 -247v-1q0 -184 -182 -312l204 1v-84h-313v81q93 62 141.5 132t48.5 174v1q0 117 -72.5 191t-192.5 73q-119 0 -191.5 -73t-72.5 -190v-1q0 -100 49 -172t142 -135v-81h-314v84l205 -1q-89 64 -135.5 139t-46.5 174v1q0 94 44 172t128 124.5
t193 46.5z" />
    <glyph glyph-name="onethird" unicode="&#x2153;" horiz-adv-x="867" 
d="M224 325h-60v346l-87 -33l-17 52l117 44h47v-409zM119 0l259 375l236 353h61l-259 -375l-236 -353h-61zM661 -10q-91 0 -154 71l39 42q51 -59 116 -59q34 0 57 20t23 51q0 33 -27.5 51.5t-72.5 18.5h-37l-10 38l126 125h-190v55h267v-48l-126 -123q59 -5 95.5 -34
t36.5 -82q0 -56 -41 -91t-102 -35z" />
    <glyph glyph-name="twothirds" unicode="&#x2154;" horiz-adv-x="945" 
d="M54 325v52l148 127q43 37 60.5 61t17.5 52q0 29 -21 47.5t-52 18.5q-58 0 -104 -67l-45 32q30 45 65.5 67.5t87.5 22.5q57 0 94.5 -33t37.5 -83q0 -41 -21 -72.5t-72 -74.5l-113 -95h209v-55h-292zM194 0l259 375l236 353h61l-259 -375l-236 -353h-61zM739 -10
q-91 0 -154 71l39 42q51 -59 116 -59q34 0 57 20t23 51q0 33 -27.5 51.5t-72.5 18.5h-37l-10 38l126 125h-190v55h267v-48l-126 -123q59 -5 95.5 -34t36.5 -82q0 -56 -41 -91t-102 -35z" />
    <glyph glyph-name="onefifth" unicode="&#x2155;" horiz-adv-x="867" 
d="M224 325h-60v346l-87 -33l-17 52l117 44h47v-409zM125 0l259 375l236 353h61l-259 -375l-236 -353h-61zM660 -10q-83 0 -151 65l39 44q54 -54 114 -54q39 0 64 22t25 56q0 33 -25 53t-65 20q-45 0 -86 -19l-40 23l15 203h243v-57h-193l-8 -110q34 14 79 14
q61 0 101.5 -33.5t40.5 -90.5q0 -60 -43 -98t-110 -38z" />
    <glyph glyph-name="twofifths" unicode="&#x2156;" horiz-adv-x="945" 
d="M54 325v52l148 127q43 37 60.5 61t17.5 52q0 29 -21 47.5t-52 18.5q-58 0 -104 -67l-45 32q30 45 65.5 67.5t87.5 22.5q57 0 94.5 -33t37.5 -83q0 -41 -21 -72.5t-72 -74.5l-113 -95h209v-55h-292zM204 0l259 375l236 353h61l-259 -375l-236 -353h-61zM738 -10
q-83 0 -151 65l39 44q54 -54 114 -54q39 0 64 22t25 56q0 33 -25 53t-65 20q-45 0 -86 -19l-40 23l15 203h243v-57h-193l-8 -110q34 14 79 14q61 0 101.5 -33.5t40.5 -90.5q0 -60 -43 -98t-110 -38z" />
    <glyph glyph-name="threefifths" unicode="&#x2157;" horiz-adv-x="945" 
d="M189 0l259 375l236 353h61l-259 -375l-236 -353h-61zM199 314q-91 0 -154 72l39 42q51 -59 116 -59q34 0 57 20t23 51q0 33 -27.5 51.5t-72.5 18.5h-37l-10 37l126 125h-190v56h267v-48l-126 -123q59 -5 95.5 -34t36.5 -82q0 -56 -41 -91.5t-102 -35.5zM738 -10
q-83 0 -151 65l39 44q54 -54 114 -54q39 0 64 22t25 56q0 33 -25 53t-65 20q-45 0 -86 -19l-40 23l15 203h243v-57h-193l-8 -110q34 14 79 14q61 0 101.5 -33.5t40.5 -90.5q0 -60 -43 -98t-110 -38z" />
    <glyph glyph-name="fourfifths" unicode="&#x2158;" horiz-adv-x="945" 
d="M309 414v-91h-57v91h-196l-11 54l199 265h65v-269h56v-50h-56zM204 0l259 375l236 353h61l-259 -375l-236 -353h-61zM253 463v199l-150 -199h150zM738 -10q-83 0 -151 65l39 44q54 -54 114 -54q39 0 64 22t25 56q0 33 -25 53t-65 20q-45 0 -86 -19l-40 23l15 203h243v-57
h-193l-8 -110q34 14 79 14q61 0 101.5 -33.5t40.5 -90.5q0 -60 -43 -98t-110 -38z" />
    <glyph glyph-name="onesixth" unicode="&#x2159;" horiz-adv-x="867" 
d="M224 325h-60v346l-87 -33l-17 52l117 44h47v-409zM132 0l259 375l236 353h61l-259 -375l-236 -353h-61zM664 -10q-63 0 -103 40q-51 51 -51 157v2q0 101 46 163t123 62q66 0 117 -46l-33 -46q-42 37 -86 37q-42 0 -72.5 -41t-32.5 -103q42 44 103 44q56 0 94 -35t38 -95
t-41 -99.5t-102 -39.5zM662 43q38 0 62 23t24 60t-22.5 59.5t-60.5 22.5q-39 0 -63.5 -22.5t-24.5 -59.5v-1q0 -35 25 -59t60 -23z" />
    <glyph glyph-name="fivesixths" unicode="&#x215a;" horiz-adv-x="945" 
d="M194 0l259 375l236 353h61l-259 -375l-236 -353h-61zM198 314q-82 0 -151 66l39 44q54 -54 114 -54q39 0 64 22t25 56q0 33 -25 53t-65 20q-46 0 -86 -20l-40 24l15 203h243v-57h-193l-8 -110q32 13 79 13q61 0 101.5 -33t40.5 -90q0 -61 -43 -99t-110 -38zM742 -10
q-63 0 -103 40q-51 51 -51 157v2q0 101 46 163t123 62q66 0 117 -46l-33 -46q-42 37 -86 37q-42 0 -72.5 -41t-32.5 -103q42 44 103 44q56 0 94 -35t38 -95t-41 -99.5t-102 -39.5zM740 43q38 0 62 23t24 60t-22.5 59.5t-60.5 22.5q-39 0 -63.5 -22.5t-24.5 -59.5v-1
q0 -35 25 -59t60 -23z" />
    <glyph glyph-name="oneeighth" unicode="&#x215b;" horiz-adv-x="867" 
d="M224 325h-60v346l-87 -33l-17 52l117 44h47v-409zM130 0l259 375l236 353h61l-259 -375l-236 -353h-61zM664 -10q-66 0 -108 32.5t-42 85.5q0 67 72 101q-61 31 -61 92q0 49 40.5 81t99.5 32t98.5 -32t39.5 -81q0 -61 -61 -92q73 -32 73 -99q0 -54 -42.5 -87t-108.5 -33z
M665 363q-36 0 -59 -18t-23 -47q0 -30 23 -49t59 -19q35 0 58 19t23 49q0 28 -23 46.5t-58 18.5zM665 182q-41 0 -67 -20t-26 -52q0 -31 25.5 -50.5t67.5 -19.5q41 0 66.5 19.5t25.5 50.5q0 32 -26 52t-66 20z" />
    <glyph glyph-name="threeeighths" unicode="&#x215c;" horiz-adv-x="945" 
d="M194 0l259 375l236 353h61l-259 -375l-236 -353h-61zM199 314q-91 0 -154 72l39 42q51 -59 116 -59q34 0 57 20t23 51q0 33 -27.5 51.5t-72.5 18.5h-37l-10 37l126 125h-190v56h267v-48l-126 -123q59 -5 95.5 -34t36.5 -82q0 -56 -41 -91.5t-102 -35.5zM742 -10
q-66 0 -108 32.5t-42 85.5q0 67 72 101q-61 31 -61 92q0 49 40.5 81t99.5 32t98.5 -32t39.5 -81q0 -61 -61 -92q73 -32 73 -99q0 -54 -42.5 -87t-108.5 -33zM743 363q-36 0 -59 -18t-23 -47q0 -30 23 -49t59 -19q35 0 58 19t23 49q0 28 -23 46.5t-58 18.5zM743 182
q-41 0 -67 -20t-26 -52q0 -31 25.5 -50.5t67.5 -19.5q41 0 66.5 19.5t25.5 50.5q0 32 -26 52t-66 20z" />
    <glyph glyph-name="fiveeighths" unicode="&#x215d;" horiz-adv-x="945" 
d="M194 0l259 375l236 353h61l-259 -375l-236 -353h-61zM198 314q-82 0 -151 66l39 44q54 -54 114 -54q39 0 64 22t25 56q0 33 -25 53t-65 20q-46 0 -86 -20l-40 24l15 203h243v-57h-193l-8 -110q32 13 79 13q61 0 101.5 -33t40.5 -90q0 -61 -43 -99t-110 -38zM742 -10
q-66 0 -108 32.5t-42 85.5q0 67 72 101q-61 31 -61 92q0 49 40.5 81t99.5 32t98.5 -32t39.5 -81q0 -61 -61 -92q73 -32 73 -99q0 -54 -42.5 -87t-108.5 -33zM743 363q-36 0 -59 -18t-23 -47q0 -30 23 -49t59 -19q35 0 58 19t23 49q0 28 -23 46.5t-58 18.5zM743 182
q-41 0 -67 -20t-26 -52q0 -31 25.5 -50.5t67.5 -19.5q41 0 66.5 19.5t25.5 50.5q0 32 -26 52t-66 20z" />
    <glyph glyph-name="seveneighths" unicode="&#x215e;" horiz-adv-x="945" 
d="M163 0l259 375l236 353h61l-259 -375l-236 -353h-61zM176 323h-69l179 347h-212v58h282v-46zM742 -10q-66 0 -108 32.5t-42 85.5q0 67 72 101q-61 31 -61 92q0 49 40.5 81t99.5 32t98.5 -32t39.5 -81q0 -61 -61 -92q73 -32 73 -99q0 -54 -42.5 -87t-108.5 -33zM743 363
q-36 0 -59 -18t-23 -47q0 -30 23 -49t59 -19q35 0 58 19t23 49q0 28 -23 46.5t-58 18.5zM743 182q-41 0 -67 -20t-26 -52q0 -31 25.5 -50.5t67.5 -19.5q41 0 66.5 19.5t25.5 50.5q0 32 -26 52t-66 20z" />
    <glyph glyph-name="Delta" unicode="&#x2206;" horiz-adv-x="828" 
d="M62 0l-8 71l311 662h98l311 -662l-8 -71h-704zM413 626l-251 -539h499z" />
    <glyph glyph-name="minus" unicode="&#x2212;" horiz-adv-x="661" 
d="M586 321h-511v90h511v-90z" />
    <glyph glyph-name="Q.alt" horiz-adv-x="892" 
d="M728 -105l-131 123q-73 -30 -152 -30q-163 0 -268 109.5t-105 264.5v2q0 155 106 265.5t269 110.5t268 -109.5t105 -264.5v-2q0 -85 -34.5 -160.5t-96.5 -128.5l183 -176v-4h-144zM447 76q118 0 195.5 83t77.5 203v2q0 120 -78.5 204t-196.5 84t-195.5 -83t-77.5 -203v-2
q0 -120 78.5 -204t196.5 -84z" />
    <glyph glyph-name="a.alt" horiz-adv-x="701" 
d="M335 71q75 0 129.5 56t54.5 143v2q0 86 -55 142t-129 56q-76 0 -127.5 -54t-51.5 -144v-2q0 -88 52.5 -143.5t126.5 -55.5zM316 -12q-103 0 -179.5 77t-76.5 204v2q0 128 76.5 205t179.5 77q121 0 201 -110v98h93v-541h-93v103q-80 -115 -201 -115z" />
    <glyph glyph-name="uni039E.alt" horiz-adv-x="782" 
d="M717 87v-87h-652v87h279v237h-246v86h246v231h-273v87h641v-87h-274v-231h246v-86h-246v-237h279z" />
    <glyph glyph-name="uni0424.bgr" horiz-adv-x="988" 
d="M446 -104v103q-167 7 -270.5 109t-103.5 254v2q0 150 103.5 253.5t270.5 111.5v103h96v-103q167 -7 270.5 -109.5t103.5 -253.5v-2q0 -150 -104 -254t-270 -111v-103h-96zM171 364q0 -118 77 -195.5t200 -83.5v558q-124 -5 -200.5 -83t-76.5 -194v-2zM816 364
q0 116 -77 194t-199 84v-557q124 7 200 83.5t76 193.5v2z" />
    <glyph glyph-name="uni0432.bgr" horiz-adv-x="677" 
d="M80 264v237q0 124 70.5 194.5t192.5 70.5q112 0 178 -56t66 -148v-1q0 -70 -42 -116t-113 -64q186 -39 186 -188v-1q0 -88 -71 -146.5t-191 -57.5q-132 0 -204 68t-72 208zM174 501v-88h111q97 0 152 38.5t55 106.5q0 57 -40 92.5t-109 35.5q-79 0 -124 -49.5t-45 -135.5
zM286 341h-112v-76q0 -197 183 -197q76 0 120.5 37.5t44.5 94.5q0 141 -236 141z" />
    <glyph glyph-name="uni0433.bgr" horiz-adv-x="541" 
d="M246 -10q-89 0 -138.5 39t-49.5 109v2q0 63 44 100t143 70q88 29 116 48t28 48v2q0 29 -23.5 47t-70.5 18q-87 0 -178 -57l-41 69q104 66 220 66q87 0 134.5 -40t47.5 -106v-2q0 -62 -44 -96.5t-146 -67.5q-82 -27 -111.5 -47t-29.5 -53v-1q0 -71 102 -71q96 0 200 71
l43 -66q-120 -82 -246 -82z" />
    <glyph glyph-name="uni0434.bgr" horiz-adv-x="701" 
d="M333 124q75 0 130.5 49t55.5 123v2q0 76 -55.5 124.5t-130.5 48.5t-126 -47.5t-51 -124.5v-2q0 -76 51.5 -124.5t125.5 -48.5zM330 -168q-136 0 -245 71l40 73q94 -65 204 -65q89 0 138.5 47t49.5 137v57q-82 -110 -205 -110q-102 0 -177 70.5t-75 183.5v2
q0 114 75.5 184.5t176.5 70.5q124 0 205 -105v93h93v-441q0 -129 -69 -196q-72 -72 -211 -72z" />
    <glyph glyph-name="uni0436.bgr" horiz-adv-x="918" 
d="M505 759l-1 -445h82l189 227h112l-229 -265l237 -276h-113l-195 232h-83l1 -232h-92l1 232h-85l-194 -232h-112l237 272l-229 269h114l188 -227h81l-1 445h92z" />
    <glyph glyph-name="uni0438.bgr" horiz-adv-x="650" 
d="M285 -12q-95 0 -149 58.5t-54 155.5v339h94v-313q0 -72 37 -113t103 -41q65 0 107.5 44t42.5 115v308h93v-541h-93v91q-66 -103 -181 -103z" />
    <glyph glyph-name="uni0439.bgr" horiz-adv-x="650" 
d="M320 617q-68 0 -112 36t-49 100h67q21 -65 94 -65t94 65h67q-5 -64 -49 -100t-112 -36zM285 -12q-95 0 -149 58.5t-54 155.5v339h94v-313q0 -72 37 -113t103 -41q65 0 107.5 44t42.5 115v308h93v-541h-93v91q-66 -103 -181 -103z" />
    <glyph glyph-name="uni043A.bgr" horiz-adv-x="609" 
d="M184 759v-445h87l194 227h116l-235 -264l241 -277h-116l-198 232h-89v-232h-94v759h94z" />
    <glyph glyph-name="uni043F.bgr" horiz-adv-x="650" 
d="M90 0v541h94v-91q66 103 180 103q95 0 149 -58.5t54 -155.5v-339h-94v313q0 72 -36.5 113t-102.5 41q-65 0 -107.5 -43.5t-42.5 -115.5v-308h-94z" />
    <glyph glyph-name="uni0442.bgr" horiz-adv-x="997" 
d="M90 0v541h94v-88q67 100 172 100q119 0 170 -104q72 104 188 104q92 0 145 -57.5t53 -157.5v-338h-94v313q0 74 -34.5 114t-96.5 40q-61 0 -100 -41.5t-39 -115.5v-310h-94v315q0 72 -34.5 112t-95.5 40q-60 0 -100 -44.5t-40 -114.5v-308h-94z" />
    <glyph glyph-name="uni0446.bgr" horiz-adv-x="667" 
d="M285 -12q-95 0 -149 58.5t-54 155.5v339h94v-313q0 -72 37 -113t103 -41q65 0 107.5 44t42.5 115v308h93v-456h66v-225h-86v140h-73v91q-66 -103 -181 -103z" />
    <glyph glyph-name="uni0448.bgr" horiz-adv-x="997" 
d="M906 541v-541h-94v88q-32 -46 -71 -73t-100 -27q-119 0 -170 104q-74 -104 -188 -104q-92 0 -145 57.5t-53 157.5v338h94v-313q0 -74 34.5 -114t96.5 -40q60 0 99.5 42t39.5 116v309h94v-315q0 -72 34.5 -112t95.5 -40q60 0 99.5 44.5t39.5 114.5v308h94z" />
    <glyph glyph-name="uni0449.bgr" horiz-adv-x="1014" 
d="M886 -140v140h-74v88q-32 -46 -71 -73t-100 -27q-119 0 -170 104q-74 -104 -188 -104q-92 0 -145 57.5t-53 157.5v338h94v-313q0 -74 34.5 -114t96.5 -40q60 0 99.5 42t39.5 116v309h94v-315q0 -72 34.5 -112t95.5 -40q60 0 99.5 44.5t39.5 114.5v308h94v-456h66v-225
h-86z" />
    <glyph glyph-name="uni044E.bgr" horiz-adv-x="917" 
d="M581 -12q-109 0 -185 69t-90 173h-122v-230h-94v759h94v-443h123q16 101 92.5 169t183.5 68q119 0 197.5 -82t78.5 -199v-2q0 -117 -79 -199.5t-199 -82.5zM583 71q80 0 130.5 57t50.5 140v2q0 84 -52 142t-131 58q-80 0 -130.5 -57.5t-50.5 -140.5v-2q0 -83 52 -141
t131 -58z" />
    <glyph glyph-name="aacute.alt" horiz-adv-x="701" 
d="M317 619l101 156l92 -42l-121 -114h-72zM335 71q75 0 129.5 56t54.5 143v2q0 86 -55 142t-129 56q-76 0 -127.5 -54t-51.5 -144v-2q0 -88 52.5 -143.5t126.5 -55.5zM316 -12q-103 0 -179.5 77t-76.5 204v2q0 128 76.5 205t179.5 77q121 0 201 -110v98h93v-541h-93v103
q-80 -115 -201 -115z" />
    <glyph glyph-name="abreve.alt" horiz-adv-x="701" 
d="M355 617q-68 0 -112 36t-49 100h67q21 -65 94 -65t94 65h67q-5 -64 -49 -100t-112 -36zM335 71q75 0 129.5 56t54.5 143v2q0 86 -55 142t-129 56q-76 0 -127.5 -54t-51.5 -144v-2q0 -88 52.5 -143.5t126.5 -55.5zM316 -12q-103 0 -179.5 77t-76.5 204v2q0 128 76.5 205
t179.5 77q121 0 201 -110v98h93v-541h-93v103q-80 -115 -201 -115z" />
    <glyph glyph-name="acircumflex.alt" horiz-adv-x="701" 
d="M199 619l114 141h84l114 -141h-78l-79 70l-79 -70h-76zM335 71q75 0 129.5 56t54.5 143v2q0 86 -55 142t-129 56q-76 0 -127.5 -54t-51.5 -144v-2q0 -88 52.5 -143.5t126.5 -55.5zM316 -12q-103 0 -179.5 77t-76.5 204v2q0 128 76.5 205t179.5 77q121 0 201 -110v98h93
v-541h-93v103q-80 -115 -201 -115z" />
    <glyph glyph-name="adieresis.alt" horiz-adv-x="701" 
d="M209 619v106h104v-106h-104zM397 619v106h104v-106h-104zM335 71q75 0 129.5 56t54.5 143v2q0 86 -55 142t-129 56q-76 0 -127.5 -54t-51.5 -144v-2q0 -88 52.5 -143.5t126.5 -55.5zM316 -12q-103 0 -179.5 77t-76.5 204v2q0 128 76.5 205t179.5 77q121 0 201 -110v98h93
v-541h-93v103q-80 -115 -201 -115z" />
    <glyph glyph-name="agrave.alt" horiz-adv-x="701" 
d="M320 619l-121 114l92 42l101 -156h-72zM335 71q75 0 129.5 56t54.5 143v2q0 86 -55 142t-129 56q-76 0 -127.5 -54t-51.5 -144v-2q0 -88 52.5 -143.5t126.5 -55.5zM316 -12q-103 0 -179.5 77t-76.5 204v2q0 128 76.5 205t179.5 77q121 0 201 -110v98h93v-541h-93v103
q-80 -115 -201 -115z" />
    <glyph glyph-name="amacron.alt" horiz-adv-x="701" 
d="M188 637v73h334v-73h-334zM335 71q75 0 129.5 56t54.5 143v2q0 86 -55 142t-129 56q-76 0 -127.5 -54t-51.5 -144v-2q0 -88 52.5 -143.5t126.5 -55.5zM316 -12q-103 0 -179.5 77t-76.5 204v2q0 128 76.5 205t179.5 77q121 0 201 -110v98h93v-541h-93v103
q-80 -115 -201 -115z" />
    <glyph glyph-name="aogonek.alt" horiz-adv-x="701" 
d="M624 -120v-51q-3 0 -9.5 -0.5t-8.5 -0.5q-65 1 -100 24.5t-35 61.5q0 42 47 86h-1v103q-80 -115 -201 -115q-103 0 -179.5 77t-76.5 204v2q0 128 76.5 205t179.5 77q121 0 201 -110v98h93v-541h-18q-44 -40 -44 -73q0 -44 76 -47zM335 71q75 0 129.5 56t54.5 143v2
q0 86 -55 142t-129 56q-76 0 -127.5 -54t-51.5 -144v-2q0 -88 52.5 -143.5t126.5 -55.5z" />
    <glyph glyph-name="aring.alt" horiz-adv-x="701" 
d="M355 617q-47 0 -81 32.5t-34 78.5t34 78.5t81 32.5t81 -32.5t34 -78.5t-34 -78.5t-81 -32.5zM355 657q29 0 50 21t21 50t-21 50t-50 21t-50 -21t-21 -50t21 -50t50 -21zM335 71q75 0 129.5 56t54.5 143v2q0 86 -55 142t-129 56q-76 0 -127.5 -54t-51.5 -144v-2
q0 -88 52.5 -143.5t126.5 -55.5zM316 -12q-103 0 -179.5 77t-76.5 204v2q0 128 76.5 205t179.5 77q121 0 201 -110v98h93v-541h-93v103q-80 -115 -201 -115z" />
    <glyph glyph-name="aring.alt2" horiz-adv-x="612" 
d="M236 620q0 -29 21 -50t50 -21t50 21t21 50t-21 50t-50 21t-50 -21t-21 -50zM271 61q72 0 121 38.5t49 98.5v47q-71 23 -148 23q-70 0 -109.5 -28t-39.5 -77v-2q0 -46 36.5 -73t90.5 -27zM250 -12q-81 0 -140 45t-59 123v2q0 84 62.5 129.5t166.5 45.5q83 0 160 -23v18
q0 67 -40 102.5t-113 35.5q-80 0 -161 -38l-27 75q63 30 128 41q-35 30 -35 76t34 78.5t81 32.5t81 -32.5t34 -78.5q0 -50 -41 -81q54 -13 93 -50q56 -56 56 -161v-328h-91v77q-70 -89 -189 -89z" />
    <glyph glyph-name="aringacute.alt" horiz-adv-x="701" 
d="M316 870l105 135l90 -43l-121 -92h-74zM355 617q-47 0 -81 32.5t-34 78.5t34 78.5t81 32.5t81 -32.5t34 -78.5t-34 -78.5t-81 -32.5zM355 657q29 0 50 21t21 50t-21 50t-50 21t-50 -21t-21 -50t21 -50t50 -21zM335 71q75 0 129.5 56t54.5 143v2q0 86 -55 142t-129 56
q-76 0 -127.5 -54t-51.5 -144v-2q0 -88 52.5 -143.5t126.5 -55.5zM316 -12q-103 0 -179.5 77t-76.5 204v2q0 128 76.5 205t179.5 77q121 0 201 -110v98h93v-541h-93v103q-80 -115 -201 -115z" />
    <glyph glyph-name="aringacute.alt2" horiz-adv-x="612" 
d="M268 768l105 135l90 -43l-121 -92h-74zM236 620q0 -29 21 -50t50 -21t50 21t21 50t-21 50t-50 21t-50 -21t-21 -50zM271 61q72 0 121 38.5t49 98.5v47q-71 23 -148 23q-70 0 -109.5 -28t-39.5 -77v-2q0 -46 36.5 -73t90.5 -27zM250 -12q-81 0 -140 45t-59 123v2
q0 84 62.5 129.5t166.5 45.5q83 0 160 -23v18q0 67 -40 102.5t-113 35.5q-80 0 -161 -38l-27 75q63 30 128 41q-35 30 -35 76t34 78.5t81 32.5t81 -32.5t34 -78.5q0 -50 -41 -81q54 -13 93 -50q56 -56 56 -161v-328h-91v77q-70 -89 -189 -89z" />
    <glyph glyph-name="atilde.alt" horiz-adv-x="701" 
d="M433 619q-28 0 -78 21t-64 21q-20 0 -31.5 -11.5t-23.5 -40.5l-55 16q16 61 40 88t64 27q28 0 78 -21q48 -20 64 -20q20 0 31.5 11t23.5 40l55 -16q-16 -61 -40 -88t-64 -27zM335 71q75 0 129.5 56t54.5 143v2q0 86 -55 142t-129 56q-76 0 -127.5 -54t-51.5 -144v-2
q0 -88 52.5 -143.5t126.5 -55.5zM316 -12q-103 0 -179.5 77t-76.5 204v2q0 128 76.5 205t179.5 77q121 0 201 -110v98h93v-541h-93v103q-80 -115 -201 -115z" />
    <glyph glyph-name="i.dot" horiz-adv-x="289" 
d="M92 649v98h105v-98h-105zM98 0v541h93v-541h-93z" />
    <glyph glyph-name="uni0386.calt" horiz-adv-x="830" 
d="M259 274h308l-154 347zM41 0l329 733h90l328 -733h-102l-83 188h-380l-83 -188h-99z" />
    <glyph glyph-name="uni0388.calt" horiz-adv-x="705" 
d="M104 0v728h530v-87h-434v-231h387v-87h-387v-236h439v-87h-535z" />
    <glyph glyph-name="uni0389.calt" horiz-adv-x="798" 
d="M104 0v728h96v-317h398v317h97v-728h-97v322h-398v-322h-96z" />
    <glyph glyph-name="uni038A.calt" horiz-adv-x="319" 
d="M111 0v728h97v-728h-97z" />
    <glyph glyph-name="uni038C.calt" horiz-adv-x="892" 
d="M445 -12q-163 0 -268 109.5t-105 264.5v2q0 155 106 265.5t269 110.5t268 -109.5t105 -264.5v-2q0 -155 -106 -265.5t-269 -110.5zM447 76q118 0 195.5 83t77.5 203v2q0 120 -78.5 204t-196.5 84t-195.5 -83t-77.5 -203v-2q0 -120 78.5 -204t196.5 -84z" />
    <glyph glyph-name="uni038E.calt" horiz-adv-x="753" 
d="M328 0v288l-299 440h115l233 -352l235 352h112l-299 -438v-290h-97z" />
    <glyph glyph-name="uni038F.calt" horiz-adv-x="912" 
d="M456 740q165 0 265 -97t100 -247v-1q0 -184 -182 -312l204 1v-84h-313v81q93 62 141.5 132t48.5 174v1q0 117 -72.5 191t-192.5 73q-119 0 -191.5 -73t-72.5 -190v-1q0 -100 49 -172t142 -135v-81h-314v84l205 -1q-89 64 -135.5 139t-46.5 174v1q0 94 44 172t128 124.5
t193 46.5z" />
    <glyph glyph-name="uni0399.calt" horiz-adv-x="319" 
d="M6 791v101h107v-101h-107zM207 791v101h106v-101h-106zM111 0v728h97v-728h-97z" />
    <glyph glyph-name="uni03A5.calt" horiz-adv-x="753" 
d="M223 788v101h107v-101h-107zM424 788v101h106v-101h-106zM328 0v288l-299 440h115l233 -352l235 352h112l-299 -438v-290h-97z" />
    <glyph glyph-name="uni0431.srb" horiz-adv-x="670" 
d="M552 759v-82l-288 1q-52 0 -52 -34q0 -15 11 -26t41 -27l177 -96q171 -89 171 -243v-1q0 -110 -78 -187t-202 -76q-120 0 -198 74t-78 185v1q0 99 65 168t173 79l-69 40q-58 32 -81 58.5t-23 66.5q0 43 36 71t107 28h288zM334 69q82 0 133 51.5t51 131.5v1
q0 78 -52.5 129.5t-129.5 50.5q-82 0 -133.5 -53.5t-51.5 -131.5v-1q0 -76 52 -127.5t131 -50.5z" />
    <glyph glyph-name="three.alt" horiz-adv-x="638" 
d="M324 -12q-85 0 -156.5 35t-120.5 95l70 60q86 -104 209 -104q69 0 111.5 35t42.5 92v2q0 58 -48.5 90.5t-135.5 32.5h-76v82h78q73 0 117.5 34t44.5 91v2q0 52 -40.5 85.5t-106.5 33.5q-102 0 -181 -101l-69 53q98 134 252 134q107 0 174 -54.5t67 -139.5v-2
q0 -121 -121 -171q141 -48 141 -170v-2q0 -91 -69.5 -152t-182.5 -61z" />
    <glyph glyph-name="registered.alt" horiz-adv-x="871" 
d="M435 -12q-158 0 -267 109.5t-109 264.5v2q0 155 110.5 265.5t267.5 110.5t266 -109.5t109 -264.5v-2q0 -155 -110 -265.5t-267 -110.5zM435 22q144 0 242.5 100t98.5 242v2q0 142 -97.5 241t-241.5 99q-145 0 -243.5 -100t-98.5 -242v-2q0 -142 98 -241t242 -99zM349 379
h107q40 0 64 18t24 49v2q0 30 -23 47t-63 17h-109v-133zM287 180v389h173q76 0 117 -41q30 -30 30 -77v-2q0 -46 -26 -75t-71 -40l116 -154h-76l-107 144h-94v-144h-62z" />
    <glyph glyph-name="one.sup_alt" 
d="M366 441h-287v53h118v293l-103 -38l-16 52l132 50h47v-357h109v-53z" />
    <glyph glyph-name="one.inf_alt" 
d="M366 -137h-287v53h118v293l-103 -38l-16 52l132 50h47v-357h109v-53z" />
    <glyph glyph-name="zero.num" 
d="M209 314q-69 0 -112 58.5t-43 151.5v3q0 93 43.5 152t112.5 59t112.5 -58t43.5 -151v-3q0 -93 -44 -152.5t-113 -59.5zM209 682q-43 0 -68 -42t-25 -111v-5q0 -69 25.5 -111.5t68.5 -42.5t68.5 42.5t25.5 111.5v5q0 68 -26 110.5t-69 42.5z" />
    <glyph glyph-name="one.num" horiz-adv-x="342" 
d="M225 325h-60v346l-87 -33l-17 52l117 44h47v-409z" />
    <glyph glyph-name="one.num_alt" 
d="M366 325h-287v53h118v293l-103 -38l-16 52l132 49h47v-356h109v-53z" />
    <glyph glyph-name="two.num" 
d="M62 325v52l148 127q43 37 60.5 61t17.5 52q0 29 -21 47.5t-52 18.5q-58 0 -104 -67l-45 32q30 45 65.5 67.5t87.5 22.5q57 0 94.5 -33t37.5 -83q0 -41 -21 -72.5t-72 -74.5l-113 -95h209v-55h-292z" />
    <glyph glyph-name="three.num" 
d="M207 314q-91 0 -154 72l39 42q51 -59 116 -59q34 0 57 20t23 51q0 33 -27.5 51.5t-72.5 18.5h-37l-10 37l126 125h-190v56h267v-48l-126 -123q59 -5 95.5 -34t36.5 -82q0 -56 -41 -91.5t-102 -35.5z" />
    <glyph glyph-name="four.num" 
d="M317 414v-91h-57v91h-196l-11 54l199 265h65v-269h56v-50h-56zM261 463v199l-150 -199h150z" />
    <glyph glyph-name="five.num" 
d="M206 314q-82 0 -151 66l39 44q54 -54 114 -54q39 0 64 22t25 56q0 33 -25 53t-65 20q-46 0 -86 -20l-40 24l15 203h243v-57h-193l-8 -110q32 13 79 13q61 0 101.5 -33t40.5 -90q0 -61 -43 -99t-110 -38z" />
    <glyph glyph-name="six.num" 
d="M210 315q-63 0 -103 40q-51 51 -51 157v2q0 101 46 162.5t123 61.5q67 0 117 -45l-33 -46q-42 37 -86 37q-42 0 -72.5 -41t-32.5 -103q41 43 103 43q56 0 94 -35t38 -94q0 -60 -41 -99.5t-102 -39.5zM208 368q38 0 62 23t24 60t-22.5 59.5t-60.5 22.5q-39 0 -63.5 -22.5
t-24.5 -59.5v-1q0 -35 25 -59t60 -23z" />
    <glyph glyph-name="seven.num" 
d="M174 323h-69l179 347h-212v58h282v-46z" />
    <glyph glyph-name="eight.num" 
d="M210 314q-66 0 -108 33t-42 86q0 67 72 101q-61 30 -61 92q0 49 40.5 80.5t99.5 31.5t98.5 -32t39.5 -80q0 -61 -61 -92q73 -32 73 -99q0 -54 -42.5 -87.5t-108.5 -33.5zM211 688q-36 0 -59 -18t-23 -47q0 -30 23 -49t59 -19q35 0 58 19t23 49q0 28 -23 46.5t-58 18.5z
M211 507q-41 0 -67 -20t-26 -52q0 -31 25.5 -50.5t67.5 -19.5q41 0 66.5 19.5t25.5 50.5q0 32 -26 52t-66 20z" />
    <glyph glyph-name="nine.num" 
d="M209 516q39 0 63.5 23t24.5 61v1q0 36 -25 60.5t-60 23.5q-38 0 -62 -23.5t-24 -61.5q0 -39 22.5 -61.5t60.5 -22.5zM210 738q63 0 103 -40q51 -51 51 -157v-2q0 -103 -45.5 -164t-123.5 -61q-69 0 -123 49l33 46q43 -40 92 -40q43 0 73 39t31 100q-41 -43 -101 -43
q-56 0 -94.5 35.5t-38.5 96.5t41 101t102 40z" />
    <glyph glyph-name="zero.den" 
d="M209 -10q-69 0 -112 58t-43 151v3q0 94 43.5 153t112.5 59t112.5 -58.5t43.5 -151.5v-3q0 -93 -44.5 -152t-112.5 -59zM209 358q-42 0 -67.5 -42.5t-25.5 -111.5v-5q0 -69 25.5 -111t68.5 -42t68.5 42t25.5 111v5q0 69 -26 111.5t-69 42.5z" />
    <glyph glyph-name="one.den" horiz-adv-x="342" 
d="M225 0h-60v346l-87 -33l-17 52l117 45h47v-410z" />
    <glyph glyph-name="one.den_alt" 
d="M366 0h-287v53h118v293l-103 -38l-16 52l132 50h47v-357h109v-53z" />
    <glyph glyph-name="two.den" 
d="M62 0v52l148 127q43 36 60.5 61t17.5 52q0 29 -21 47.5t-52 18.5q-58 0 -104 -67l-45 32q61 91 153 91q57 0 94.5 -33.5t37.5 -83.5q0 -41 -21 -72.5t-72 -74.5l-113 -95h209v-55h-292z" />
    <glyph glyph-name="three.den" 
d="M207 -10q-91 0 -154 71l39 42q51 -59 116 -59q34 0 57 20t23 51q0 33 -27.5 51.5t-72.5 18.5h-37l-10 38l126 125h-190v55h267v-48l-126 -123q59 -5 95.5 -34t36.5 -82q0 -56 -41 -91t-102 -35z" />
    <glyph glyph-name="four.den" 
d="M317 89v-91h-57v91h-196l-11 54l199 266h65v-270h56v-50h-56zM261 138v199l-150 -199h150z" />
    <glyph glyph-name="five.den" 
d="M206 -10q-83 0 -151 65l39 44q54 -54 114 -54q39 0 64 22t25 56q0 33 -25 53t-65 20q-45 0 -86 -19l-40 23l15 203h243v-57h-193l-8 -110q34 14 79 14q61 0 101.5 -33.5t40.5 -90.5q0 -60 -43 -98t-110 -38z" />
    <glyph glyph-name="six.den" 
d="M210 -10q-63 0 -103 40q-51 51 -51 157v2q0 101 46 163t123 62q66 0 117 -46l-33 -46q-42 37 -86 37q-42 0 -72.5 -41t-32.5 -103q42 44 103 44q56 0 94 -35t38 -95t-41 -99.5t-102 -39.5zM208 43q38 0 62 23t24 60t-22.5 59.5t-60.5 22.5q-39 0 -63.5 -22.5t-24.5 -59.5
v-1q0 -35 25 -59t60 -23z" />
    <glyph glyph-name="seven.den" 
d="M174 -2h-69l179 347h-212v58h282v-46z" />
    <glyph glyph-name="eight.den" 
d="M210 -10q-66 0 -108 32.5t-42 85.5q0 67 72 101q-61 31 -61 92q0 49 40.5 81t99.5 32t98.5 -32t39.5 -81q0 -61 -61 -92q73 -32 73 -99q0 -54 -42.5 -87t-108.5 -33zM211 363q-36 0 -59 -18t-23 -47q0 -30 23 -49t59 -19q35 0 58 19t23 49q0 28 -23 46.5t-58 18.5z
M211 182q-41 0 -67 -20t-26 -52q0 -31 25.5 -50.5t67.5 -19.5q41 0 66.5 19.5t25.5 50.5q0 32 -26 52t-66 20z" />
    <glyph glyph-name="nine.den" 
d="M209 191q39 0 63.5 23t24.5 61v1q0 36 -25 60.5t-60 23.5q-38 0 -62 -23.5t-24 -61.5q0 -39 22.5 -61.5t60.5 -22.5zM210 413q63 0 103 -40q51 -51 51 -157v-2q0 -102 -45.5 -163t-123.5 -61q-70 0 -123 48l33 46q43 -40 92 -40q43 0 73 39t31 100q-41 -43 -101 -43
q-56 0 -94.5 35.5t-38.5 96.5t41 101t102 40z" />
    <glyph glyph-name="onehalf.alt" horiz-adv-x="945" 
d="M363 325h-287v53h118v293l-103 -38l-16 52l132 49h47v-356h109v-53zM215 0l259 375l236 353h61l-259 -375l-236 -353h-61zM594 0v52l148 127q43 36 60.5 61t17.5 52q0 29 -21 47.5t-52 18.5q-58 0 -104 -67l-45 32q61 91 153 91q57 0 94.5 -33.5t37.5 -83.5
q0 -41 -21 -72.5t-72 -74.5l-113 -95h209v-55h-292z" />
    <glyph glyph-name="onethird.alt" horiz-adv-x="945" 
d="M363 325h-287v53h118v293l-103 -38l-16 52l132 49h47v-356h109v-53zM204 0l259 375l236 353h61l-259 -375l-236 -353h-61zM739 -10q-91 0 -154 71l39 42q51 -59 116 -59q34 0 57 20t23 51q0 33 -27.5 51.5t-72.5 18.5h-37l-10 38l126 125h-190v55h267v-48l-126 -123
q59 -5 95.5 -34t36.5 -82q0 -56 -41 -91t-102 -35z" />
    <glyph glyph-name="onequarter.alt" horiz-adv-x="945" 
d="M363 325h-287v53h118v293l-103 -38l-16 52l132 49h47v-356h109v-53zM220 0l259 375l236 353h61l-259 -375l-236 -353h-61zM839 89v-91h-57v91h-196l-11 54l199 266h65v-270h56v-50h-56zM783 138v199l-150 -199h150z" />
    <glyph glyph-name="onefifth.alt" horiz-adv-x="945" 
d="M363 325h-287v53h118v293l-103 -38l-16 52l132 49h47v-356h109v-53zM210 0l259 375l236 353h61l-259 -375l-236 -353h-61zM738 -10q-83 0 -151 65l39 44q54 -54 114 -54q39 0 64 22t25 56q0 33 -25 53t-65 20q-45 0 -86 -19l-40 23l15 203h243v-57h-193l-8 -110
q34 14 79 14q61 0 101.5 -33.5t40.5 -90.5q0 -60 -43 -98t-110 -38z" />
    <glyph glyph-name="onesixth.alt" horiz-adv-x="945" 
d="M363 325h-287v53h118v293l-103 -38l-16 52l132 49h47v-356h109v-53zM210 0l259 375l236 353h61l-259 -375l-236 -353h-61zM742 -10q-63 0 -103 40q-51 51 -51 157v2q0 101 46 163t123 62q66 0 117 -46l-33 -46q-42 37 -86 37q-42 0 -72.5 -41t-32.5 -103q42 44 103 44
q56 0 94 -35t38 -95t-41 -99.5t-102 -39.5zM740 43q38 0 62 23t24 60t-22.5 59.5t-60.5 22.5q-39 0 -63.5 -22.5t-24.5 -59.5v-1q0 -35 25 -59t60 -23z" />
    <glyph glyph-name="oneeighth.alt" horiz-adv-x="945" 
d="M363 325h-287v53h118v293l-103 -38l-16 52l132 49h47v-356h109v-53zM210 0l259 375l236 353h61l-259 -375l-236 -353h-61zM742 -10q-66 0 -108 32.5t-42 85.5q0 67 72 101q-61 31 -61 92q0 49 40.5 81t99.5 32t98.5 -32t39.5 -81q0 -61 -61 -92q73 -32 73 -99
q0 -54 -42.5 -87t-108.5 -33zM743 363q-36 0 -59 -18t-23 -47q0 -30 23 -49t59 -19q35 0 58 19t23 49q0 28 -23 46.5t-58 18.5zM743 182q-41 0 -67 -20t-26 -52q0 -31 25.5 -50.5t67.5 -19.5q41 0 66.5 19.5t25.5 50.5q0 32 -26 52t-66 20z" />
    <glyph glyph-name="zero.tab" horiz-adv-x="630" 
d="M314 -12q-116 0 -187.5 99.5t-71.5 270.5v10q0 171 72.5 271.5t188.5 100.5q115 0 187 -100t72 -270v-10q0 -170 -73 -271t-188 -101zM315 657q-74 0 -120 -75t-46 -212v-10q0 -137 46 -213t120 -76t120 75.5t46 211.5v10q0 137 -46 213t-120 76z" />
    <glyph glyph-name="one.tab" horiz-adv-x="630" 
d="M587 0h-497v82h212v551l-188 -66l-24 79l237 87h67v-651h193v-82z" />
    <glyph glyph-name="two.tab" horiz-adv-x="630" 
d="M561 0h-505v74l256 230q81 74 113 120.5t32 97.5q0 59 -40 95t-99 36q-57 0 -100.5 -30t-86.5 -94l-67 53q53 79 112 117.5t148 38.5q102 0 166.5 -58t64.5 -150v-2q0 -71 -37 -127t-125 -135l-201 -180h369v-86z" />
    <glyph glyph-name="three.tab" horiz-adv-x="630" 
d="M310 -12q-160 0 -261 119l63 67q89 -100 200 -100q63 0 108.5 37.5t45.5 98.5v2q0 61 -47.5 93.5t-130.5 32.5h-63l-23 60l230 245h-349v85h468v-78l-228 -239q104 -3 171.5 -52t67.5 -143v-2q0 -99 -73 -162.5t-179 -63.5z" />
    <glyph glyph-name="three.tab_alt" horiz-adv-x="630" 
d="M312 -12q-81 0 -150 34t-115 93l66 59q81 -102 203 -102q71 0 115 35.5t44 94.5q0 60 -48.5 92.5t-136.5 32.5h-73v81h81q73 0 118 34t45 93q0 54 -40 87.5t-107 33.5q-109 0 -188 -100l-65 52q95 132 255 132q108 0 174 -54.5t66 -142.5q0 -120 -125 -171
q138 -49 138 -174q0 -91 -71.5 -150.5t-185.5 -59.5z" />
    <glyph glyph-name="four.tab" horiz-adv-x="630" 
d="M408 0v166h-352l-20 85l350 481h110v-489h100v-77h-100v-166h-88zM409 242v387l-282 -387h282z" />
    <glyph glyph-name="five.tab" horiz-adv-x="630" 
d="M308 -12q-144 0 -257 109l58 69q99 -94 201 -94q74 0 120 41.5t46 108.5v2q0 65 -46 104.5t-122 39.5t-152 -38l-62 40l25 358h419v-87h-340l-16 -219q68 29 139 29q107 0 178.5 -60t71.5 -163v-2q0 -106 -74.5 -172t-188.5 -66z" />
    <glyph glyph-name="six.tab" horiz-adv-x="630" 
d="M341 463q98 0 165 -61.5t67 -165.5v-2q0 -107 -71.5 -176.5t-176.5 -69.5q-111 0 -177 68q-45 44 -66 108t-21 175v5q0 179 76.5 287.5t215.5 108.5q107 0 193 -73l-48 -74q-72 62 -148 62q-65 0 -111 -43.5t-65.5 -105.5t-19.5 -134v-4q64 95 187 95zM322 68
q71 0 114.5 46t43.5 116v1q0 69 -43 112t-111 42q-74 0 -118.5 -45t-44.5 -112v-1q0 -69 46 -114.5t113 -44.5z" />
    <glyph glyph-name="seven.tab" horiz-adv-x="630" 
d="M462 640h-387v88h495v-73l-323 -655h-107z" />
    <glyph glyph-name="eight.tab" horiz-adv-x="630" 
d="M315 -11q-113 0 -187 57.5t-74 148.5v3q0 63 36.5 108.5t100.5 70.5q-115 57 -115 166v3q0 84 69.5 138.5t169.5 54.5t169.5 -54.5t69.5 -138.5v-3q0 -108 -116 -166q138 -55 138 -177v-3q0 -93 -74 -150.5t-187 -57.5zM315 410q62 0 104.5 35.5t42.5 91.5v2
q0 52 -41.5 86.5t-105.5 34.5t-105.5 -34.5t-41.5 -86.5v-2q0 -55 42.5 -91t104.5 -36zM315 68q77 0 122 37.5t45 94.5v2q0 58 -48 94.5t-119 36.5q-72 0 -120 -36.5t-48 -94.5v-2q0 -57 45.5 -94.5t122.5 -37.5z" />
    <glyph glyph-name="nine.tab" horiz-adv-x="630" 
d="M308 660q-71 0 -114.5 -47t-43.5 -118v-1q0 -70 42.5 -114t110.5 -43q75 0 119.5 46t44.5 114v1q0 70 -46 116.5t-113 45.5zM288 258q-98 0 -164.5 62.5t-66.5 168.5v2q0 109 71 179t177 70q111 0 177 -68q45 -44 66 -108t21 -175v-5q0 -179 -76.5 -287.5t-215.5 -108.5
q-112 0 -203 78l48 74q80 -67 158 -67q64 0 110 43.5t66 104.5t21 131h-1q-68 -95 -188 -94z" />
    <glyph glyph-name="dollar.tab" horiz-adv-x="630" 
d="M167 537q0 -42 29.5 -72t103.5 -50l29 237q-7 1 -20 1q-65 0 -104 -32t-38 -83v-1zM485 194q0 45 -30.5 74.5t-104.5 48.5l-30 -242h11q70 0 112.5 33t41.5 85v1zM414 811l-11 -91q81 -17 152 -70l-42 -71q-64 48 -123 63l-29 -241q108 -27 159 -75.5t51 -125.5v-1
q0 -89 -68.5 -145t-175.5 -55h-12l-15 -122h-70l16 130q-108 20 -196 93l46 69q77 -67 164 -87l29 249q-108 28 -158 75.5t-50 125.5v1q0 87 65.5 142t167.5 54q13 0 20 -1l11 83h69z" />
    <glyph glyph-name="sterling.tab" horiz-adv-x="630" 
d="M146 385v110q0 116 65 182q63 61 162 61q122 0 202 -98l-65 -62q-60 73 -136 73q-56 0 -94 -36q-40 -40 -40 -120v-110h260v-79h-260v-223h335v-83h-509v56l80 23v227h-81v79h81z" />
    <glyph glyph-name="Euro.tab" horiz-adv-x="630" 
d="M41 421v67h85q25 114 95.5 183t170.5 69q117 0 196 -98l-59 -62q-61 79 -139 79q-63 0 -107.5 -46t-64.5 -125h223v-67h-234q-2 -17 -2 -53v-6q0 -17 2 -49h234v-67h-224q18 -81 63 -129t108 -48q46 0 79.5 20t66.5 62l57 -55q-84 -108 -207 -108q-98 0 -168 69.5
t-93 188.5h-82v67h75q-2 15 -2 47v8q0 26 3 53h-76z" />
    <glyph glyph-name="yen.tab" horiz-adv-x="630" 
d="M92 179h178v99h-178v67h159l-230 383h105l190 -334l191 334h102l-232 -383h161v-67h-178v-99h178v-67h-178v-112h-90v112h-178v67z" />
    <glyph glyph-name="cent.tab" horiz-adv-x="630" 
d="M153 363q0 -65 31.5 -113.5t84.5 -69.5l77 391h-1q-83 0 -137.5 -58.5t-54.5 -147.5v-2zM450 734l-20 -97q76 -20 136 -87l-55 -59q-52 55 -100 70l-79 -394h10q95 0 173 83l54 -51q-97 -109 -232 -109h-17l-19 -96h-74l22 109q-82 27 -133 98t-51 163v2q0 116 80.5 199
t199.5 83h14l17 86h74z" />
    <glyph glyph-name="numbersign.tab" horiz-adv-x="630" 
d="M244 474l-30 -216h171l31 216h-172zM36 260h104l30 212h-100v79h112l25 177h75l-26 -177h170l25 177h76l-25 -177h92v-79h-104l-30 -212h100v-79h-111l-26 -181h-76l26 181h-169l-26 -181h-75l26 181h-93v79z" />
    <glyph glyph-name="paragraph.tab" horiz-adv-x="630" 
d="M417 0v269h-61q-128 0 -208 60t-80 167v1q0 107 79 169.5t208 61.5h159v-728h-97z" />
    <glyph glyph-name="section.tab" horiz-adv-x="630" 
d="M240 451q-43 1 -69.5 -17t-26.5 -47v-1q0 -28 28 -48t96 -38q87 -23 122 -23q43 -1 69.5 17t26.5 47v1q0 28 -28 48t-96 38q-87 23 -122 23zM325 -10q-135 0 -224 87l51 61q79 -74 175 -74q43 0 67 17.5t24 44.5v1q0 29 -31.5 50t-108.5 42q-123 34 -171 68t-48 88v1
q0 46 36 77t97 39q-70 42 -70 108v1q0 59 51.5 98.5t131.5 38.5q135 0 224 -87l-51 -61q-79 74 -175 74q-43 0 -67 -17.5t-24 -44.5v-1q0 -29 31.5 -50t108.5 -42q123 -34 171 -68t48 -88v-1q0 -46 -36 -77t-97 -39q70 -42 70 -108v-1q0 -59 -51.5 -98.5t-131.5 -38.5z" />
    <glyph glyph-name="degree.tab" horiz-adv-x="630" 
d="M314 319q-87 0 -149.5 61.5t-62.5 147.5v1q0 85 64 147t150 61q87 0 149.5 -61.5t62.5 -147.5v-1q0 -85 -64 -147t-150 -61zM316 381q63 0 103.5 42t40.5 105v1q0 61 -42 104t-104 42q-62 0 -103 -42.5t-41 -104.5v-1q0 -61 42 -104t104 -42z" />
    <glyph glyph-name="percent.tab" horiz-adv-x="630" 
d="M160 735q55 0 89 -49.5t34 -128.5v-7q0 -79 -34 -129.5t-89 -50.5t-89 50t-34 129v6q0 79 34 129.5t89 50.5zM475 728h58l-199 -374l-179 -354h-58l199 374zM160 679q-30 0 -46.5 -33t-16.5 -87v-13q0 -54 16.5 -87t46.5 -33t46.5 33t16.5 87v13q0 54 -16.5 87t-46.5 33z
M470 358q55 0 89 -50t34 -129v-6q0 -79 -34 -129.5t-89 -50.5t-89 49.5t-34 128.5v7q0 79 34 129.5t89 50.5zM470 302q-30 0 -46.5 -33t-16.5 -87v-13q0 -54 16.5 -87t46.5 -33t46.5 33t16.5 87v13q0 54 -16.5 87t-46.5 33z" />
    <glyph glyph-name="quotedbl.tab" horiz-adv-x="630" 
d="M126 437l57 291h111v-5l-117 -286h-51zM360 437l56 291h111v-5l-117 -286h-50z" />
    <glyph glyph-name="quotesingle.tab" horiz-adv-x="315" 
d="M85 437l57 291h112v-5l-117 -286h-52z" />
    <glyph glyph-name="period.tab" horiz-adv-x="315" 
d="M98 0v128h120v-128h-120z" />
    <glyph glyph-name="comma.tab" horiz-adv-x="315" 
d="M84 -134l-13 42q81 24 75 92h-48v128h120v-111q0 -68 -33.5 -103.5t-100.5 -47.5z" />
    <glyph glyph-name="colon.tab" horiz-adv-x="315" 
d="M99 415v126h118v-126h-118zM99 0v126h118v-126h-118z" />
    <glyph glyph-name="semicolon.tab" horiz-adv-x="315" 
d="M99 415v126h118v-126h-118zM84 -134l-13 42q81 24 75 92h-47v126h118v-109q0 -68 -33 -103.5t-100 -47.5z" />
    <glyph glyph-name="twodotleader.tab" horiz-adv-x="630" 
d="M102 0v120h114v-120h-114zM414 0v120h114v-120h-114z" />
    <glyph glyph-name="periodcentered.tab" horiz-adv-x="315" 
d="M98 251v127h120v-127h-120z" />
    <glyph glyph-name="slash.tab" horiz-adv-x="630" 
d="M610 830l-520 -963h-85l520 963h85z" />
    <glyph glyph-name="bar.tab" horiz-adv-x="315" 
d="M119 -133v963h78v-963h-78z" />
    <glyph glyph-name="underscore.tab" horiz-adv-x="630" 
d="M1 -166v75h628v-75h-628z" />
    <glyph glyph-name="plus.tab" horiz-adv-x="630" 
d="M560 324h-202l1 -206h-88l1 206h-202v85l202 -1l-1 207h88l-1 -207l202 1v-85z" />
    <glyph glyph-name="minus.tab" horiz-adv-x="630" 
d="M560 321h-490v90h490v-90z" />
    <glyph glyph-name="divide.tab" horiz-adv-x="630" 
d="M258 518v115h114v-115h-114zM560 324h-490v84h490v-84zM258 99v115h114v-115h-114z" />
    <glyph glyph-name="equal.tab" horiz-adv-x="630" 
d="M543 445h-456v86h456v-86zM543 202h-456v85h456v-85z" />
    <glyph glyph-name="multiply.tab" horiz-adv-x="630" 
d="M487 132l-173 176l-173 -176l-60 60l176 173l-176 173l62 62l173 -176l173 176l60 -60l-176 -173l176 -173z" />
    <glyph glyph-name="less.tab" horiz-adv-x="630" 
d="M534 90l-463 236v81l463 235v-91l-370 -184l370 -185v-92z" />
    <glyph glyph-name="greater.tab" horiz-adv-x="630" 
d="M559 326l-463 -236v91l370 184l-370 185v92l463 -235v-81z" />
    <glyph glyph-name="plusminus.tab" horiz-adv-x="630" 
d="M560 381h-202l1 -198h-88l1 198h-202v85h202l-1 198h88l-1 -198h202v-85zM560 0h-490v82h490v-82z" />
    <glyph glyph-name="R_p" horiz-adv-x="1248" 
d="M179 354h157q75 0 120.5 39t45.5 106v3q0 69 -44 105.5t-122 36.5h-157v-290zM958 68q65 0 108.5 54t43.5 145v9q0 90 -44.5 145t-107.5 55t-110 -56t-47 -143v-10q0 -88 47 -143.5t110 -55.5zM88 0v728h254q116 0 184 -60t68 -162v-3q0 -81 -45 -136t-119 -77l188 -290
h-108l-175 273h-156v-273h-91zM715 -166v710h89v-100q67 111 175 111q90 0 155.5 -74.5t65.5 -202.5v-11q0 -128 -65.5 -203t-155.5 -75q-108 0 -175 106v-261h-89z" />
    <glyph glyph-name="hcoslug" horiz-adv-x="694" 
d="M644 700v-800h-594v800h594zM247 428q0 13 7.5 21t19.5 8q13 0 21 -10.5t8 -27.5q0 -22 -18 -50q-15 14 -21 20.5t-11.5 17t-5.5 21.5zM312 342q30 20 42 34q29 -29 -1 -80q-33 38 -41 46zM261 219q-22 0 -37 15.5t-15 38.5q0 24 16 40q34 -32 74 -82q-15 -12 -38 -12z
M382 264q20 26 46 42q15 -25 43 -25q21 0 35.5 15.5t14.5 38.5t-14.5 37.5t-35.5 14.5q-35 0 -60 -38q-3 39 -49 37q9 15 9 34q0 29 -25.5 51.5t-69.5 22.5q-48 0 -78.5 -25.5t-30.5 -59.5q0 -37 31 -69q-82 -28 -82 -91q0 -39 32 -66t77 -27q63 0 104 45q44 -45 85 -45
q33 0 56 25.5t24 68.5l-7 2q-17 -29 -43 -29q-27 0 -62 41zM286 124l-12 -2v-9h-7v-7h7v-20q0 -13 12 -13q11 0 14 13l-5 2q-1 -7 -5 -7t-4 5v20h13v7h-13v11zM174 94q0 -21 21 -21q9 0 15 6t6 15q0 20 -21 20t-21 -20zM203 94q0 -16 -8 -16t-8 16q0 15 8 15t8 -15zM219 81
v-7h22v7h-4v15q0 10 7 10q6 0 6 -7v-18h-4v-7h22v7h-6v19q0 14 -12 14q-9 0 -14 -11v10h-17v-7h6v-25h-6zM379 93q0 -13 -7 -13q-8 0 -8 13t8 13q7 0 7 -13zM125 81v-7h30v7h-10v16h4q5 0 6 -8h7v23h-7q-1 -8 -6 -8h-4v18h12q9 0 11 -13h8v20h-51v-7h7v-41h-7zM302 88v-14h7
l1 4q7 -5 13 -5q14 0 14 13q0 9 -12 12t-12 6q0 4 5 4t10 -7h7v13h-6l-2 -5q-3 5 -11 5q-14 0 -14 -12q0 -9 12 -12.5t12 -6.5q0 -4 -5 -4q-6 0 -12 9h-7zM352 125v-52h6l4 8q5 -8 14 -8q16 0 16 21q0 20 -15 20q-10 0 -13 -9v27h-18v-7h6zM405 65q3 2 1.5 6t-6.5 4
q-7 0 -7 -7q0 -9 11 -9q12 0 18 16l13 31h5v7h-17v-7h5l-8 -20l-9 20h6v7h-25v-7h5q12 -23 16 -33q-2 -8 -8 -8zM294 39v3q0 12 6 12l3 -1q-1 -1 -1 -3q0 -6 6 -6v-5h-14zM464 33h-18v-7h6q-2 -5 -6 -9q-2 2 -5.5 6t-6.5 7q11 5 11 12q0 12 -14 12q-17 0 -17 -14q0 -6 6 -12
q-13 -4 -13 -15q0 -14 18 -14q9 0 15 6q5 -6 12 -6q10 0 13 12l-5 1q-1 -5 -4 -5t-6 5q6 8 9 14h5v7zM469 27q0 -28 29 -28q22 0 24 23h-8q-2 -16 -14 -16q-16 0 -16 22t14 22q10 0 15 -16h8v22h-8l-1 -6q-7 7 -16 7q-11 0 -19 -8.5t-8 -21.5zM431 33q-6 6 -6 10q0 5 5 5
q6 0 6 -6t-5 -9zM340 18h26q2 22 -19 22q-8 0 -14 -6t-6 -15q0 -20 21 -20q14 0 18 14h-7q-1 -7 -9 -7q-10 0 -10 12zM525 20q0 -21 21 -21q9 0 15 6t6 15q0 20 -21 20t-21 -20zM189 20q0 -21 21 -21q9 0 15 6t6 15q0 20 -21 20t-21 -20zM247 18h26q2 22 -19 22q-8 0 -14 -6
t-6 -15q0 -20 21 -20q15 0 18 14h-7q-1 -7 -9 -7q-10 0 -10 12zM340 23q0 12 7 12t7 -12h-14zM554 20q0 -16 -8 -16t-8 16q0 15 8 15t8 -15zM218 20q0 -16 -8 -16t-8 16q0 15 8 15t8 -15zM247 23q0 12 7 12t7 -12h-14zM368 7v-7h26v7h-8v16q4 9 7 9v-1q0 -6 6 -6q7 0 7 7
q0 8 -8 8t-12 -11v10h-18v-7h6v-25h-6zM276 7v-7h23v7h-5v25h14v-25h-5v-7h23v7h-6v52l-10 -2q-4 2 -9 2q-19 0 -19 -19v-1h-7v-7h7v-25h-6zM124 7v-7h29v7h-8v18h22v-18h-8v-7h29v7h-8v41h8v7h-29v-7h8v-16h-22v16h8v7h-29v-7h8v-41h-8zM437 9q-5 -3 -8 -3q-10 0 -10 10
q0 5 4 9q4 -4 14 -16zM583 6q0 7 -7 7t-7 -7t7 -7t7 7z" />
    <glyph glyph-name="space.tab" horiz-adv-x="315" 
 />
    <glyph glyph-name="NUL" horiz-adv-x="0" 
 />
    <glyph glyph-name="caron.alt" horiz-adv-x="528" 
d="M218 609l15 179h84v-3l-55 -176h-44z" />
    <glyph glyph-name="descendercyrillic" horiz-adv-x="528" 
d="M202 13h73q64 -47 64 -96q0 -40 -34.5 -64.5t-95.5 -24.5q-23 0 -40 3v50q8 -1 17 -1q76 0 76 48q0 34 -60 85z" />
    <glyph glyph-name="acute.cap" horiz-adv-x="528" 
d="M182 791l109 139l91 -41l-123 -98h-77z" />
    <glyph glyph-name="hungarumlaut.cap" horiz-adv-x="528" 
d="M251 791l108 139l89 -41l-123 -98h-74zM84 791l109 139l89 -41l-123 -98h-75z" />
    <glyph glyph-name="grave.cap" horiz-adv-x="528" 
d="M345 791h-76l-124 98l92 41z" />
    <glyph glyph-name="circumflex.cap" horiz-adv-x="528" 
d="M102 791l118 128h88l118 -128h-85l-78 62l-78 -62h-83z" />
    <glyph glyph-name="caron.cap" horiz-adv-x="528" 
d="M426 919l-118 -128h-88l-118 128h85l78 -61l78 61h83z" />
    <glyph glyph-name="breve.cap" horiz-adv-x="528" 
d="M264 789q-69 0 -113 33t-49 92h71q19 -53 91 -53t91 53h71q-5 -59 -49 -92t-113 -33z" />
    <glyph glyph-name="tilde.cap" horiz-adv-x="528" 
d="M340 791q-25 0 -84 23q-42 17 -60 17q-20 0 -31.5 -11t-23.5 -38l-57 16q17 58 41 85.5t62 27.5q25 0 84 -23q42 -17 60 -17q20 0 31.5 11t23.5 38l57 -17q-16 -58 -40 -85t-63 -27z" />
    <glyph glyph-name="macron.cap" horiz-adv-x="528" 
d="M88 810v75h352v-75h-352z" />
    <glyph glyph-name="dieresis.cap" horiz-adv-x="528" 
d="M110 791v101h107v-101h-107zM311 791v101h106v-101h-106z" />
    <glyph glyph-name="dotaccent.cap" horiz-adv-x="528" 
d="M209 791v101h110v-101h-110z" />
    <glyph glyph-name="ring.cap" horiz-adv-x="528" 
d="M264 789q-49 0 -83.5 30.5t-34.5 74.5q0 45 34.5 75t83.5 30t83.5 -30t34.5 -75q0 -44 -34.5 -74.5t-83.5 -30.5zM264 832q30 0 49.5 18t19.5 44q0 27 -19.5 45t-49.5 18t-49.5 -18t-19.5 -45q0 -26 19.5 -44t49.5 -18z" />
    <glyph glyph-name="uni0384.cap" horiz-adv-x="528" 
d="M133 537l16 191h99l-64 -191h-51z" />
    <glyph glyph-name="commaaccent.rot" horiz-adv-x="528" 
d="M328 810l7 -34q-36 -6 -52 -21.5t-14 -43.5h46v-92h-103v79q0 103 116 112z" />
    <glyph glyph-name="acute.altlc" horiz-adv-x="528" 
d="M186 870l105 135l90 -43l-121 -92h-74z" />
    <glyph glyph-name="acute.altuc" horiz-adv-x="528" 
d="M183 914l110 124l90 -41l-124 -83h-76z" />
    <glyph glyph-name="caron.alt.cap" horiz-adv-x="528" 
d="M218 609l15 179h84v-3l-55 -176h-44z" />
    <glyph glyph-name="cedilla.cap" horiz-adv-x="528" 
d="M241 -164l-87 38l96 141h72z" />
    <glyph glyph-name="commaaccent.cap" horiz-adv-x="528" 
d="M200 -262l-7 34q36 6 52 22t14 43h-46v92h102v-79q0 -101 -115 -112z" />
    <glyph glyph-name="ogonek.cap" horiz-adv-x="528" 
d="M352 -120v-51q-3 0 -9.5 -0.5t-8.5 -0.5q-65 1 -100 24.5t-35 61.5q0 44 63 101l64 -10q-50 -44 -50 -78q0 -44 76 -47z" />
    <glyph glyph-name="uni0385.cap" horiz-adv-x="528" 
d="M212 619l42 186l90 -21l-74 -165h-58zM81 619v105h96v-105h-96zM351 619v105h96v-105h-96z" />
    </font>
</defs>
</svg>
