<?xml version="1.0" standalone="no"?>
<!DOCTYPE svg PUBLIC "-//W3C//DTD SVG 1.1//EN" "http://www.w3.org/Graphics/SVG/1.1/DTD/svg11.dtd" >
<svg xmlns="http://www.w3.org/2000/svg" xmlns:xlink="http://www.w3.org/1999/xlink" version="1.1">
<metadata>
Created by FontForge 20161003 at Tue Nov 29 10:16:24 2016
 By www-data
Copyright (C) 2010, 2014 Hoefler &#38; Co. http://www.typography.com/
</metadata>
<defs>
<font id="GothamSSmLight" horiz-adv-x="420" >
  <font-face 
    font-family="GothamSSmLight"
    font-weight="300"
    font-stretch="normal"
    units-per-em="1000"
    panose-1="0 0 0 0 0 0 0 0 0 0"
    ascent="800"
    descent="-200"
    x-height="534"
    cap-height="728"
    bbox="-216 -245 1204 1030"
    underline-thickness="50"
    underline-position="-150"
    unicode-range="U+0020-FB04"
  />
<missing-glyph horiz-adv-x="500" 
d="M0 -200v1000h500v-1000h-500zM71 750l179 -390l179 390h-358zM450 676l-172 -376l172 -376v752zM50 -76l172 376l-172 376v-752zM250 240l-179 -390h358z" />
    <glyph glyph-name="f_f" unicode="ff" horiz-adv-x="769" 
d="M508 0v474h-75v60h75v49q0 91 47 138q42 42 114 42q43 0 84 -13v-60q-42 13 -78 13q-100 0 -100 -123v-46h177v-60h-177v-474h-67zM128 0v474h-75v60h75v49q0 91 47 138q42 42 114 42q43 0 84 -13v-60q-42 13 -78 13q-100 0 -100 -123v-46h177v-60h-177v-474h-67z" />
    <glyph glyph-name="fi" unicode="fi" horiz-adv-x="657" 
d="M479 661v81h79v-81h-79zM128 0v474h-75v60h75v49q0 91 47 138q42 42 114 42q43 0 84 -13v-60q-42 13 -78 13q-100 0 -100 -123v-46h177v-60h-177v-474h-67zM485 0v534h67v-534h-67z" />
    <glyph glyph-name="fl" unicode="fl" horiz-adv-x="657" 
d="M485 0v759h67v-759h-67zM128 0v474h-75v60h75v49q0 91 47 138q42 42 114 42q43 0 84 -13v-60q-42 13 -78 13q-100 0 -100 -123v-46h177v-60h-177v-474h-67z" />
    <glyph glyph-name="f_f_i" unicode="ffi" horiz-adv-x="1036" 
d="M858 661v81h79v-81h-79zM508 0v474h-75v60h75v49q0 91 47 138q42 42 114 42q43 0 84 -13v-60q-42 13 -78 13q-100 0 -100 -123v-46h177v-60h-177v-474h-67zM128 0v474h-75v60h75v49q0 91 47 138q42 42 114 42q43 0 84 -13v-60q-42 13 -78 13q-100 0 -100 -123v-46h177
v-60h-177v-474h-67zM864 0v534h67v-534h-67z" />
    <glyph glyph-name="f_f_l" unicode="ffl" horiz-adv-x="1036" 
d="M864 0v759h67v-759h-67zM508 0v474h-75v60h75v49q0 91 47 138q42 42 114 42q43 0 84 -13v-60q-42 13 -78 13q-100 0 -100 -123v-46h177v-60h-177v-474h-67zM128 0v474h-75v60h75v49q0 91 47 138q42 42 114 42q43 0 84 -13v-60q-42 13 -78 13q-100 0 -100 -123v-46h177
v-60h-177v-474h-67z" />
    <glyph glyph-name=".notdef" horiz-adv-x="500" 
d="M0 -200v1000h500v-1000h-500zM71 750l179 -390l179 390h-358zM450 676l-172 -376l172 -376v752zM50 -76l172 376l-172 376v-752zM250 240l-179 -390h358z" />
    <glyph glyph-name=".null" horiz-adv-x="0" 
 />
    <glyph glyph-name="nonmarkingreturn" horiz-adv-x="333" 
 />
    <glyph glyph-name="space" unicode=" " horiz-adv-x="322" 
 />
    <glyph glyph-name="exclam" unicode="!" horiz-adv-x="283" 
d="M123 199l-21 464v65h79v-65l-20 -464h-38zM100 0v100h83v-100h-83z" />
    <glyph glyph-name="quotedbl" unicode="&#x22;" horiz-adv-x="454" 
d="M74 454l34 274h83v-5l-79 -269h-38zM270 454l34 274h83v-5l-79 -269h-38z" />
    <glyph glyph-name="numbersign" unicode="#" horiz-adv-x="738" 
d="M285 483l-40 -233h207l40 233h-207zM643 250v-61h-139l-32 -189h-63l32 189h-205l-33 -189h-63l32 189h-118v61h129l40 232h-128v61h138l32 185h63l-32 -185h206l32 185h63l-32 -185h118v-61h-128l-40 -232h128z" />
    <glyph glyph-name="dollar" unicode="$" horiz-adv-x="669" 
d="M161 541q0 -50 32.5 -81.5t120.5 -54.5v264q-68 -2 -111 -38.5t-42 -88.5v-1zM524 191q0 51 -33.5 82t-123.5 53v-267q71 3 114.5 39.5t42.5 91.5v1zM570 642l-40 -53q-78 65 -163 77v-272q118 -26 171.5 -73.5t53.5 -125.5v-1q0 -82 -61.5 -135.5t-160.5 -58.5v-102h-59
v103q-135 13 -246 110l41 52q96 -88 208 -102v276q-117 27 -169.5 74t-51.5 126v1q0 79 61 132.5t157 57.5v60h59v-62q107 -11 200 -84z" />
    <glyph glyph-name="percent" unicode="%" horiz-adv-x="873" 
d="M222 364q-71 0 -116 54.5t-45 129.5v2q0 77 45.5 131.5t117.5 54.5q71 0 116.5 -54.5t45.5 -129.5v-2q0 -76 -46 -131t-118 -55zM414 377l256 351h66l-279 -380l-255 -348h-66zM222 684q-43 0 -71 -38.5t-28 -93.5v-2q0 -57 29.5 -95.5t71.5 -38.5q44 0 72 38t28 94v2
q0 57 -30 95.5t-72 38.5zM648 -8q-71 0 -116 54t-45 130v2q0 76 46 131t117 55t116.5 -54.5t45.5 -129.5v-2q0 -76 -46 -131t-118 -55zM650 44q44 0 72 38t28 94v2q0 57 -30 95.5t-72 38.5q-43 0 -71 -38.5t-28 -93.5v-2q0 -57 29.5 -95.5t71.5 -38.5z" />
    <glyph glyph-name="ampersand" unicode="&#x26;" horiz-adv-x="734" 
d="M641 -15l-119 124q-105 -119 -242 -119q-98 0 -162 56.5t-64 146.5v2q0 142 181 211q-41 47 -59 83.5t-18 79.5v2q0 72 53 120.5t135 48.5q74 0 123.5 -47t49.5 -114v-2q0 -127 -175 -189l177 -182q47 66 91 169l59 -26q-51 -113 -106 -188l130 -133zM304 429
q148 48 148 144v2q0 47 -31 77.5t-77 30.5q-51 0 -84.5 -32t-33.5 -79v-2q0 -33 17 -63.5t61 -77.5zM284 49q104 0 195 104l-204 210q-76 -27 -113.5 -70.5t-37.5 -95.5v-2q0 -62 45 -104t115 -42z" />
    <glyph glyph-name="quotesingle" unicode="'" horiz-adv-x="258" 
d="M74 454l34 274h84v-5l-80 -269h-38z" />
    <glyph glyph-name="parenleft" unicode="(" horiz-adv-x="460" 
d="M365 -147q-140 79 -214 192t-74 253v1q0 140 74.5 253.5t213.5 191.5l29 -45q-248 -156 -248 -401v-1q0 -245 248 -399z" />
    <glyph glyph-name="parenright" unicode=")" horiz-adv-x="460" 
d="M94 -147l-29 45q248 156 248 400v1q0 246 -248 400l29 45q140 -79 214.5 -192t74.5 -254v-1q0 -139 -74.5 -252.5t-214.5 -191.5z" />
    <glyph glyph-name="asterisk" unicode="*" horiz-adv-x="457" 
d="M204 417l10 131l-109 -75l-26 44l122 57l-122 56l26 44l109 -75l-10 131h50l-11 -131l109 75l26 -44l-122 -56l122 -57l-26 -44l-109 75l11 -131h-50z" />
    <glyph glyph-name="plus" unicode="+" horiz-adv-x="658" 
d="M296 116v218h-220v64h220v218h66v-218h220v-64h-220v-218h-66z" />
    <glyph glyph-name="comma" unicode="," horiz-adv-x="258" 
d="M69 -120l-13 32q37 16 52 36.5t13 51.5h-34v100h84v-86q0 -56 -24 -87t-78 -47z" />
    <glyph glyph-name="hyphen" unicode="-" horiz-adv-x="434" 
d="M75 275v72h285v-72h-285z" />
    <glyph glyph-name="period" unicode="." horiz-adv-x="258" 
d="M87 0v100h84v-100h-84z" />
    <glyph glyph-name="slash" unicode="/" horiz-adv-x="535" 
d="M-15 -133l486 963h64l-487 -963h-63z" />
    <glyph glyph-name="zero" unicode="0" horiz-adv-x="752" 
d="M375 -12q-136 0 -220 108.5t-84 265.5v2q0 156 85 266t221 110t220 -109t84 -265v-2q0 -156 -85 -266t-221 -110zM377 51q103 0 167 92t64 219v2q0 128 -65 220.5t-168 92.5q-104 0 -168 -91.5t-64 -219.5v-2q0 -127 65 -220t169 -93z" />
    <glyph glyph-name="one" unicode="1" horiz-adv-x="372" 
d="M191 0v661l-138 -45l-18 56l173 61h52v-733h-69z" />
    <glyph glyph-name="two" unicode="2" horiz-adv-x="629" 
d="M55 0v54l267 238q87 79 121.5 130.5t34.5 106.5q0 66 -45 106.5t-109 40.5q-63 0 -110 -31.5t-94 -97.5l-51 36q53 79 111.5 117t149.5 38q96 0 158.5 -57.5t62.5 -145.5v-2q0 -74 -40.5 -133t-142.5 -150l-207 -185h397v-65h-503z" />
    <glyph glyph-name="three" unicode="3" horiz-adv-x="646" 
d="M328 -12q-169 0 -269 130l52 45q90 -112 219 -112q71 0 119.5 42t48.5 108v2q0 70 -59 109t-155 39h-44l-15 41l239 272h-367v64h461v-51l-237 -266q107 -7 177.5 -59t70.5 -146v-2q0 -95 -70 -155.5t-171 -60.5z" />
    <glyph glyph-name="four" unicode="4" horiz-adv-x="704" 
d="M460 0v175h-388l-20 51l414 507h62v-499h115v-59h-115v-175h-68zM136 234h324v400z" />
    <glyph glyph-name="five" unicode="5" horiz-adv-x="643" 
d="M320 -12q-142 0 -258 116l47 50q105 -103 212 -103q81 0 132.5 48.5t51.5 122.5v2q0 71 -52.5 116t-136.5 45q-79 0 -158 -43l-49 33l21 353h415v-65h-354l-16 -251q75 36 151 36q108 0 179.5 -61.5t71.5 -160.5v-2q0 -104 -72.5 -170t-184.5 -66z" />
    <glyph glyph-name="six" unicode="6" horiz-adv-x="681" 
d="M350 -12q-117 0 -188 73q-47 47 -69.5 111t-22.5 172v2q0 170 81.5 282t218.5 112q111 0 213 -83l-42 -54q-85 74 -175 74q-105 0 -165 -94.5t-60 -237.5v-14q79 122 216 122q104 0 178 -62.5t74 -159.5v-2q0 -104 -74.5 -172.5t-184.5 -68.5zM353 50q82 0 133 50.5
t51 125.5v2q0 71 -52.5 117.5t-134.5 46.5t-136.5 -51t-54.5 -117v-3q0 -73 55 -122t139 -49z" />
    <glyph glyph-name="seven" unicode="7" horiz-adv-x="625" 
d="M156 0l330 663h-410v65h489v-52l-331 -676h-78z" />
    <glyph glyph-name="eight" unicode="8" horiz-adv-x="665" 
d="M333 -10q-117 0 -194.5 57.5t-77.5 147.5v2q0 62 42 109t112 71q-129 56 -129 168v2q0 83 73.5 137t173.5 54t173.5 -54t73.5 -137v-2q0 -111 -130 -168q70 -25 112.5 -71.5t42.5 -107.5v-2q0 -91 -77.5 -148.5t-194.5 -57.5zM333 401q74 0 125 39.5t51 101.5v2
q0 58 -50.5 95.5t-125.5 37.5t-126 -38t-51 -95v-2q0 -62 51.5 -101.5t125.5 -39.5zM333 51q91 0 146 42t55 102v2q0 64 -58 105t-143 41t-143 -41t-58 -105v-2q0 -60 55 -102t146 -42z" />
    <glyph glyph-name="nine" unicode="9" horiz-adv-x="681" 
d="M331 329q84 0 137.5 52t53.5 121v2q0 74 -55 124t-140 50q-83 0 -133 -53t-50 -128v-2q0 -72 52.5 -119t134.5 -47zM313 51q103 0 165 93.5t62 228.5v21q-77 -126 -215 -126q-110 0 -181.5 63.5t-71.5 160.5v3q0 104 72.5 174.5t186.5 70.5q115 0 189 -74q91 -91 91 -283
v-2q0 -172 -84.5 -282.5t-215.5 -110.5q-117 0 -222 89l42 54q91 -80 182 -80z" />
    <glyph glyph-name="colon" unicode=":" horiz-adv-x="268" 
d="M92 434v100h84v-100h-84zM92 0v100h84v-100h-84z" />
    <glyph glyph-name="semicolon" unicode=";" horiz-adv-x="268" 
d="M92 434v100h84v-100h-84zM74 -120l-13 32q37 16 52 36.5t13 51.5h-34v100h84v-86q0 -56 -24 -87t-78 -47z" />
    <glyph glyph-name="less" unicode="&#x3c;" horiz-adv-x="658" 
d="M557 92l-486 246v57l486 246v-70l-409 -204l409 -205v-70z" />
    <glyph glyph-name="equal" unicode="=" horiz-adv-x="658" 
d="M90 453v66h478v-66h-478zM90 213v67h478v-67h-478z" />
    <glyph glyph-name="greater" unicode="&#x3e;" horiz-adv-x="658" 
d="M101 92v69l409 204l-409 206v70l486 -246v-57z" />
    <glyph glyph-name="question" unicode="?" horiz-adv-x="567" 
d="M238 199l-15 168l5 6q102 2 156.5 43t54.5 112v2q0 62 -44 103.5t-117 41.5q-110 0 -194 -102l-46 42q100 122 243 122q103 0 166 -58t63 -146v-2q0 -92 -60.5 -145.5t-157.5 -66.5l-10 -120h-44zM218 0v100h84v-100h-84z" />
    <glyph glyph-name="at" unicode="@" horiz-adv-x="1029" 
d="M524 -168q-130 0 -237 61t-167 165t-60 227q0 188 133 321.5t323 133.5q188 0 320.5 -122.5t132.5 -288.5q0 -124 -57.5 -189t-134.5 -65q-54 0 -91.5 24.5t-52.5 66.5q-75 -91 -174 -91q-78 0 -131.5 52.5t-53.5 134.5q0 108 74.5 183.5t166.5 75.5q104 0 153 -89l14 75
l61 -9l-40 -228q-9 -49 -9 -69q0 -42 24 -64.5t67 -22.5q60 0 103.5 55t43.5 160q0 71 -32 139t-86.5 120.5t-132.5 85t-165 32.5q-178 0 -298.5 -123t-120.5 -298q0 -176 121 -297.5t306 -121.5q138 0 259 71l17 -27q-129 -78 -276 -78zM471 132q65 0 117 52q61 61 61 141
q0 59 -37.5 98.5t-93.5 39.5q-67 0 -120 -53q-59 -59 -59 -143q0 -63 36.5 -99t95.5 -36z" />
    <glyph glyph-name="A" unicode="A" horiz-adv-x="832" 
d="M237 261h355l-177 393zM48 0l335 733h66l335 -733h-76l-88 198h-411l-89 -198h-72z" />
    <glyph glyph-name="B" unicode="B" horiz-adv-x="761" 
d="M110 0v728h306q124 0 190 -64q47 -49 47 -116v-2q0 -120 -120 -171q160 -44 160 -174v-2q0 -92 -71.5 -145.5t-190.5 -53.5h-321zM582 537v2q0 57 -45 91.5t-125 34.5h-233v-267h227q79 0 127.5 36.5t48.5 102.5zM623 204q0 63 -53 97.5t-153 34.5h-238v-273h253
q88 0 139.5 37.5t51.5 101.5v2z" />
    <glyph glyph-name="C" unicode="C" horiz-adv-x="782" 
d="M441 -12q-155 0 -259 108t-104 266v2q0 157 104.5 266.5t261.5 109.5q92 0 157 -29t127 -86l-48 -52q-109 104 -237 104q-125 0 -208.5 -90t-83.5 -221v-2q0 -132 84.5 -222.5t208.5 -90.5q73 0 128.5 27t113.5 82l46 -45q-63 -63 -130.5 -95t-160.5 -32z" />
    <glyph glyph-name="D" unicode="D" horiz-adv-x="823" 
d="M110 0v728h249q169 0 277.5 -103.5t108.5 -258.5v-2q0 -156 -108.5 -260t-277.5 -104h-249zM359 664h-179v-600h179q141 0 227.5 85t86.5 213v2q0 128 -86.5 214t-227.5 86z" />
    <glyph glyph-name="E" unicode="E" horiz-adv-x="707" 
d="M110 0v728h523v-64h-453v-265h406v-64h-406v-271h458v-64h-528z" />
    <glyph glyph-name="F" unicode="F" horiz-adv-x="692" 
d="M110 0v728h519v-64h-449v-277h402v-64h-402v-323h-70z" />
    <glyph glyph-name="G" unicode="G" horiz-adv-x="825" 
d="M446 -12q-167 0 -267.5 107t-100.5 267v2q0 153 102 264.5t261 111.5q86 0 148.5 -23.5t120.5 -72.5l-45 -53q-48 42 -100.5 64t-127.5 22q-123 0 -204.5 -91.5t-81.5 -219.5v-2q0 -138 81 -226t217 -88q62 0 120.5 21.5t99.5 55.5v194h-231v63h298v-286
q-125 -110 -290 -110z" />
    <glyph glyph-name="H" unicode="H" horiz-adv-x="800" 
d="M110 0v728h70v-330h440v330h70v-728h-70v334h-440v-334h-70z" />
    <glyph glyph-name="I" unicode="I" horiz-adv-x="305" 
d="M117 0v728h70v-728h-70z" />
    <glyph glyph-name="J" unicode="J" horiz-adv-x="583" 
d="M263 -10q-146 0 -223 132l53 41q34 -56 74 -83t98 -27q66 0 107.5 48t41.5 136v491h71v-489q0 -123 -67 -190q-61 -59 -155 -59z" />
    <glyph glyph-name="K" unicode="K" horiz-adv-x="756" 
d="M110 0v728h70v-454l438 454h93l-316 -319l329 -409h-89l-289 359l-166 -168v-191h-70z" />
    <glyph glyph-name="L" unicode="L" horiz-adv-x="649" 
d="M110 0v728h70v-664h418v-64h-488z" />
    <glyph glyph-name="M" unicode="M" horiz-adv-x="913" 
d="M110 0v728h69l277 -412l277 412h70v-728h-70v609l-276 -403h-4l-275 402v-608h-68z" />
    <glyph glyph-name="N" unicode="N" horiz-adv-x="832" 
d="M110 0v728h66l478 -606v606h68v-728h-55l-489 619v-619h-68z" />
    <glyph glyph-name="O" unicode="O" horiz-adv-x="894" 
d="M446 -12q-162 0 -265 110t-103 264v2q0 154 104 265t266 111t265 -110t103 -264v-2q0 -154 -104 -265t-266 -111zM448 51q127 0 211 90t84 221v2q0 131 -85 222t-212 91t-211 -90t-84 -221v-2q0 -131 85 -222t212 -91z" />
    <glyph glyph-name="P" unicode="P" horiz-adv-x="705" 
d="M110 0v728h269q123 0 197.5 -61t74.5 -166v-2q0 -111 -82 -173.5t-204 -62.5h-185v-263h-70zM180 327h189q95 0 153.5 46.5t58.5 122.5v2q0 80 -56 123t-151 43h-194v-337z" />
    <glyph glyph-name="Q" unicode="Q" horiz-adv-x="894" 
d="M825 31l-48 -53l-99 90q-99 -80 -232 -80q-162 0 -265 110t-103 264v2q0 154 104 265t266 111t265 -110t103 -264v-2q0 -143 -90 -249zM448 51q103 0 179 60l-138 119l48 54l138 -126q68 87 68 204v2q0 131 -85 222t-212 91t-211 -90t-84 -221v-2q0 -131 85 -222t212 -91
z" />
    <glyph glyph-name="R" unicode="R" horiz-adv-x="762" 
d="M180 354h233q88 0 143.5 42t55.5 115v2q0 70 -52 110.5t-145 40.5h-235v-310zM110 0v728h310q134 0 206 -72q56 -56 56 -140v-2q0 -87 -56 -141t-149 -70l231 -303h-86l-221 291h-221v-291h-70z" />
    <glyph glyph-name="S" unicode="S" horiz-adv-x="676" 
d="M358 -10q-166 0 -295 116l44 52q60 -55 119.5 -80.5t135.5 -25.5t124 37.5t48 96.5v2q0 56 -41 88.5t-156 56.5q-130 27 -187.5 74.5t-57.5 133.5v2q0 84 67 139.5t170 55.5q78 0 137 -21.5t116 -67.5l-42 -54q-97 81 -213 81q-73 0 -119 -36.5t-46 -90.5v-2
q0 -57 42.5 -90.5t161.5 -58.5q125 -26 181.5 -74t56.5 -130v-2q0 -90 -69 -146t-177 -56z" />
    <glyph glyph-name="T" unicode="T" horiz-adv-x="675" 
d="M303 0v663h-249v65h567v-65h-248v-663h-70z" />
    <glyph glyph-name="U" unicode="U" horiz-adv-x="800" 
d="M400 -11q-137 0 -219 82.5t-82 232.5v424h70v-419q0 -122 61.5 -189.5t171.5 -67.5q107 0 168 64.5t61 187.5v424h70v-418q0 -155 -81.5 -238t-219.5 -83z" />
    <glyph glyph-name="V" unicode="V" horiz-adv-x="790" 
d="M364 -5l-316 733h77l271 -646l272 646h74l-316 -733h-62z" />
    <glyph glyph-name="W" unicode="W" horiz-adv-x="1159" 
d="M316 -5l-262 733h77l217 -625l206 627h56l205 -627l217 625h73l-261 -733h-59l-205 609l-206 -609h-58z" />
    <glyph glyph-name="X" unicode="X" horiz-adv-x="762" 
d="M616 728h81l-273 -357l284 -371h-83l-245 324l-244 -324h-81l284 371l-274 357h83l234 -310z" />
    <glyph glyph-name="Y" unicode="Y" horiz-adv-x="755" 
d="M342 0v288l-307 440h86l257 -376l259 376h82l-307 -439v-289h-70z" />
    <glyph glyph-name="Z" unicode="Z" horiz-adv-x="729" 
d="M75 0v44l483 621h-466v63h563v-44l-484 -621h484v-63h-580z" />
    <glyph glyph-name="bracketleft" unicode="[" horiz-adv-x="463" 
d="M105 -135v863h291v-52h-228v-759h228v-52h-291z" />
    <glyph glyph-name="backslash" unicode="\" horiz-adv-x="535" 
d="M487 -133l-487 963h64l486 -963h-63z" />
    <glyph glyph-name="bracketright" unicode="]" horiz-adv-x="463" 
d="M66 -135v52h229v759h-229v52h292v-863h-292z" />
    <glyph glyph-name="asciicircum" unicode="^" horiz-adv-x="530" 
d="M75 513l162 218h56l162 -218h-64l-127 166l-127 -166h-62z" />
    <glyph glyph-name="underscore" unicode="_" horiz-adv-x="634" 
d="M3 -166v57h628v-57h-628z" />
    <glyph glyph-name="grave" unicode="`" horiz-adv-x="530" 
d="M276 619l-115 110l74 35l95 -145h-54z" />
    <glyph glyph-name="a" unicode="a" horiz-adv-x="610" 
d="M268 45q79 0 134.5 43.5t55.5 109.5v56q-90 23 -169 23q-78 0 -121 -31.5t-43 -84.5v-3q0 -51 41.5 -82t101.5 -31zM259 -12q-81 0 -142 44.5t-61 122.5v2q0 82 63 127.5t168 45.5q89 0 169 -23v21q0 75 -43.5 114.5t-122.5 39.5q-80 0 -165 -41l-21 56q97 45 192 45
q111 0 171 -58q55 -57 55 -154v-330h-66v84q-71 -96 -197 -96z" />
    <glyph glyph-name="b" unicode="b" horiz-adv-x="699" 
d="M377 -12q-130 0 -212 120v-108h-67v759h67v-337q84 125 212 125q102 0 179.5 -76.5t77.5 -201.5v-2q0 -125 -77.5 -202t-179.5 -77zM366 50q84 0 140.5 58.5t56.5 156.5v2q0 97 -57.5 157.5t-139.5 60.5t-143 -61.5t-61 -155.5v-2q0 -94 61 -155t143 -61z" />
    <glyph glyph-name="c" unicode="c" horiz-adv-x="604" 
d="M336 -12q-115 0 -194 81.5t-79 195.5v2q0 114 79.5 197t194.5 83q121 0 213 -98l-45 -47q-82 84 -170 84q-85 0 -143.5 -63.5t-58.5 -153.5v-2q0 -91 60 -154.5t147 -63.5q95 0 170 84l44 -41q-92 -104 -218 -104z" />
    <glyph glyph-name="d" unicode="d" horiz-adv-x="699" 
d="M333 50q81 0 142.5 61t61.5 155v2q0 94 -61.5 155.5t-142.5 61.5q-84 0 -141 -59t-57 -157v-2q0 -96 58 -156.5t140 -60.5zM322 -12q-102 0 -179.5 76t-77.5 201v2q0 125 77.5 202.5t179.5 77.5q131 0 212 -121v333h67v-759h-67v113q-84 -125 -212 -125z" />
    <glyph glyph-name="e" unicode="e" horiz-adv-x="622" 
d="M328 -12q-111 0 -188 78t-77 200v2q0 117 73 198t182 81q113 0 180.5 -80.5t67.5 -201.5q0 -14 -2 -24h-432q8 -89 64.5 -141.5t133.5 -52.5q98 0 175 80l43 -39q-92 -100 -220 -100zM132 295h364q-6 83 -52.5 138t-127.5 55q-74 0 -125 -54.5t-59 -138.5z" />
    <glyph glyph-name="f" unicode="f" horiz-adv-x="390" 
d="M128 0v474h-75v60h75v49q0 91 47 138q42 42 114 42q43 0 84 -13v-60q-42 13 -78 13q-100 0 -100 -123v-46h177v-60h-177v-474h-67z" />
    <glyph glyph-name="g" unicode="g" horiz-adv-x="699" 
d="M330 102q82 0 144.5 54t62.5 137v2q0 83 -62.5 136.5t-144.5 53.5t-138.5 -52.5t-56.5 -137.5v-2q0 -83 57.5 -137t137.5 -54zM333 -168q-134 0 -244 77l34 53q97 -71 211 -71q92 0 146 51t54 147v69q-85 -118 -215 -118q-101 0 -177.5 70.5t-76.5 181.5v2
q0 112 76.5 182.5t177.5 70.5q131 0 215 -114v101h67v-445q0 -118 -68 -186q-71 -71 -200 -71z" />
    <glyph glyph-name="h" unicode="h" horiz-adv-x="649" 
d="M98 0v759h67v-320q63 108 187 108q97 0 153 -60t56 -157v-330h-67v314q0 79 -42 125t-116 46q-73 0 -122 -50t-49 -128v-307h-67z" />
    <glyph glyph-name="i" unicode="i" horiz-adv-x="277" 
d="M99 661v81h79v-81h-79zM105 0v534h67v-534h-67z" />
    <glyph glyph-name="j" unicode="j" horiz-adv-x="277" 
d="M99 661v81h79v-81h-79zM49 -170q-19 0 -47 5v57q17 -4 41 -4q62 0 62 73v573h67v-572q0 -66 -32.5 -99t-90.5 -33z" />
    <glyph glyph-name="k" unicode="k" horiz-adv-x="597" 
d="M98 0v759h67v-544l307 319h86l-229 -232l236 -302h-82l-200 254l-118 -119v-135h-67z" />
    <glyph glyph-name="l" unicode="l" horiz-adv-x="277" 
d="M105 0v759h67v-759h-67z" />
    <glyph glyph-name="m" unicode="m" horiz-adv-x="999" 
d="M98 0v534h67v-92q66 105 175 105q122 0 175 -111q70 111 190 111q93 0 147.5 -59.5t54.5 -159.5v-328h-67v314q0 81 -39 126t-108 45q-66 0 -111.5 -47.5t-45.5 -128.5v-309h-67v317q0 78 -39 123t-107 45q-67 0 -112.5 -51t-45.5 -127v-307h-67z" />
    <glyph glyph-name="n" unicode="n" horiz-adv-x="649" 
d="M98 0v534h67v-95q63 108 187 108q97 0 153 -60t56 -157v-330h-67v314q0 79 -42 125t-116 46q-73 0 -122 -50t-49 -128v-307h-67z" />
    <glyph glyph-name="o" unicode="o" horiz-adv-x="679" 
d="M339 -12q-118 0 -197 81.5t-79 195.5v2q0 115 79.5 197.5t198.5 82.5q118 0 197 -81.5t79 -196.5v-2q0 -114 -80 -196.5t-198 -82.5zM341 49q89 0 147 63t58 153v2q0 91 -60 155t-147 64q-89 0 -147.5 -63t-58.5 -154v-2q0 -91 60 -154.5t148 -63.5z" />
    <glyph glyph-name="p" unicode="p" horiz-adv-x="699" 
d="M366 50q84 0 140.5 58.5t56.5 156.5v2q0 97 -57.5 157.5t-139.5 60.5t-143 -61.5t-61 -155.5v-2q0 -94 61 -155t143 -61zM98 -166v700h67v-112q84 125 212 125q102 0 179.5 -76.5t77.5 -201.5v-2q0 -125 -77.5 -202t-179.5 -77q-130 0 -212 120v-274h-67z" />
    <glyph glyph-name="q" unicode="q" horiz-adv-x="699" 
d="M534 -166v279q-84 -125 -212 -125q-102 0 -179.5 76t-77.5 201v2q0 125 77.5 202.5t179.5 77.5q131 0 212 -121v108h67v-700h-67zM333 50q81 0 142.5 61t61.5 155v2q0 94 -61.5 155.5t-142.5 61.5q-84 0 -141 -59t-57 -157v-2q0 -96 58 -156.5t140 -60.5z" />
    <glyph glyph-name="r" unicode="r" horiz-adv-x="429" 
d="M98 0v534h67v-145q31 72 91 114.5t135 39.5v-72h-5q-94 0 -157.5 -67.5t-63.5 -187.5v-216h-67z" />
    <glyph glyph-name="s" unicode="s" horiz-adv-x="528" 
d="M273 -10q-58 0 -117.5 21t-103.5 57l36 50q90 -69 188 -69q52 0 85.5 25.5t33.5 66.5v2q0 39 -34.5 59.5t-102.5 39.5q-34 10 -52 16t-46.5 19.5t-43 27t-26 36t-11.5 50.5v2q0 67 50 109.5t129 42.5q103 0 191 -60l-32 -52q-83 53 -161 53q-50 0 -81 -24t-31 -61v-2
q0 -16 8.5 -29.5t20 -22.5t33 -18t37.5 -14t44 -13q39 -12 64 -22t53.5 -27.5t42.5 -43t14 -59.5v-2q0 -72 -53.5 -115t-134.5 -43z" />
    <glyph glyph-name="t" unicode="t" horiz-adv-x="428" 
d="M276 -9q-67 0 -108.5 36.5t-41.5 112.5v334h-76v60h76v166h67v-166h178v-60h-178v-326q0 -96 97 -96q36 0 78 19v-60q-43 -20 -92 -20z" />
    <glyph glyph-name="u" unicode="u" horiz-adv-x="649" 
d="M297 -12q-97 0 -153 59.5t-56 157.5v329h67v-314q0 -79 42 -125t116 -46q73 0 122 50t49 128v307h67v-534h-67v96q-63 -108 -187 -108z" />
    <glyph glyph-name="v" unicode="v" horiz-adv-x="618" 
d="M280 -4l-236 538h76l189 -458l191 458h74l-236 -538h-58z" />
    <glyph glyph-name="w" unicode="w" horiz-adv-x="905" 
d="M243 -4l-191 538h73l149 -446l152 449h55l152 -449l150 446h70l-191 -538h-58l-151 437l-152 -437h-58z" />
    <glyph glyph-name="x" unicode="x" horiz-adv-x="605" 
d="M136 534l167 -216l168 216h77l-206 -260l215 -274h-80l-176 229l-176 -229h-77l214 272l-205 262h79z" />
    <glyph glyph-name="y" unicode="y" horiz-adv-x="623" 
d="M325 74l180 460h73l-228 -552q-34 -82 -75.5 -117t-101.5 -35q-56 0 -111 26l23 55q42 -20 87 -20q39 0 66 25t54 86l-249 532h75z" />
    <glyph glyph-name="z" unicode="z" horiz-adv-x="588" 
d="M64 0v41l369 435h-355v58h449v-41l-369 -435h369v-58h-463z" />
    <glyph glyph-name="braceleft" unicode="{" horiz-adv-x="511" 
d="M438 -147q-69 13 -113.5 32t-68 46.5t-32.5 58t-9 74.5v80q0 65 -27.5 97t-95.5 32h-27v51h27q68 0 95.5 32t27.5 97v80q0 44 9 74.5t32.5 58t68 46.5t113.5 32l10 -44q-57 -15 -90.5 -30t-50.5 -36.5t-22 -44.5t-5 -64v-78q0 -64 -27.5 -98t-80.5 -51q56 -17 82 -50
t26 -98v-78q0 -41 5 -64t22 -44.5t50.5 -36.5t90.5 -30z" />
    <glyph glyph-name="bar" unicode="|" horiz-adv-x="317" 
d="M130 -133v963h58v-963h-58z" />
    <glyph glyph-name="braceright" unicode="}" horiz-adv-x="511" 
d="M73 -147l-10 44q57 15 90.5 30t50.5 36.5t22 44.5t5 64v78q0 64 27.5 98t80.5 50q-56 18 -82 51.5t-26 97.5v78q0 41 -5 64t-22 44.5t-50.5 36.5t-90.5 30l10 44q69 -13 113.5 -32t68 -46.5t32.5 -58t9 -74.5v-80q0 -65 27.5 -97t95.5 -32h27v-51h-27q-68 0 -95.5 -32
t-27.5 -97v-80q0 -44 -9 -74.5t-32.5 -58t-68 -46.5t-113.5 -32z" />
    <glyph glyph-name="asciitilde" unicode="~" horiz-adv-x="496" 
d="M317 258q-23 0 -71 22q-48 21 -65 21q-19 0 -30 -11.5t-23 -40.5l-43 12q16 57 37 80t57 23q25 0 71 -21q48 -21 65 -21q19 0 30.5 11t22.5 41l43 -12q-15 -57 -36.5 -80.5t-57.5 -23.5z" />
    <glyph glyph-name="uni00A0" unicode="&#xa0;" horiz-adv-x="322" 
 />
    <glyph glyph-name="exclamdown" unicode="&#xa1;" horiz-adv-x="283" 
d="M100 628v100h83v-100h-83zM102 0v65l21 464h38l20 -464v-65h-79z" />
    <glyph glyph-name="cent" unicode="&#xa2;" horiz-adv-x="614" 
d="M137 369q0 -68 34.5 -122.5t91.5 -78.5l83 420h-7q-85 0 -143.5 -63t-58.5 -154v-2zM432 734l-19 -94q76 -19 142 -88l-45 -47q-60 60 -112 75l-83 -427q9 -2 28 -2q95 0 172 84l43 -40q-91 -105 -218 -105q-23 0 -34 2l-19 -98h-60l21 111q-80 29 -130.5 101t-50.5 161
v2q0 115 79.5 197.5t194.5 82.5h13l17 85h61z" />
    <glyph glyph-name="sterling" unicode="&#xa3;" horiz-adv-x="680" 
d="M76 0v38l88 21v252h-88v63h88v116q0 120 67 187q61 61 160 61q136 0 221 -111l-54 -42q-35 44 -73 67t-94 23q-67 0 -109 -42q-48 -48 -48 -142v-117h299v-63h-299v-249h378v-62h-536z" />
    <glyph glyph-name="yen" unicode="&#xa5;" horiz-adv-x="723" 
d="M111 278v56h195l-271 394h84l244 -370l245 370h80l-272 -394h196v-56h-217v-97h217v-56h-217v-125h-67v125h-217v56h217v97h-217z" />
    <glyph glyph-name="section" unicode="&#xa7;" horiz-adv-x="667" 
d="M407 269q54 0 88.5 22.5t34.5 53.5v2q0 29 -34 51.5t-121 43.5q-67 17 -115 17q-53 0 -87.5 -22.5t-34.5 -53.5v-2q0 -29 34 -51.5t120 -43.5q65 -17 115 -17zM452 233q82 -38 82 -107v-2q0 -61 -51 -97.5t-136 -36.5q-142 0 -237 98l46 45q83 -83 194 -83q55 0 84 20.5
t29 53.5v2q0 32 -39.5 55t-139.5 47q-117 29 -165 61.5t-48 84.5v2q0 46 39 77.5t106 41.5q-83 39 -83 107v2q0 61 51.5 97.5t136.5 36.5q141 0 237 -98l-47 -45q-81 83 -194 83q-55 0 -84 -20.5t-29 -53.5v-2q0 -32 40 -55.5t139 -46.5q117 -29 165 -61.5t48 -84.5v-2
q0 -47 -39 -78t-105 -41z" />
    <glyph glyph-name="dieresis" unicode="&#xa8;" horiz-adv-x="530" 
d="M135 619v92h84v-92h-84zM311 619v92h84v-92h-84z" />
    <glyph glyph-name="copyright" unicode="&#xa9;" horiz-adv-x="873" 
d="M436 -12q-158 0 -267 109.5t-109 264.5v2q0 155 110.5 265.5t267.5 110.5t266 -109.5t109 -264.5v-2q0 -155 -110 -265.5t-267 -110.5zM436 19q146 0 245 101t99 244v2q0 143 -98.5 243t-243.5 100q-146 0 -245.5 -101t-99.5 -244v-2q0 -143 98.5 -243t244.5 -100z
M441 171q-81 0 -136.5 57.5t-55.5 139.5v2q0 81 56 139.5t137 58.5q82 0 148 -63l-35 -37q-56 52 -114 52q-59 0 -99 -43.5t-40 -105.5v-2q0 -62 41 -106t99 -44q61 0 117 53l34 -34q-69 -67 -152 -67z" />
    <glyph glyph-name="ordfeminine" unicode="&#xaa;" horiz-adv-x="416" 
d="M188 466q40 0 68 21.5t28 55.5v26q-36 11 -84 11q-38 0 -59.5 -15.5t-21.5 -40.5v-2q0 -26 20 -41t49 -15zM183 426q-45 0 -78.5 24.5t-33.5 68.5v2q0 46 35 71.5t93 25.5q42 0 84 -11v5q0 37 -22 56.5t-61 19.5q-37 0 -90 -23l-15 39q56 27 109 27q60 0 95 -33
q30 -32 30 -86v-180h-46v41q-36 -47 -100 -47zM67 302v46h267v-46h-267z" />
    <glyph glyph-name="guillemotleft" unicode="&#xab;" horiz-adv-x="566" 
d="M226 44l-170 219v8l170 220l49 -30l-140 -193l140 -195zM448 44l-169 219v8l169 220l50 -30l-140 -193l140 -195z" />
    <glyph glyph-name="registered" unicode="&#xae;" horiz-adv-x="435" 
d="M218 374q-76 0 -128.5 53.5t-52.5 127.5v1q0 75 53 128.5t128 53.5t128 -53t53 -128v-1q0 -74 -53 -128t-128 -54zM218 394q67 0 113.5 47.5t46.5 114.5v1q0 67 -46 114.5t-114 47.5t-114.5 -48t-46.5 -115v-1q0 -67 46.5 -114t114.5 -47zM181 560h47q39 0 39 32v1
q0 14 -10.5 22.5t-28.5 7.5h-47v-63zM148 468v184h83q30 0 49.5 -15t19.5 -43v-1q0 -20 -12.5 -35t-31.5 -20l51 -70h-41l-44 65h-41v-65h-33z" />
    <glyph glyph-name="macron" unicode="&#xaf;" horiz-adv-x="530" 
d="M107 643v57h316v-57h-316z" />
    <glyph glyph-name="degree" unicode="&#xb0;" horiz-adv-x="483" 
d="M241 422q-63 0 -111.5 46.5t-48.5 108.5v2q0 62 48.5 108.5t111.5 46.5t112 -46.5t49 -108.5v-2q0 -62 -49 -108.5t-112 -46.5zM241 472q44 0 74 31.5t30 73.5v2q0 42 -30 73.5t-74 31.5q-43 0 -73 -31.5t-30 -73.5v-2q0 -42 30 -73.5t73 -31.5z" />
    <glyph glyph-name="plusminus" unicode="&#xb1;" horiz-adv-x="658" 
d="M573 376h-211v-207h-66v207h-211v63l211 -1v208h66v-208l211 1v-63zM573 0h-488v62h488v-62z" />
    <glyph glyph-name="two.sup" unicode="&#xb2;" 
d="M64 442v41l153 133q44 39 62.5 65.5t18.5 55.5q0 32 -23 53t-58 21q-63 0 -111 -72l-36 24q58 91 150 91q55 0 91 -32.5t36 -81.5q0 -41 -21.5 -72.5t-73.5 -76.5l-122 -104h221v-45h-287z" />
    <glyph glyph-name="three.sup" unicode="&#xb3;" 
d="M208 432q-94 0 -151 74l33 32q51 -63 119 -63q37 0 62.5 22t25.5 57q0 36 -31 57t-80 21h-32l-9 30l134 137h-200v45h261v-39l-130 -133q60 -5 98 -34.5t38 -83.5t-40 -88t-98 -34z" />
    <glyph glyph-name="acute" unicode="&#xb4;" horiz-adv-x="530" 
d="M200 619l95 145l74 -35l-115 -110h-54z" />
    <glyph glyph-name="mu" unicode="&#xb5;" horiz-adv-x="701" 
d="M676 56v-58q-30 -6 -52 -6q-109 0 -124 100q-61 -104 -169 -104q-118 0 -173 111h-1q7 -59 7 -133v-132h-66v700h67v-308q0 -75 47.5 -126.5t118.5 -51.5t118 51.5t47 126.5v308h67v-410q3 -73 73 -73q22 0 40 5z" />
    <glyph glyph-name="paragraph" unicode="&#xb6;" horiz-adv-x="526" 
d="M354 0v281h-9q-126 0 -207 59t-81 164v2q0 102 75.5 162t196.5 60h96v-728h-71z" />
    <glyph glyph-name="periodcentered" unicode="&#xb7;" horiz-adv-x="258" 
d="M87 261v100h84v-100h-84z" />
    <glyph glyph-name="cedilla" unicode="&#xb8;" horiz-adv-x="530" 
d="M235 -158l-68 31l94 139h55z" />
    <glyph glyph-name="one.sup" unicode="&#xb9;" horiz-adv-x="342" 
d="M218 442h-48v358l-91 -34l-12 42l112 43h39v-409z" />
    <glyph glyph-name="ordmasculine" unicode="&#xba;" horiz-adv-x="416" 
d="M207 425q-64 0 -107.5 45t-43.5 107v2q0 63 44 108.5t109 45.5q64 0 107 -44.5t43 -107.5v-2q0 -63 -43.5 -108.5t-108.5 -45.5zM209 471q43 0 71 31t28 75v2q0 45 -29 76.5t-72 31.5q-44 0 -72 -31t-28 -75v-2q0 -45 29.5 -76.5t72.5 -31.5zM58 302v46h300v-46h-300z
" />
    <glyph glyph-name="guillemotright" unicode="&#xbb;" horiz-adv-x="566" 
d="M117 44l-49 29l140 193l-140 195l49 30l170 -220v-8zM340 44l-49 29l140 193l-140 195l49 30l169 -220v-8z" />
    <glyph glyph-name="onequarter" unicode="&#xbc;" horiz-adv-x="867" 
d="M217 326h-48v358l-91 -34l-12 42l112 43h39v-409zM148 0l257 372l238 356h51l-257 -372l-238 -356h-51zM757 91v-93h-45v93h-198l-12 41l201 276h54v-276h56v-41h-56zM712 132v216l-159 -216h159z" />
    <glyph glyph-name="onehalf" unicode="&#xbd;" horiz-adv-x="867" 
d="M217 326h-48v358l-91 -34l-12 42l112 43h39v-409zM138 0l257 372l238 356h51l-257 -372l-238 -356h-51zM519 0v41l153 133q44 39 62.5 65.5t18.5 55.5q0 32 -23 53t-58 21q-63 0 -111 -72l-36 24q58 91 150 91q55 0 91 -32.5t36 -81.5q0 -41 -21.5 -72.5t-73.5 -76.5
l-122 -104h221v-45h-287z" />
    <glyph glyph-name="threequarters" unicode="&#xbe;" horiz-adv-x="945" 
d="M221 0l257 372l238 356h51l-257 -372l-238 -356h-51zM211 316q-94 0 -151 74l33 32q49 -63 119 -63q37 0 62.5 22t25.5 57q0 36 -31 57t-80 21h-32l-9 30l134 137h-200v45h261v-39l-130 -133q60 -5 98 -34.5t38 -83.5t-40 -88t-98 -34zM835 91v-93h-45v93h-198l-12 41
l201 276h54v-276h56v-41h-56zM790 132v216l-159 -216h159z" />
    <glyph glyph-name="questiondown" unicode="&#xbf;" horiz-adv-x="567" 
d="M265 628v100h84v-100h-84zM286 -9q-103 0 -166 58t-63 146v2q0 92 60.5 145.5t157.5 66.5l10 120h44l15 -168l-5 -6q-102 -2 -157 -43t-55 -112v-2q0 -62 44.5 -103.5t117.5 -41.5q108 0 194 102l46 -42q-100 -122 -243 -122z" />
    <glyph glyph-name="Agrave" unicode="&#xc0;" horiz-adv-x="832" 
d="M444 804h-58l-116 95l73 34zM237 261h355l-177 393zM48 0l335 733h66l335 -733h-76l-88 198h-411l-89 -198h-72z" />
    <glyph glyph-name="Aacute" unicode="&#xc1;" horiz-adv-x="832" 
d="M388 804l101 129l73 -34l-116 -95h-58zM237 261h355l-177 393zM48 0l335 733h66l335 -733h-76l-88 198h-411l-89 -198h-72z" />
    <glyph glyph-name="Acircumflex" unicode="&#xc2;" horiz-adv-x="832" 
d="M273 804l111 118h64l111 -118h-67l-77 63l-77 -63h-65zM237 261h355l-177 393zM48 0l335 733h66l335 -733h-76l-88 198h-411l-89 -198h-72z" />
    <glyph glyph-name="Atilde" unicode="&#xc3;" horiz-adv-x="832" 
d="M490 804q-23 0 -77 22q-42 18 -59 18q-19 0 -30 -11t-23 -38l-46 12q16 53 37.5 76.5t54.5 23.5q25 0 77 -23q45 -17 59 -17q19 0 30 10.5t23 37.5l46 -13q-16 -52 -37.5 -75t-54.5 -23zM237 261h355l-177 393zM48 0l335 733h66l335 -733h-76l-88 198h-411l-89 -198h-72z
" />
    <glyph glyph-name="Adieresis" unicode="&#xc4;" horiz-adv-x="832" 
d="M278 804v87h88v-87h-88zM468 804v87h87v-87h-87zM237 261h355l-177 393zM48 0l335 733h66l335 -733h-76l-88 198h-411l-89 -198h-72z" />
    <glyph glyph-name="Aring" unicode="&#xc5;" horiz-adv-x="832" 
d="M416 717q29 0 49.5 18.5t20.5 45.5q0 28 -20.5 46.5t-49.5 18.5q-30 0 -50 -18.5t-20 -46.5q0 -27 20 -45.5t50 -18.5zM237 261h355l-177 393zM48 0l315 692q-60 28 -60 89q0 43 33 72.5t80 29.5t80 -29.5t33 -72.5q0 -61 -61 -90l316 -691h-76l-88 198h-411l-89 -198
h-72z" />
    <glyph glyph-name="AE" unicode="&#xc6;" horiz-adv-x="1097" 
d="M251 261h266v405h-26zM24 0l434 728h565v-64h-436v-265h389v-64h-389v-271h441v-64h-511v198h-302l-117 -198h-74z" />
    <glyph glyph-name="Ccedilla" unicode="&#xc7;" horiz-adv-x="782" 
d="M388 -158l-68 31l79 117q-140 15 -230.5 120t-90.5 252v2q0 157 104.5 266.5t261.5 109.5q92 0 157 -29t127 -86l-48 -52q-109 104 -237 104q-125 0 -208.5 -90t-83.5 -221v-2q0 -132 84.5 -222.5t208.5 -90.5q73 0 128.5 27t113.5 82l46 -45q-60 -60 -124 -91.5
t-151 -34.5z" />
    <glyph glyph-name="Egrave" unicode="&#xc8;" horiz-adv-x="707" 
d="M402 794h-58l-116 95l73 34zM110 0v728h523v-64h-453v-265h406v-64h-406v-271h458v-64h-528z" />
    <glyph glyph-name="Eacute" unicode="&#xc9;" horiz-adv-x="707" 
d="M345 794l101 129l73 -34l-116 -95h-58zM110 0v728h523v-64h-453v-265h406v-64h-406v-271h458v-64h-528z" />
    <glyph glyph-name="Ecircumflex" unicode="&#xca;" horiz-adv-x="707" 
d="M230 794l111 118h64l111 -118h-67l-77 63l-77 -63h-65zM110 0v728h523v-64h-453v-265h406v-64h-406v-271h458v-64h-528z" />
    <glyph glyph-name="Edieresis" unicode="&#xcb;" horiz-adv-x="707" 
d="M235 794v87h88v-87h-88zM425 794v87h87v-87h-87zM110 0v728h523v-64h-453v-265h406v-64h-406v-271h458v-64h-528z" />
    <glyph glyph-name="Igrave" unicode="&#xcc;" horiz-adv-x="305" 
d="M181 794h-58l-116 95l73 34zM117 0v728h70v-728h-70z" />
    <glyph glyph-name="Iacute" unicode="&#xcd;" horiz-adv-x="305" 
d="M124 794l101 129l73 -34l-116 -95h-58zM117 0v728h70v-728h-70z" />
    <glyph glyph-name="Icircumflex" unicode="&#xce;" horiz-adv-x="305" 
d="M9 794l111 118h64l111 -118h-67l-77 63l-77 -63h-65zM117 0v728h70v-728h-70z" />
    <glyph glyph-name="Idieresis" unicode="&#xcf;" horiz-adv-x="305" 
d="M14 794v87h88v-87h-88zM204 794v87h87v-87h-87zM117 0v728h70v-728h-70z" />
    <glyph glyph-name="Eth" unicode="&#xd0;" horiz-adv-x="854" 
d="M141 0v337h-78v59h78v332h249q170 0 278.5 -103.5t108.5 -258.5v-2q0 -156 -108.5 -260t-278.5 -104h-249zM440 337h-229v-273h179q141 0 227.5 85t86.5 213v2q0 128 -86.5 214t-227.5 86h-179v-268h229v-59z" />
    <glyph glyph-name="Ntilde" unicode="&#xd1;" horiz-adv-x="832" 
d="M490 790q-23 0 -77 22q-42 18 -59 18q-19 0 -30 -11t-23 -38l-46 12q16 53 37.5 76.5t54.5 23.5q25 0 77 -23q45 -17 59 -17q19 0 30 10.5t23 37.5l46 -13q-16 -52 -37.5 -75t-54.5 -23zM110 0v728h66l478 -606v606h68v-728h-55l-489 619v-619h-68z" />
    <glyph glyph-name="Ograve" unicode="&#xd2;" horiz-adv-x="894" 
d="M476 804h-58l-116 95l73 34zM446 -12q-162 0 -265 110t-103 264v2q0 154 104 265t266 111t265 -110t103 -264v-2q0 -154 -104 -265t-266 -111zM448 51q127 0 211 90t84 221v2q0 131 -85 222t-212 91t-211 -90t-84 -221v-2q0 -131 85 -222t212 -91z" />
    <glyph glyph-name="Oacute" unicode="&#xd3;" horiz-adv-x="894" 
d="M419 804l101 129l73 -34l-116 -95h-58zM446 -12q-162 0 -265 110t-103 264v2q0 154 104 265t266 111t265 -110t103 -264v-2q0 -154 -104 -265t-266 -111zM448 51q127 0 211 90t84 221v2q0 131 -85 222t-212 91t-211 -90t-84 -221v-2q0 -131 85 -222t212 -91z" />
    <glyph glyph-name="Ocircumflex" unicode="&#xd4;" horiz-adv-x="894" 
d="M304 804l111 118h64l111 -118h-67l-77 63l-77 -63h-65zM446 -12q-162 0 -265 110t-103 264v2q0 154 104 265t266 111t265 -110t103 -264v-2q0 -154 -104 -265t-266 -111zM448 51q127 0 211 90t84 221v2q0 131 -85 222t-212 91t-211 -90t-84 -221v-2q0 -131 85 -222
t212 -91z" />
    <glyph glyph-name="Otilde" unicode="&#xd5;" horiz-adv-x="894" 
d="M521 804q-23 0 -77 22q-42 18 -59 18q-19 0 -30 -11t-23 -38l-46 12q16 53 37.5 76.5t54.5 23.5q25 0 77 -23q45 -17 59 -17q19 0 30 10.5t23 37.5l46 -13q-16 -52 -37.5 -75t-54.5 -23zM446 -12q-162 0 -265 110t-103 264v2q0 154 104 265t266 111t265 -110t103 -264v-2
q0 -154 -104 -265t-266 -111zM448 51q127 0 211 90t84 221v2q0 131 -85 222t-212 91t-211 -90t-84 -221v-2q0 -131 85 -222t212 -91z" />
    <glyph glyph-name="Odieresis" unicode="&#xd6;" horiz-adv-x="894" 
d="M309 804v87h88v-87h-88zM499 804v87h87v-87h-87zM446 -12q-162 0 -265 110t-103 264v2q0 154 104 265t266 111t265 -110t103 -264v-2q0 -154 -104 -265t-266 -111zM448 51q127 0 211 90t84 221v2q0 131 -85 222t-212 91t-211 -90t-84 -221v-2q0 -131 85 -222t212 -91z
" />
    <glyph glyph-name="multiply" unicode="&#xd7;" horiz-adv-x="658" 
d="M512 136l-184 187l-184 -187l-45 45l187 184l-187 184l47 47l184 -187l184 187l45 -45l-187 -184l187 -184z" />
    <glyph glyph-name="Oslash" unicode="&#xd8;" horiz-adv-x="894" 
d="M749 733h76l-104 -112q95 -106 95 -255v-2q0 -154 -104 -265t-266 -111q-135 0 -233 80l-68 -73h-76l104 111q-95 106 -95 256v2q0 154 104 265t266 111q134 0 232 -80zM149 365q0 -118 72 -208l415 452q-80 69 -190 69q-128 0 -212.5 -90.5t-84.5 -221.5v-1zM448 50
q128 0 212.5 90.5t84.5 221.5v1q0 118 -72 208l-416 -452q82 -70 191 -69z" />
    <glyph glyph-name="Ugrave" unicode="&#xd9;" horiz-adv-x="800" 
d="M428 790h-58l-116 95l73 34zM400 -11q-137 0 -219 82.5t-82 232.5v424h70v-419q0 -122 61.5 -189.5t171.5 -67.5q107 0 168 64.5t61 187.5v424h70v-418q0 -155 -81.5 -238t-219.5 -83z" />
    <glyph glyph-name="Uacute" unicode="&#xda;" horiz-adv-x="800" 
d="M372 790l101 129l73 -34l-116 -95h-58zM400 -11q-137 0 -219 82.5t-82 232.5v424h70v-419q0 -122 61.5 -189.5t171.5 -67.5q107 0 168 64.5t61 187.5v424h70v-418q0 -155 -81.5 -238t-219.5 -83z" />
    <glyph glyph-name="Ucircumflex" unicode="&#xdb;" horiz-adv-x="800" 
d="M257 790l111 118h64l111 -118h-67l-77 63l-77 -63h-65zM400 -11q-137 0 -219 82.5t-82 232.5v424h70v-419q0 -122 61.5 -189.5t171.5 -67.5q107 0 168 64.5t61 187.5v424h70v-418q0 -155 -81.5 -238t-219.5 -83z" />
    <glyph glyph-name="Udieresis" unicode="&#xdc;" horiz-adv-x="800" 
d="M262 790v87h88v-87h-88zM452 790v87h87v-87h-87zM400 -11q-137 0 -219 82.5t-82 232.5v424h70v-419q0 -122 61.5 -189.5t171.5 -67.5q107 0 168 64.5t61 187.5v424h70v-418q0 -155 -81.5 -238t-219.5 -83z" />
    <glyph glyph-name="Yacute" unicode="&#xdd;" horiz-adv-x="755" 
d="M349 790l101 129l73 -34l-116 -95h-58zM342 0v288l-307 440h86l257 -376l259 376h82l-307 -439v-289h-70z" />
    <glyph glyph-name="Thorn" unicode="&#xde;" horiz-adv-x="710" 
d="M110 0v728h70v-128h199q123 0 197.5 -61t74.5 -166v-2q0 -112 -82 -174.5t-204 -62.5h-185v-134h-70zM180 198h189q95 0 153.5 47t58.5 123v2q0 80 -56 123t-151 43h-194v-338z" />
    <glyph glyph-name="germandbls" unicode="&#xdf;" horiz-adv-x="655" 
d="M307 -2v56q99 2 154.5 38.5t55.5 104.5v2q0 64 -55.5 102t-154.5 49v51q164 56 164 174v3q0 56 -40 92t-104 36q-71 0 -116.5 -50.5t-45.5 -134.5v-521h-67v520q0 110 63.5 178t169.5 68q94 0 152 -52.5t58 -131.5v-3q0 -69 -44 -118.5t-109 -74.5q87 -17 143 -62.5
t56 -123.5v-2q0 -95 -75 -148t-205 -52z" />
    <glyph glyph-name="agrave" unicode="&#xe0;" horiz-adv-x="610" 
d="M279 619l-115 110l74 35l95 -145h-54zM268 45q79 0 134.5 43.5t55.5 109.5v56q-90 23 -169 23q-78 0 -121 -31.5t-43 -84.5v-3q0 -51 41.5 -82t101.5 -31zM259 -12q-81 0 -142 44.5t-61 122.5v2q0 82 63 127.5t168 45.5q89 0 169 -23v21q0 75 -43.5 114.5t-122.5 39.5
q-80 0 -165 -41l-21 56q97 45 192 45q111 0 171 -58q55 -57 55 -154v-330h-66v84q-71 -96 -197 -96z" />
    <glyph glyph-name="aacute" unicode="&#xe1;" horiz-adv-x="610" 
d="M278 619l95 145l74 -35l-115 -110h-54zM268 45q79 0 134.5 43.5t55.5 109.5v56q-90 23 -169 23q-78 0 -121 -31.5t-43 -84.5v-3q0 -51 41.5 -82t101.5 -31zM259 -12q-81 0 -142 44.5t-61 122.5v2q0 82 63 127.5t168 45.5q89 0 169 -23v21q0 75 -43.5 114.5t-122.5 39.5
q-80 0 -165 -41l-21 56q97 45 192 45q111 0 171 -58q55 -57 55 -154v-330h-66v84q-71 -96 -197 -96z" />
    <glyph glyph-name="acircumflex" unicode="&#xe2;" horiz-adv-x="610" 
d="M169 619l107 132h58l108 -132h-60l-78 70l-78 -70h-57zM268 45q79 0 134.5 43.5t55.5 109.5v56q-90 23 -169 23q-78 0 -121 -31.5t-43 -84.5v-3q0 -51 41.5 -82t101.5 -31zM259 -12q-81 0 -142 44.5t-61 122.5v2q0 82 63 127.5t168 45.5q89 0 169 -23v21
q0 75 -43.5 114.5t-122.5 39.5q-80 0 -165 -41l-21 56q97 45 192 45q111 0 171 -58q55 -57 55 -154v-330h-66v84q-71 -96 -197 -96z" />
    <glyph glyph-name="atilde" unicode="&#xe3;" horiz-adv-x="610" 
d="M378 619q-21 0 -71 21q-48 21 -65 21q-19 0 -30.5 -11t-22.5 -41l-43 12q15 57 36.5 80.5t57.5 23.5q21 0 71 -21q48 -21 65 -21q19 0 30.5 11t22.5 40l43 -11q-15 -57 -36.5 -80.5t-57.5 -23.5zM268 45q79 0 134.5 43.5t55.5 109.5v56q-90 23 -169 23q-78 0 -121 -31.5
t-43 -84.5v-3q0 -51 41.5 -82t101.5 -31zM259 -12q-81 0 -142 44.5t-61 122.5v2q0 82 63 127.5t168 45.5q89 0 169 -23v21q0 75 -43.5 114.5t-122.5 39.5q-80 0 -165 -41l-21 56q97 45 192 45q111 0 171 -58q55 -57 55 -154v-330h-66v84q-71 -96 -197 -96z" />
    <glyph glyph-name="adieresis" unicode="&#xe4;" horiz-adv-x="610" 
d="M175 619v92h84v-92h-84zM351 619v92h84v-92h-84zM268 45q79 0 134.5 43.5t55.5 109.5v56q-90 23 -169 23q-78 0 -121 -31.5t-43 -84.5v-3q0 -51 41.5 -82t101.5 -31zM259 -12q-81 0 -142 44.5t-61 122.5v2q0 82 63 127.5t168 45.5q89 0 169 -23v21q0 75 -43.5 114.5
t-122.5 39.5q-80 0 -165 -41l-21 56q97 45 192 45q111 0 171 -58q55 -57 55 -154v-330h-66v84q-71 -96 -197 -96z" />
    <glyph glyph-name="aring" unicode="&#xe5;" horiz-adv-x="610" 
d="M305 617q-46 0 -78.5 31t-32.5 75t32.5 75.5t78.5 31.5t78.5 -31.5t32.5 -75.5t-32.5 -75t-78.5 -31zM305 651q29 0 50.5 21.5t21.5 50.5q0 30 -21.5 51.5t-50.5 21.5t-50.5 -21.5t-21.5 -51.5q0 -29 21.5 -50.5t50.5 -21.5zM268 45q79 0 134.5 43.5t55.5 109.5v56
q-90 23 -169 23q-78 0 -121 -31.5t-43 -84.5v-3q0 -51 41.5 -82t101.5 -31zM259 -12q-81 0 -142 44.5t-61 122.5v2q0 82 63 127.5t168 45.5q89 0 169 -23v21q0 75 -43.5 114.5t-122.5 39.5q-80 0 -165 -41l-21 56q97 45 192 45q111 0 171 -58q55 -57 55 -154v-330h-66v84
q-71 -96 -197 -96z" />
    <glyph glyph-name="ae" unicode="&#xe6;" horiz-adv-x="1002" 
d="M512 295h364q-6 83 -52.5 138t-127.5 55q-74 0 -125 -54.5t-59 -138.5zM257 -12q-82 0 -141.5 44.5t-59.5 122.5v2q0 82 62 127.5t164 45.5q82 0 162 -23v21q0 75 -41.5 114.5t-118.5 39.5q-74 0 -159 -41l-21 56q95 45 186 45q160 0 199 -123q32 59 87.5 93.5
t122.5 34.5q112 0 179 -80.5t67 -201.5q0 -14 -1 -24h-432q7 -89 63.5 -141.5t133.5 -52.5q100 0 175 80l44 -39q-92 -100 -221 -100q-65 0 -121.5 29t-92.5 82q-102 -111 -236 -111zM264 45q114 0 202 103q-20 49 -23 107q-92 22 -158 22q-76 0 -118 -31.5t-42 -84.5v-3
q0 -52 40 -82.5t99 -30.5z" />
    <glyph glyph-name="ccedilla" unicode="&#xe7;" horiz-adv-x="604" 
d="M281 -158l-68 31l80 118q-100 16 -165 94t-65 180v2q0 114 79.5 197t194.5 83q121 0 213 -98l-45 -47q-82 84 -170 84q-85 0 -143.5 -63.5t-58.5 -153.5v-2q0 -91 60 -154.5t147 -63.5q95 0 170 84l44 -41q-89 -99 -204 -104z" />
    <glyph glyph-name="egrave" unicode="&#xe8;" horiz-adv-x="622" 
d="M291 619l-115 110l74 35l95 -145h-54zM328 -12q-111 0 -188 78t-77 200v2q0 117 73 198t182 81q113 0 180.5 -80.5t67.5 -201.5q0 -14 -2 -24h-432q8 -89 64.5 -141.5t133.5 -52.5q98 0 175 80l43 -39q-92 -100 -220 -100zM132 295h364q-6 83 -52.5 138t-127.5 55
q-74 0 -125 -54.5t-59 -138.5z" />
    <glyph glyph-name="eacute" unicode="&#xe9;" horiz-adv-x="622" 
d="M290 619l95 145l74 -35l-115 -110h-54zM328 -12q-111 0 -188 78t-77 200v2q0 117 73 198t182 81q113 0 180.5 -80.5t67.5 -201.5q0 -14 -2 -24h-432q8 -89 64.5 -141.5t133.5 -52.5q98 0 175 80l43 -39q-92 -100 -220 -100zM132 295h364q-6 83 -52.5 138t-127.5 55
q-74 0 -125 -54.5t-59 -138.5z" />
    <glyph glyph-name="ecircumflex" unicode="&#xea;" horiz-adv-x="622" 
d="M182 619l107 132h58l108 -132h-60l-78 70l-78 -70h-57zM328 -12q-111 0 -188 78t-77 200v2q0 117 73 198t182 81q113 0 180.5 -80.5t67.5 -201.5q0 -14 -2 -24h-432q8 -89 64.5 -141.5t133.5 -52.5q98 0 175 80l43 -39q-92 -100 -220 -100zM132 295h364q-6 83 -52.5 138
t-127.5 55q-74 0 -125 -54.5t-59 -138.5z" />
    <glyph glyph-name="edieresis" unicode="&#xeb;" horiz-adv-x="622" 
d="M188 619v92h84v-92h-84zM364 619v92h84v-92h-84zM328 -12q-111 0 -188 78t-77 200v2q0 117 73 198t182 81q113 0 180.5 -80.5t67.5 -201.5q0 -14 -2 -24h-432q8 -89 64.5 -141.5t133.5 -52.5q98 0 175 80l43 -39q-92 -100 -220 -100zM132 295h364q-6 83 -52.5 138
t-127.5 55q-74 0 -125 -54.5t-59 -138.5z" />
    <glyph glyph-name="igrave" unicode="&#xec;" horiz-adv-x="277" 
d="M112 619l-115 110l74 35l95 -145h-54zM105 0v534h67v-534h-67z" />
    <glyph glyph-name="iacute" unicode="&#xed;" horiz-adv-x="277" 
d="M111 619l95 145l74 -35l-115 -110h-54zM105 0v534h67v-534h-67z" />
    <glyph glyph-name="icircumflex" unicode="&#xee;" horiz-adv-x="277" 
d="M2 619l107 132h58l108 -132h-60l-78 70l-78 -70h-57zM105 0v534h67v-534h-67z" />
    <glyph glyph-name="idieresis" unicode="&#xef;" horiz-adv-x="277" 
d="M8 619v92h84v-92h-84zM184 619v92h84v-92h-84zM105 0v534h67v-534h-67z" />
    <glyph glyph-name="eth" unicode="&#xf0;" horiz-adv-x="679" 
d="M510 718l-91 -41q196 -189 196 -383v-2q0 -135 -77.5 -219.5t-202.5 -84.5q-114 0 -193 82t-79 198v2q0 115 75.5 189.5t178.5 74.5q109 0 196 -81q-42 92 -154 197l-118 -53l-23 44l100 45q-28 25 -90 73h99l53 -45l106 48zM340 49q89 0 147 62t58 155v2q0 89 -60 148.5
t-154 59.5q-88 0 -143 -59.5t-55 -150.5v-2q0 -89 59.5 -152t147.5 -63z" />
    <glyph glyph-name="ntilde" unicode="&#xf1;" horiz-adv-x="649" 
d="M401 619q-21 0 -71 21q-48 21 -65 21q-19 0 -30.5 -11t-22.5 -41l-43 12q15 57 36.5 80.5t57.5 23.5q21 0 71 -21q48 -21 65 -21q19 0 30.5 11t22.5 40l43 -11q-15 -57 -36.5 -80.5t-57.5 -23.5zM98 0v534h67v-95q63 108 187 108q97 0 153 -60t56 -157v-330h-67v314
q0 79 -42 125t-116 46q-73 0 -122 -50t-49 -128v-307h-67z" />
    <glyph glyph-name="ograve" unicode="&#xf2;" horiz-adv-x="679" 
d="M313 619l-115 110l74 35l95 -145h-54zM339 -12q-118 0 -197 81.5t-79 195.5v2q0 115 79.5 197.5t198.5 82.5q118 0 197 -81.5t79 -196.5v-2q0 -114 -80 -196.5t-198 -82.5zM341 49q89 0 147 63t58 153v2q0 91 -60 155t-147 64q-89 0 -147.5 -63t-58.5 -154v-2
q0 -91 60 -154.5t148 -63.5z" />
    <glyph glyph-name="oacute" unicode="&#xf3;" horiz-adv-x="679" 
d="M312 619l95 145l74 -35l-115 -110h-54zM339 -12q-118 0 -197 81.5t-79 195.5v2q0 115 79.5 197.5t198.5 82.5q118 0 197 -81.5t79 -196.5v-2q0 -114 -80 -196.5t-198 -82.5zM341 49q89 0 147 63t58 153v2q0 91 -60 155t-147 64q-89 0 -147.5 -63t-58.5 -154v-2
q0 -91 60 -154.5t148 -63.5z" />
    <glyph glyph-name="ocircumflex" unicode="&#xf4;" horiz-adv-x="679" 
d="M204 619l107 132h58l108 -132h-60l-78 70l-78 -70h-57zM339 -12q-118 0 -197 81.5t-79 195.5v2q0 115 79.5 197.5t198.5 82.5q118 0 197 -81.5t79 -196.5v-2q0 -114 -80 -196.5t-198 -82.5zM341 49q89 0 147 63t58 153v2q0 91 -60 155t-147 64q-89 0 -147.5 -63
t-58.5 -154v-2q0 -91 60 -154.5t148 -63.5z" />
    <glyph glyph-name="otilde" unicode="&#xf5;" horiz-adv-x="679" 
d="M412 619q-21 0 -71 21q-48 21 -65 21q-19 0 -30.5 -11t-22.5 -41l-43 12q15 57 36.5 80.5t57.5 23.5q21 0 71 -21q48 -21 65 -21q19 0 30.5 11t22.5 40l43 -11q-15 -57 -36.5 -80.5t-57.5 -23.5zM339 -12q-118 0 -197 81.5t-79 195.5v2q0 115 79.5 197.5t198.5 82.5
q118 0 197 -81.5t79 -196.5v-2q0 -114 -80 -196.5t-198 -82.5zM341 49q89 0 147 63t58 153v2q0 91 -60 155t-147 64q-89 0 -147.5 -63t-58.5 -154v-2q0 -91 60 -154.5t148 -63.5z" />
    <glyph glyph-name="odieresis" unicode="&#xf6;" horiz-adv-x="679" 
d="M210 619v92h84v-92h-84zM386 619v92h84v-92h-84zM339 -12q-118 0 -197 81.5t-79 195.5v2q0 115 79.5 197.5t198.5 82.5q118 0 197 -81.5t79 -196.5v-2q0 -114 -80 -196.5t-198 -82.5zM341 49q89 0 147 63t58 153v2q0 91 -60 155t-147 64q-89 0 -147.5 -63t-58.5 -154v-2
q0 -91 60 -154.5t148 -63.5z" />
    <glyph glyph-name="divide" unicode="&#xf7;" horiz-adv-x="658" 
d="M281 519v101h95v-101h-95zM582 335h-506v62h506v-62zM281 112v101h95v-101h-95z" />
    <glyph glyph-name="oslash" unicode="&#xf8;" horiz-adv-x="679" 
d="M561 541h71l-83 -88q68 -77 68 -184v-2q0 -114 -80 -196.5t-198 -82.5q-97 0 -171 58l-50 -51h-71l83 87q-67 78 -67 183v2q0 115 79.5 197.5t198.5 82.5q98 0 171 -59zM132 268q0 -78 44 -138l293 310q-57 47 -130 47q-90 0 -148.5 -63t-58.5 -155v-1zM341 47
q90 0 148.5 63t58.5 155v1q0 79 -46 139l-292 -311q57 -48 131 -47z" />
    <glyph glyph-name="ugrave" unicode="&#xf9;" horiz-adv-x="649" 
d="M293 619l-115 110l74 35l95 -145h-54zM297 -12q-97 0 -153 59.5t-56 157.5v329h67v-314q0 -79 42 -125t116 -46q73 0 122 50t49 128v307h67v-534h-67v96q-63 -108 -187 -108z" />
    <glyph glyph-name="uacute" unicode="&#xfa;" horiz-adv-x="649" 
d="M292 619l95 145l74 -35l-115 -110h-54zM297 -12q-97 0 -153 59.5t-56 157.5v329h67v-314q0 -79 42 -125t116 -46q73 0 122 50t49 128v307h67v-534h-67v96q-63 -108 -187 -108z" />
    <glyph glyph-name="ucircumflex" unicode="&#xfb;" horiz-adv-x="649" 
d="M183 619l107 132h58l108 -132h-60l-78 70l-78 -70h-57zM297 -12q-97 0 -153 59.5t-56 157.5v329h67v-314q0 -79 42 -125t116 -46q73 0 122 50t49 128v307h67v-534h-67v96q-63 -108 -187 -108z" />
    <glyph glyph-name="udieresis" unicode="&#xfc;" horiz-adv-x="649" 
d="M189 619v92h84v-92h-84zM365 619v92h84v-92h-84zM297 -12q-97 0 -153 59.5t-56 157.5v329h67v-314q0 -79 42 -125t116 -46q73 0 122 50t49 128v307h67v-534h-67v96q-63 -108 -187 -108z" />
    <glyph glyph-name="yacute" unicode="&#xfd;" horiz-adv-x="623" 
d="M288 619l95 145l74 -35l-115 -110h-54zM325 74l180 460h73l-228 -552q-34 -82 -75.5 -117t-101.5 -35q-56 0 -111 26l23 55q42 -20 87 -20q39 0 66 25t54 86l-249 532h75z" />
    <glyph glyph-name="thorn" unicode="&#xfe;" horiz-adv-x="699" 
d="M366 50q84 0 140.5 58.5t56.5 156.5v2q0 97 -57.5 157.5t-139.5 60.5t-143 -61.5t-61 -155.5v-2q0 -94 61 -155t143 -61zM98 -166v925h67v-337q84 125 212 125q102 0 179.5 -76.5t77.5 -201.5v-2q0 -125 -77.5 -202t-179.5 -77q-130 0 -212 120v-274h-67z" />
    <glyph glyph-name="ydieresis" unicode="&#xff;" horiz-adv-x="623" 
d="M185 619v92h84v-92h-84zM361 619v92h84v-92h-84zM325 74l180 460h73l-228 -552q-34 -82 -75.5 -117t-101.5 -35q-56 0 -111 26l23 55q42 -20 87 -20q39 0 66 25t54 86l-249 532h75z" />
    <glyph glyph-name="Amacron" unicode="&#x100;" horiz-adv-x="832" 
d="M249 828v60h334v-60h-334zM237 261h355l-177 393zM48 0l335 733h66l335 -733h-76l-88 198h-411l-89 -198h-72z" />
    <glyph glyph-name="amacron" unicode="&#x101;" horiz-adv-x="610" 
d="M147 643v57h316v-57h-316zM268 45q79 0 134.5 43.5t55.5 109.5v56q-90 23 -169 23q-78 0 -121 -31.5t-43 -84.5v-3q0 -51 41.5 -82t101.5 -31zM259 -12q-81 0 -142 44.5t-61 122.5v2q0 82 63 127.5t168 45.5q89 0 169 -23v21q0 75 -43.5 114.5t-122.5 39.5
q-80 0 -165 -41l-21 56q97 45 192 45q111 0 171 -58q55 -57 55 -154v-330h-66v84q-71 -96 -197 -96z" />
    <glyph glyph-name="Abreve" unicode="&#x102;" horiz-adv-x="832" 
d="M416 802q-62 0 -102.5 30t-44.5 82h55q19 -54 92 -54t92 54h55q-4 -52 -44.5 -82t-102.5 -30zM237 261h355l-177 393zM48 0l335 733h66l335 -733h-76l-88 198h-411l-89 -198h-72z" />
    <glyph glyph-name="abreve" unicode="&#x103;" horiz-adv-x="610" 
d="M305 617q-62 0 -102.5 33t-44.5 91h50q22 -66 97 -66t97 66h50q-4 -58 -44.5 -91t-102.5 -33zM268 45q79 0 134.5 43.5t55.5 109.5v56q-90 23 -169 23q-78 0 -121 -31.5t-43 -84.5v-3q0 -51 41.5 -82t101.5 -31zM259 -12q-81 0 -142 44.5t-61 122.5v2q0 82 63 127.5
t168 45.5q89 0 169 -23v21q0 75 -43.5 114.5t-122.5 39.5q-80 0 -165 -41l-21 56q97 45 192 45q111 0 171 -58q55 -57 55 -154v-330h-66v84q-71 -96 -197 -96z" />
    <glyph glyph-name="Aogonek" unicode="&#x104;" horiz-adv-x="832" 
d="M793 -128v-43h-7q-64 2 -98 24t-34 59q0 45 53 90v1l-87 195h-411l-89 -198h-72l335 733h66l335 -733h-15q-29 -25 -41.5 -42t-12.5 -37q0 -43 78 -49zM237 261h355l-177 393z" />
    <glyph glyph-name="aogonek" unicode="&#x105;" horiz-adv-x="610" 
d="M536 -171h-7q-64 2 -98 24t-34 59q0 47 59 95v77q-71 -96 -197 -96q-81 0 -142 44.5t-61 122.5v2q0 82 63 127.5t168 45.5q89 0 169 -23v21q0 75 -43.5 114.5t-122.5 39.5q-80 0 -165 -41l-21 56q97 45 192 45q111 0 171 -58q55 -57 55 -154v-330h-10q-29 -25 -41.5 -42
t-12.5 -37q0 -43 78 -49v-43zM268 45q79 0 134.5 43.5t55.5 109.5v56q-90 23 -169 23q-78 0 -121 -31.5t-43 -84.5v-3q0 -51 41.5 -82t101.5 -31z" />
    <glyph glyph-name="Cacute" unicode="&#x106;" horiz-adv-x="782" 
d="M409 804l101 129l73 -34l-116 -95h-58zM441 -12q-155 0 -259 108t-104 266v2q0 157 104.5 266.5t261.5 109.5q92 0 157 -29t127 -86l-48 -52q-109 104 -237 104q-125 0 -208.5 -90t-83.5 -221v-2q0 -132 84.5 -222.5t208.5 -90.5q73 0 128.5 27t113.5 82l46 -45
q-63 -63 -130.5 -95t-160.5 -32z" />
    <glyph glyph-name="cacute" unicode="&#x107;" horiz-adv-x="604" 
d="M304 619l95 145l74 -35l-115 -110h-54zM336 -12q-115 0 -194 81.5t-79 195.5v2q0 114 79.5 197t194.5 83q121 0 213 -98l-45 -47q-82 84 -170 84q-85 0 -143.5 -63.5t-58.5 -153.5v-2q0 -91 60 -154.5t147 -63.5q95 0 170 84l44 -41q-92 -104 -218 -104z" />
    <glyph glyph-name="Cdotaccent" unicode="&#x10a;" horiz-adv-x="782" 
d="M393 804v87h90v-87h-90zM441 -12q-155 0 -259 108t-104 266v2q0 157 104.5 266.5t261.5 109.5q92 0 157 -29t127 -86l-48 -52q-109 104 -237 104q-125 0 -208.5 -90t-83.5 -221v-2q0 -132 84.5 -222.5t208.5 -90.5q73 0 128.5 27t113.5 82l46 -45q-63 -63 -130.5 -95
t-160.5 -32z" />
    <glyph glyph-name="cdotaccent" unicode="&#x10b;" horiz-adv-x="604" 
d="M287 619v92h88v-92h-88zM336 -12q-115 0 -194 81.5t-79 195.5v2q0 114 79.5 197t194.5 83q121 0 213 -98l-45 -47q-82 84 -170 84q-85 0 -143.5 -63.5t-58.5 -153.5v-2q0 -91 60 -154.5t147 -63.5q95 0 170 84l44 -41q-92 -104 -218 -104z" />
    <glyph glyph-name="Ccaron" unicode="&#x10c;" horiz-adv-x="782" 
d="M581 922l-111 -118h-64l-111 118h67l77 -63l77 63h65zM441 -12q-155 0 -259 108t-104 266v2q0 157 104.5 266.5t261.5 109.5q92 0 157 -29t127 -86l-48 -52q-109 104 -237 104q-125 0 -208.5 -90t-83.5 -221v-2q0 -132 84.5 -222.5t208.5 -90.5q73 0 128.5 27t113.5 82
l46 -45q-63 -63 -130.5 -95t-160.5 -32z" />
    <glyph glyph-name="ccaron" unicode="&#x10d;" horiz-adv-x="604" 
d="M468 751l-108 -132h-58l-107 132h59l78 -70l78 70h58zM336 -12q-115 0 -194 81.5t-79 195.5v2q0 114 79.5 197t194.5 83q121 0 213 -98l-45 -47q-82 84 -170 84q-85 0 -143.5 -63.5t-58.5 -153.5v-2q0 -91 60 -154.5t147 -63.5q95 0 170 84l44 -41q-92 -104 -218 -104z
" />
    <glyph glyph-name="Dcaron" unicode="&#x10e;" horiz-adv-x="823" 
d="M538 912l-111 -118h-64l-111 118h67l77 -63l77 63h65zM110 0v728h249q169 0 277.5 -103.5t108.5 -258.5v-2q0 -156 -108.5 -260t-277.5 -104h-249zM359 664h-179v-600h179q141 0 227.5 85t86.5 213v2q0 128 -86.5 214t-227.5 86z" />
    <glyph glyph-name="dcaron" unicode="&#x10f;" horiz-adv-x="699" 
d="M671 595l16 164h71v-3l-52 -161h-35zM333 50q81 0 142.5 61t61.5 155v2q0 94 -61.5 155.5t-142.5 61.5q-84 0 -141 -59t-57 -157v-2q0 -96 58 -156.5t140 -60.5zM322 -12q-102 0 -179.5 76t-77.5 201v2q0 125 77.5 202.5t179.5 77.5q131 0 212 -121v333h67v-759h-67v113
q-84 -125 -212 -125z" />
    <glyph glyph-name="Dcroat" unicode="&#x110;" horiz-adv-x="854" 
d="M141 0v337h-78v59h78v332h249q170 0 278.5 -103.5t108.5 -258.5v-2q0 -156 -108.5 -260t-278.5 -104h-249zM440 337h-229v-273h179q141 0 227.5 85t86.5 213v2q0 128 -86.5 214t-227.5 86h-179v-268h229v-59z" />
    <glyph glyph-name="dcroat" unicode="&#x111;" horiz-adv-x="699" 
d="M333 50q81 0 142.5 61t61.5 155v2q0 94 -61.5 155.5t-142.5 61.5q-84 0 -141 -59t-57 -157v-2q0 -96 58 -156.5t140 -60.5zM346 639v53h188v67h67v-67h72v-53h-72v-639h-67v113q-84 -125 -212 -125q-102 0 -179.5 76t-77.5 201v2q0 125 77.5 202.5t179.5 77.5
q131 0 212 -121v213h-188z" />
    <glyph glyph-name="Emacron" unicode="&#x112;" horiz-adv-x="707" 
d="M206 818v60h334v-60h-334zM110 0v728h523v-64h-453v-265h406v-64h-406v-271h458v-64h-528z" />
    <glyph glyph-name="emacron" unicode="&#x113;" horiz-adv-x="622" 
d="M160 643v57h316v-57h-316zM328 -12q-111 0 -188 78t-77 200v2q0 117 73 198t182 81q113 0 180.5 -80.5t67.5 -201.5q0 -14 -2 -24h-432q8 -89 64.5 -141.5t133.5 -52.5q98 0 175 80l43 -39q-92 -100 -220 -100zM132 295h364q-6 83 -52.5 138t-127.5 55q-74 0 -125 -54.5
t-59 -138.5z" />
    <glyph glyph-name="Ebreve" unicode="&#x114;" horiz-adv-x="707" 
d="M373 792q-62 0 -102.5 30t-44.5 82h55q19 -54 92 -54t92 54h55q-4 -52 -44.5 -82t-102.5 -30zM110 0v728h523v-64h-453v-265h406v-64h-406v-271h458v-64h-528z" />
    <glyph glyph-name="ebreve" unicode="&#x115;" horiz-adv-x="622" 
d="M318 617q-62 0 -102.5 33t-44.5 91h50q22 -66 97 -66t97 66h50q-4 -58 -44.5 -91t-102.5 -33zM328 -12q-111 0 -188 78t-77 200v2q0 117 73 198t182 81q113 0 180.5 -80.5t67.5 -201.5q0 -14 -2 -24h-432q8 -89 64.5 -141.5t133.5 -52.5q98 0 175 80l43 -39
q-92 -100 -220 -100zM132 295h364q-6 83 -52.5 138t-127.5 55q-74 0 -125 -54.5t-59 -138.5z" />
    <glyph glyph-name="Edotaccent" unicode="&#x116;" horiz-adv-x="707" 
d="M328 794v87h90v-87h-90zM110 0v728h523v-64h-453v-265h406v-64h-406v-271h458v-64h-528z" />
    <glyph glyph-name="edotaccent" unicode="&#x117;" horiz-adv-x="622" 
d="M274 619v92h88v-92h-88zM328 -12q-111 0 -188 78t-77 200v2q0 117 73 198t182 81q113 0 180.5 -80.5t67.5 -201.5q0 -14 -2 -24h-432q8 -89 64.5 -141.5t133.5 -52.5q98 0 175 80l43 -39q-92 -100 -220 -100zM132 295h364q-6 83 -52.5 138t-127.5 55q-74 0 -125 -54.5
t-59 -138.5z" />
    <glyph glyph-name="Eogonek" unicode="&#x118;" horiz-adv-x="707" 
d="M110 0v728h523v-64h-453v-265h406v-64h-406v-271h458v-64h-25q-29 -25 -41.5 -42t-12.5 -37q0 -43 78 -49v-43h-7q-64 2 -98 24t-34 59q0 43 50 88h-438z" />
    <glyph glyph-name="eogonek" unicode="&#x119;" horiz-adv-x="622" 
d="M505 127l43 -39q-22 -25 -54 -51q-44 -37 -60.5 -61.5t-16.5 -47.5q0 -27 18.5 -39.5t60.5 -16.5v-43h-7q-132 5 -132 87q0 38 39 79q-29 -7 -68 -7q-111 0 -188 78t-77 200v2q0 117 73 198t182 81q113 0 180.5 -80.5t67.5 -201.5q0 -14 -2 -24h-432q8 -89 64.5 -141.5
t133.5 -52.5q98 0 175 80zM132 295h364q-6 83 -52.5 138t-127.5 55q-74 0 -125 -54.5t-59 -138.5z" />
    <glyph glyph-name="Ecaron" unicode="&#x11a;" horiz-adv-x="707" 
d="M516 912l-111 -118h-64l-111 118h67l77 -63l77 63h65zM110 0v728h523v-64h-453v-265h406v-64h-406v-271h458v-64h-528z" />
    <glyph glyph-name="ecaron" unicode="&#x11b;" horiz-adv-x="622" 
d="M455 751l-108 -132h-58l-107 132h59l78 -70l78 70h58zM328 -12q-111 0 -188 78t-77 200v2q0 117 73 198t182 81q113 0 180.5 -80.5t67.5 -201.5q0 -14 -2 -24h-432q8 -89 64.5 -141.5t133.5 -52.5q98 0 175 80l43 -39q-92 -100 -220 -100zM132 295h364q-6 83 -52.5 138
t-127.5 55q-74 0 -125 -54.5t-59 -138.5z" />
    <glyph glyph-name="Gbreve" unicode="&#x11e;" horiz-adv-x="825" 
d="M433 802q-62 0 -102.5 30t-44.5 82h55q19 -54 92 -54t92 54h55q-4 -52 -44.5 -82t-102.5 -30zM446 -12q-167 0 -267.5 107t-100.5 267v2q0 153 102 264.5t261 111.5q86 0 148.5 -23.5t120.5 -72.5l-45 -53q-48 42 -100.5 64t-127.5 22q-123 0 -204.5 -91.5t-81.5 -219.5
v-2q0 -138 81 -226t217 -88q62 0 120.5 21.5t99.5 55.5v194h-231v63h298v-286q-125 -110 -290 -110z" />
    <glyph glyph-name="gbreve" unicode="&#x11f;" horiz-adv-x="699" 
d="M352 617q-62 0 -102.5 33t-44.5 91h50q22 -66 97 -66t97 66h50q-4 -58 -44.5 -91t-102.5 -33zM330 102q82 0 144.5 54t62.5 137v2q0 83 -62.5 136.5t-144.5 53.5t-138.5 -52.5t-56.5 -137.5v-2q0 -83 57.5 -137t137.5 -54zM333 -168q-134 0 -244 77l34 53q97 -71 211 -71
q92 0 146 51t54 147v69q-85 -118 -215 -118q-101 0 -177.5 70.5t-76.5 181.5v2q0 112 76.5 182.5t177.5 70.5q131 0 215 -114v101h67v-445q0 -118 -68 -186q-71 -71 -200 -71z" />
    <glyph glyph-name="Gdotaccent" unicode="&#x120;" horiz-adv-x="825" 
d="M388 804v87h90v-87h-90zM446 -12q-167 0 -267.5 107t-100.5 267v2q0 153 102 264.5t261 111.5q86 0 148.5 -23.5t120.5 -72.5l-45 -53q-48 42 -100.5 64t-127.5 22q-123 0 -204.5 -91.5t-81.5 -219.5v-2q0 -138 81 -226t217 -88q62 0 120.5 21.5t99.5 55.5v194h-231v63
h298v-286q-125 -110 -290 -110z" />
    <glyph glyph-name="gdotaccent" unicode="&#x121;" horiz-adv-x="699" 
d="M308 619v92h88v-92h-88zM330 102q82 0 144.5 54t62.5 137v2q0 83 -62.5 136.5t-144.5 53.5t-138.5 -52.5t-56.5 -137.5v-2q0 -83 57.5 -137t137.5 -54zM333 -168q-134 0 -244 77l34 53q97 -71 211 -71q92 0 146 51t54 147v69q-85 -118 -215 -118q-101 0 -177.5 70.5
t-76.5 181.5v2q0 112 76.5 182.5t177.5 70.5q131 0 215 -114v101h67v-445q0 -118 -68 -186q-71 -71 -200 -71z" />
    <glyph glyph-name="Gcommaaccent" unicode="&#x122;" horiz-adv-x="825" 
d="M446 -12q-167 0 -267.5 107t-100.5 267v2q0 153 102 264.5t261 111.5q86 0 148.5 -23.5t120.5 -72.5l-45 -53q-48 42 -100.5 64t-127.5 22q-123 0 -204.5 -91.5t-81.5 -219.5v-2q0 -138 81 -226t217 -88q62 0 120.5 21.5t99.5 55.5v194h-231v63h298v-286
q-125 -110 -290 -110zM374 -245l-7 28q65 13 61 61h-38v80h86v-70q0 -87 -102 -99z" />
    <glyph glyph-name="gcommaaccent" unicode="&#x123;" horiz-adv-x="699" 
d="M411 789l7 -29q-34 -6 -48.5 -20.5t-12.5 -39.5h37v-81h-85v70q0 87 102 100zM330 102q82 0 144.5 54t62.5 137v2q0 83 -62.5 136.5t-144.5 53.5t-138.5 -52.5t-56.5 -137.5v-2q0 -83 57.5 -137t137.5 -54zM333 -168q-134 0 -244 77l34 53q97 -71 211 -71q92 0 146 51
t54 147v69q-85 -118 -215 -118q-101 0 -177.5 70.5t-76.5 181.5v2q0 112 76.5 182.5t177.5 70.5q131 0 215 -114v101h67v-445q0 -118 -68 -186q-71 -71 -200 -71z" />
    <glyph glyph-name="Hbar" unicode="&#x126;" horiz-adv-x="853" 
d="M207 394h440v136h-440v-136zM59 530v56h78v142h70v-142h440v142h70v-142h77v-56h-77v-530h-70v329h-440v-329h-70v530h-78z" />
    <glyph glyph-name="hbar" unicode="&#x127;" horiz-adv-x="649" 
d="M353 639h-188v-200q63 108 187 108q97 0 153 -60t56 -157v-330h-67v314q0 79 -42 125t-116 46q-73 0 -122 -50t-49 -128v-307h-67v639h-73v53h73v67h67v-67h188v-53z" />
    <glyph glyph-name="Imacron" unicode="&#x12a;" horiz-adv-x="305" 
d="M-15 818v60h334v-60h-334zM117 0v728h70v-728h-70z" />
    <glyph glyph-name="imacron" unicode="&#x12b;" horiz-adv-x="277" 
d="M-20 643v57h316v-57h-316zM105 0v534h67v-534h-67z" />
    <glyph glyph-name="Ibreve" unicode="&#x12c;" horiz-adv-x="305" 
d="M152 792q-62 0 -102.5 30t-44.5 82h55q19 -54 92 -54t92 54h55q-4 -52 -44.5 -82t-102.5 -30zM117 0v728h70v-728h-70z" />
    <glyph glyph-name="ibreve" unicode="&#x12d;" horiz-adv-x="277" 
d="M138 617q-62 0 -102.5 33t-44.5 91h50q22 -66 97 -66t97 66h50q-4 -58 -44.5 -91t-102.5 -33zM105 0v534h67v-534h-67z" />
    <glyph glyph-name="Iogonek" unicode="&#x12e;" horiz-adv-x="305" 
d="M204 -171h-7q-64 2 -98 24t-34 59q0 43 52 89v727h70v-728h-7q-29 -25 -41.5 -42t-12.5 -37q0 -43 78 -49v-43z" />
    <glyph glyph-name="iogonek" unicode="&#x12f;" horiz-adv-x="277" 
d="M99 661v81h79v-81h-79zM190 -171h-7q-64 2 -98 24t-34 59q0 45 54 91v531h67v-534h-6q-29 -25 -41.5 -42t-12.5 -37q0 -43 78 -49v-43z" />
    <glyph glyph-name="Idotaccent" unicode="&#x130;" horiz-adv-x="305" 
d="M107 794v87h90v-87h-90zM117 0v728h70v-728h-70z" />
    <glyph glyph-name="dotlessi" unicode="&#x131;" horiz-adv-x="277" 
d="M105 0v534h67v-534h-67z" />
    <glyph glyph-name="Kcommaaccent" unicode="&#x136;" horiz-adv-x="756" 
d="M110 0v728h70v-454l438 454h93l-316 -319l329 -409h-89l-289 359l-166 -168v-191h-70zM322 -239l-7 28q65 13 61 61h-38v80h86v-70q0 -87 -102 -99z" />
    <glyph glyph-name="kcommaaccent" unicode="&#x137;" horiz-adv-x="597" 
d="M98 0v759h67v-544l307 319h86l-229 -232l236 -302h-82l-200 254l-118 -119v-135h-67zM256 -244l-7 28q65 13 61 61h-38v80h86v-70q0 -87 -102 -99z" />
    <glyph glyph-name="Lacute" unicode="&#x139;" horiz-adv-x="649" 
d="M127 794l101 129l73 -34l-116 -95h-58zM110 0v728h70v-664h418v-64h-488z" />
    <glyph glyph-name="lacute" unicode="&#x13a;" horiz-adv-x="277" 
d="M111 817l101 129l73 -34l-116 -95h-58zM105 0v759h67v-759h-67z" />
    <glyph glyph-name="Lcommaaccent" unicode="&#x13b;" horiz-adv-x="649" 
d="M110 0v728h70v-664h418v-64h-488zM290 -244l-7 28q65 13 61 61h-38v80h86v-70q0 -87 -102 -99z" />
    <glyph glyph-name="lcommaaccent" unicode="&#x13c;" horiz-adv-x="277" 
d="M105 0v759h67v-759h-67zM78 -244l-7 28q65 13 61 61h-38v80h86v-70q0 -87 -102 -99z" />
    <glyph glyph-name="Lcaron" unicode="&#x13d;" horiz-adv-x="649" 
d="M281 564l16 164h71v-3l-52 -161h-35zM110 0v728h70v-664h418v-64h-488z" />
    <glyph glyph-name="lcaron" unicode="&#x13e;" horiz-adv-x="277" 
d="M105 0v759h67v-759h-67zM242 595l16 164h71v-3l-52 -161h-35z" />
    <glyph glyph-name="Ldot" unicode="&#x13f;" horiz-adv-x="649" 
d="M110 0v728h70v-664h418v-64h-488zM439 334v92h86v-92h-86z" />
    <glyph glyph-name="ldot" unicode="&#x140;" horiz-adv-x="344" 
d="M105 0v759h67v-759h-67zM265 337v91h83v-91h-83z" />
    <glyph glyph-name="Lslash" unicode="&#x141;" horiz-adv-x="681" 
d="M400 421l-190 -89v-268h419v-64h-488v299l-78 -36v69l78 36v360h69v-327l190 89v-69z" />
    <glyph glyph-name="lslash" unicode="&#x142;" horiz-adv-x="340" 
d="M282 410l-79 -44v-366h-67v330l-79 -43v70l79 42v360h67v-324l79 44v-69z" />
    <glyph glyph-name="Nacute" unicode="&#x143;" horiz-adv-x="832" 
d="M388 790l101 129l73 -34l-116 -95h-58zM110 0v728h66l478 -606v606h68v-728h-55l-489 619v-619h-68z" />
    <glyph glyph-name="nacute" unicode="&#x144;" horiz-adv-x="649" 
d="M301 619l95 145l74 -35l-115 -110h-54zM98 0v534h67v-95q63 108 187 108q97 0 153 -60t56 -157v-330h-67v314q0 79 -42 125t-116 46q-73 0 -122 -50t-49 -128v-307h-67z" />
    <glyph glyph-name="Ncommaaccent" unicode="&#x145;" horiz-adv-x="832" 
d="M110 0v728h66l478 -606v606h68v-728h-55l-489 619v-619h-68zM356 -239l-7 28q65 13 61 61h-38v80h86v-70q0 -87 -102 -99z" />
    <glyph glyph-name="ncommaaccent" unicode="&#x146;" horiz-adv-x="649" 
d="M98 0v534h67v-95q63 108 187 108q97 0 153 -60t56 -157v-330h-67v314q0 79 -42 125t-116 46q-73 0 -122 -50t-49 -128v-307h-67zM269 -244l-7 28q65 13 61 61h-38v80h86v-70q0 -87 -102 -99z" />
    <glyph glyph-name="Ncaron" unicode="&#x147;" horiz-adv-x="832" 
d="M559 908l-111 -118h-64l-111 118h67l77 -63l77 63h65zM110 0v728h66l478 -606v606h68v-728h-55l-489 619v-619h-68z" />
    <glyph glyph-name="ncaron" unicode="&#x148;" horiz-adv-x="649" 
d="M466 751l-108 -132h-58l-107 132h59l78 -70l78 70h58zM98 0v534h67v-95q63 108 187 108q97 0 153 -60t56 -157v-330h-67v314q0 79 -42 125t-116 46q-73 0 -122 -50t-49 -128v-307h-67z" />
    <glyph glyph-name="Omacron" unicode="&#x14c;" horiz-adv-x="894" 
d="M280 828v60h334v-60h-334zM446 -12q-162 0 -265 110t-103 264v2q0 154 104 265t266 111t265 -110t103 -264v-2q0 -154 -104 -265t-266 -111zM448 51q127 0 211 90t84 221v2q0 131 -85 222t-212 91t-211 -90t-84 -221v-2q0 -131 85 -222t212 -91z" />
    <glyph glyph-name="omacron" unicode="&#x14d;" horiz-adv-x="679" 
d="M182 643v57h316v-57h-316zM339 -12q-118 0 -197 81.5t-79 195.5v2q0 115 79.5 197.5t198.5 82.5q118 0 197 -81.5t79 -196.5v-2q0 -114 -80 -196.5t-198 -82.5zM341 49q89 0 147 63t58 153v2q0 91 -60 155t-147 64q-89 0 -147.5 -63t-58.5 -154v-2q0 -91 60 -154.5
t148 -63.5z" />
    <glyph glyph-name="Obreve" unicode="&#x14e;" horiz-adv-x="894" 
d="M447 802q-62 0 -102.5 30t-44.5 82h55q19 -54 92 -54t92 54h55q-4 -52 -44.5 -82t-102.5 -30zM446 -12q-162 0 -265 110t-103 264v2q0 154 104 265t266 111t265 -110t103 -264v-2q0 -154 -104 -265t-266 -111zM448 51q127 0 211 90t84 221v2q0 131 -85 222t-212 91
t-211 -90t-84 -221v-2q0 -131 85 -222t212 -91z" />
    <glyph glyph-name="obreve" unicode="&#x14f;" horiz-adv-x="679" 
d="M340 617q-62 0 -102.5 33t-44.5 91h50q22 -66 97 -66t97 66h50q-4 -58 -44.5 -91t-102.5 -33zM339 -12q-118 0 -197 81.5t-79 195.5v2q0 115 79.5 197.5t198.5 82.5q118 0 197 -81.5t79 -196.5v-2q0 -114 -80 -196.5t-198 -82.5zM341 49q89 0 147 63t58 153v2
q0 91 -60 155t-147 64q-89 0 -147.5 -63t-58.5 -154v-2q0 -91 60 -154.5t148 -63.5z" />
    <glyph glyph-name="Ohungarumlaut" unicode="&#x150;" horiz-adv-x="894" 
d="M485 804l101 129l72 -34l-115 -95h-58zM332 804l101 129l72 -34l-116 -95h-57zM446 -12q-162 0 -265 110t-103 264v2q0 154 104 265t266 111t265 -110t103 -264v-2q0 -154 -104 -265t-266 -111zM448 51q127 0 211 90t84 221v2q0 131 -85 222t-212 91t-211 -90t-84 -221
v-2q0 -131 85 -222t212 -91z" />
    <glyph glyph-name="ohungarumlaut" unicode="&#x151;" horiz-adv-x="679" 
d="M229 619l96 145l68 -35l-109 -110h-55zM378 619l96 145l69 -35l-110 -110h-55zM339 -12q-118 0 -197 81.5t-79 195.5v2q0 115 79.5 197.5t198.5 82.5q118 0 197 -81.5t79 -196.5v-2q0 -114 -80 -196.5t-198 -82.5zM341 49q89 0 147 63t58 153v2q0 91 -60 155t-147 64
q-89 0 -147.5 -63t-58.5 -154v-2q0 -91 60 -154.5t148 -63.5z" />
    <glyph glyph-name="OE" unicode="&#x152;" horiz-adv-x="1196" 
d="M465 0q-170 0 -278.5 103.5t-108.5 258.5v2q0 156 108.5 260t278.5 104h657v-64h-436v-265h389v-64h-389v-271h441v-64h-662zM465 64h151v600h-151q-141 0 -227.5 -85t-86.5 -213v-2q0 -128 86.5 -214t227.5 -86z" />
    <glyph glyph-name="oe" unicode="&#x153;" horiz-adv-x="1104" 
d="M336 -12q-115 0 -194 81.5t-79 195.5v2q0 115 80 197.5t196 82.5q79 0 142.5 -41.5t95.5 -110.5q31 69 90 110.5t134 41.5q112 0 179.5 -80.5t67.5 -201.5q0 -4 -2 -24h-432q8 -89 64 -141.5t133 -52.5q100 0 175 80l44 -39q-92 -100 -219 -100q-76 0 -139 41t-95 112
q-32 -69 -96 -111t-145 -42zM614 295h364q-6 83 -52.5 138t-127.5 55q-74 0 -125 -54.5t-59 -138.5zM340 49q89 0 147 63t58 153v2q0 91 -60 155t-147 64q-89 0 -147 -63.5t-58 -153.5v-2q0 -91 60 -154.5t147 -63.5z" />
    <glyph glyph-name="Racute" unicode="&#x154;" horiz-adv-x="762" 
d="M342 794l101 129l73 -34l-116 -95h-58zM180 354h233q88 0 143.5 42t55.5 115v2q0 70 -52 110.5t-145 40.5h-235v-310zM110 0v728h310q134 0 206 -72q56 -56 56 -140v-2q0 -87 -56 -141t-149 -70l231 -303h-86l-221 291h-221v-291h-70z" />
    <glyph glyph-name="racute" unicode="&#x155;" horiz-adv-x="429" 
d="M200 619l95 145l74 -35l-115 -110h-54zM98 0v534h67v-145q31 72 91 114.5t135 39.5v-72h-5q-94 0 -157.5 -67.5t-63.5 -187.5v-216h-67z" />
    <glyph glyph-name="Rcommaaccent" unicode="&#x156;" horiz-adv-x="762" 
d="M180 354h233q88 0 143.5 42t55.5 115v2q0 70 -52 110.5t-145 40.5h-235v-310zM110 0v728h310q134 0 206 -72q56 -56 56 -140v-2q0 -87 -56 -141t-149 -70l231 -303h-86l-221 291h-221v-291h-70zM310 -239l-7 28q65 13 61 61h-38v80h86v-70q0 -87 -102 -99z" />
    <glyph glyph-name="rcommaaccent" unicode="&#x157;" horiz-adv-x="429" 
d="M98 0v534h67v-145q31 72 91 114.5t135 39.5v-72h-5q-94 0 -157.5 -67.5t-63.5 -187.5v-216h-67zM80 -244l-7 28q65 13 61 61h-38v80h86v-70q0 -87 -102 -99z" />
    <glyph glyph-name="Rcaron" unicode="&#x158;" horiz-adv-x="762" 
d="M513 912l-111 -118h-64l-111 118h67l77 -63l77 63h65zM180 354h233q88 0 143.5 42t55.5 115v2q0 70 -52 110.5t-145 40.5h-235v-310zM110 0v728h310q134 0 206 -72q56 -56 56 -140v-2q0 -87 -56 -141t-149 -70l231 -303h-86l-221 291h-221v-291h-70z" />
    <glyph glyph-name="rcaron" unicode="&#x159;" horiz-adv-x="429" 
d="M364 751l-108 -132h-58l-107 132h59l78 -70l78 70h58zM98 0v534h67v-145q31 72 91 114.5t135 39.5v-72h-5q-94 0 -157.5 -67.5t-63.5 -187.5v-216h-67z" />
    <glyph glyph-name="Sacute" unicode="&#x15a;" horiz-adv-x="676" 
d="M317 804l101 129l73 -34l-116 -95h-58zM358 -10q-166 0 -295 116l44 52q60 -55 119.5 -80.5t135.5 -25.5t124 37.5t48 96.5v2q0 56 -41 88.5t-156 56.5q-130 27 -187.5 74.5t-57.5 133.5v2q0 84 67 139.5t170 55.5q78 0 137 -21.5t116 -67.5l-42 -54q-97 81 -213 81
q-73 0 -119 -36.5t-46 -90.5v-2q0 -57 42.5 -90.5t161.5 -58.5q125 -26 181.5 -74t56.5 -130v-2q0 -90 -69 -146t-177 -56z" />
    <glyph glyph-name="sacute" unicode="&#x15b;" horiz-adv-x="528" 
d="M240 619l95 145l74 -35l-115 -110h-54zM273 -10q-58 0 -117.5 21t-103.5 57l36 50q90 -69 188 -69q52 0 85.5 25.5t33.5 66.5v2q0 39 -34.5 59.5t-102.5 39.5q-34 10 -52 16t-46.5 19.5t-43 27t-26 36t-11.5 50.5v2q0 67 50 109.5t129 42.5q103 0 191 -60l-32 -52
q-83 53 -161 53q-50 0 -81 -24t-31 -61v-2q0 -16 8.5 -29.5t20 -22.5t33 -18t37.5 -14t44 -13q39 -12 64 -22t53.5 -27.5t42.5 -43t14 -59.5v-2q0 -72 -53.5 -115t-134.5 -43z" />
    <glyph glyph-name="Scedilla" unicode="&#x15e;" horiz-adv-x="676" 
d="M309 -158l-68 31l80 119q-144 10 -258 114l44 52q60 -55 119.5 -80.5t135.5 -25.5t124 37.5t48 96.5v2q0 56 -41 88.5t-156 56.5q-130 27 -187.5 74.5t-57.5 133.5v2q0 84 67 139.5t170 55.5q78 0 137 -21.5t116 -67.5l-42 -54q-97 81 -213 81q-73 0 -119 -36.5
t-46 -90.5v-2q0 -57 42.5 -90.5t161.5 -58.5q125 -26 181.5 -74t56.5 -130v-2q0 -85 -62.5 -140t-161.5 -61z" />
    <glyph glyph-name="scedilla" unicode="&#x15f;" horiz-adv-x="528" 
d="M218 -158l-68 31l81 120q-104 13 -179 75l36 50q90 -69 188 -69q52 0 85.5 25.5t33.5 66.5v2q0 39 -34.5 59.5t-102.5 39.5q-34 10 -52 16t-46.5 19.5t-43 27t-26 36t-11.5 50.5v2q0 67 50 109.5t129 42.5q103 0 191 -60l-32 -52q-83 53 -161 53q-50 0 -81 -24t-31 -61
v-2q0 -16 8.5 -29.5t20 -22.5t33 -18t37.5 -14t44 -13q39 -12 64 -22t53.5 -27.5t42.5 -43t14 -59.5v-2q0 -69 -48.5 -111t-123.5 -46z" />
    <glyph glyph-name="Scaron" unicode="&#x160;" horiz-adv-x="676" 
d="M488 922l-111 -118h-64l-111 118h67l77 -63l77 63h65zM358 -10q-166 0 -295 116l44 52q60 -55 119.5 -80.5t135.5 -25.5t124 37.5t48 96.5v2q0 56 -41 88.5t-156 56.5q-130 27 -187.5 74.5t-57.5 133.5v2q0 84 67 139.5t170 55.5q78 0 137 -21.5t116 -67.5l-42 -54
q-97 81 -213 81q-73 0 -119 -36.5t-46 -90.5v-2q0 -57 42.5 -90.5t161.5 -58.5q125 -26 181.5 -74t56.5 -130v-2q0 -90 -69 -146t-177 -56z" />
    <glyph glyph-name="scaron" unicode="&#x161;" horiz-adv-x="528" 
d="M404 751l-108 -132h-58l-107 132h59l78 -70l78 70h58zM273 -10q-58 0 -117.5 21t-103.5 57l36 50q90 -69 188 -69q52 0 85.5 25.5t33.5 66.5v2q0 39 -34.5 59.5t-102.5 39.5q-34 10 -52 16t-46.5 19.5t-43 27t-26 36t-11.5 50.5v2q0 67 50 109.5t129 42.5q103 0 191 -60
l-32 -52q-83 53 -161 53q-50 0 -81 -24t-31 -61v-2q0 -16 8.5 -29.5t20 -22.5t33 -18t37.5 -14t44 -13q39 -12 64 -22t53.5 -27.5t42.5 -43t14 -59.5v-2q0 -72 -53.5 -115t-134.5 -43z" />
    <glyph glyph-name="Tcommaaccent" unicode="&#x162;" horiz-adv-x="675" 
d="M303 0v663h-249v65h567v-65h-248v-663h-70zM278 -244l-7 28q65 13 61 61h-38v80h86v-70q0 -87 -102 -99z" />
    <glyph glyph-name="tcommaaccent" unicode="&#x163;" horiz-adv-x="428" 
d="M276 -9q-67 0 -108.5 36.5t-41.5 112.5v334h-76v60h76v166h67v-166h178v-60h-178v-326q0 -96 97 -96q36 0 78 19v-60q-43 -20 -92 -20zM180 -244l-7 28q65 13 61 61h-38v80h86v-70q0 -87 -102 -99z" />
    <glyph glyph-name="Tcaron" unicode="&#x164;" horiz-adv-x="675" 
d="M481 912l-111 -118h-64l-111 118h67l77 -63l77 63h65zM303 0v663h-249v65h567v-65h-248v-663h-70z" />
    <glyph glyph-name="tcaron" unicode="&#x165;" horiz-adv-x="428" 
d="M285 606l16 164h71v-3l-52 -161h-35zM276 -9q-67 0 -108.5 36.5t-41.5 112.5v334h-76v60h76v166h67v-166h178v-60h-178v-326q0 -96 97 -96q36 0 78 19v-60q-43 -20 -92 -20z" />
    <glyph glyph-name="Umacron" unicode="&#x16a;" horiz-adv-x="800" 
d="M233 814v60h334v-60h-334zM400 -11q-137 0 -219 82.5t-82 232.5v424h70v-419q0 -122 61.5 -189.5t171.5 -67.5q107 0 168 64.5t61 187.5v424h70v-418q0 -155 -81.5 -238t-219.5 -83z" />
    <glyph glyph-name="umacron" unicode="&#x16b;" horiz-adv-x="649" 
d="M161 643v57h316v-57h-316zM297 -12q-97 0 -153 59.5t-56 157.5v329h67v-314q0 -79 42 -125t116 -46q73 0 122 50t49 128v307h67v-534h-67v96q-63 -108 -187 -108z" />
    <glyph glyph-name="Ubreve" unicode="&#x16c;" horiz-adv-x="800" 
d="M400 786q-62 0 -102.5 30t-44.5 82h55q19 -54 92 -54t92 54h55q-4 -52 -44.5 -82t-102.5 -30zM400 -11q-137 0 -219 82.5t-82 232.5v424h70v-419q0 -122 61.5 -189.5t171.5 -67.5q107 0 168 64.5t61 187.5v424h70v-418q0 -155 -81.5 -238t-219.5 -83z" />
    <glyph glyph-name="ubreve" unicode="&#x16d;" horiz-adv-x="649" 
d="M319 617q-62 0 -102.5 33t-44.5 91h50q22 -66 97 -66t97 66h50q-4 -58 -44.5 -91t-102.5 -33zM297 -12q-97 0 -153 59.5t-56 157.5v329h67v-314q0 -79 42 -125t116 -46q73 0 122 50t49 128v307h67v-534h-67v96q-63 -108 -187 -108z" />
    <glyph glyph-name="Uring" unicode="&#x16e;" horiz-adv-x="800" 
d="M400 775q-47 0 -80 29t-33 72t33 72t80 29t80 -29t33 -72t-33 -72t-80 -29zM400 812q30 0 50 18t20 46t-20 46.5t-50 18.5t-50 -18.5t-20 -46.5t20 -46t50 -18zM400 -11q-137 0 -219 82.5t-82 232.5v424h70v-419q0 -122 61.5 -189.5t171.5 -67.5q107 0 168 64.5t61 187.5
v424h70v-418q0 -155 -81.5 -238t-219.5 -83z" />
    <glyph glyph-name="uring" unicode="&#x16f;" horiz-adv-x="649" 
d="M319 606q-46 0 -78.5 31t-32.5 75t32.5 75.5t78.5 31.5t78.5 -31.5t32.5 -75.5t-32.5 -75t-78.5 -31zM319 640q29 0 50.5 21.5t21.5 50.5q0 30 -21.5 51.5t-50.5 21.5t-50.5 -21.5t-21.5 -51.5q0 -29 21.5 -50.5t50.5 -21.5zM297 -12q-97 0 -153 59.5t-56 157.5v329h67
v-314q0 -79 42 -125t116 -46q73 0 122 50t49 128v307h67v-534h-67v96q-63 -108 -187 -108z" />
    <glyph glyph-name="Uhungarumlaut" unicode="&#x170;" horiz-adv-x="800" 
d="M438 790l101 129l72 -34l-115 -95h-58zM285 790l101 129l72 -34l-116 -95h-57zM400 -11q-137 0 -219 82.5t-82 232.5v424h70v-419q0 -122 61.5 -189.5t171.5 -67.5q107 0 168 64.5t61 187.5v424h70v-418q0 -155 -81.5 -238t-219.5 -83z" />
    <glyph glyph-name="uhungarumlaut" unicode="&#x171;" horiz-adv-x="649" 
d="M209 619l96 145l68 -35l-109 -110h-55zM358 619l96 145l69 -35l-110 -110h-55zM297 -12q-97 0 -153 59.5t-56 157.5v329h67v-314q0 -79 42 -125t116 -46q73 0 122 50t49 128v307h67v-534h-67v96q-63 -108 -187 -108z" />
    <glyph glyph-name="Uogonek" unicode="&#x172;" horiz-adv-x="800" 
d="M464 -128v-43h-7q-64 2 -98 24t-34 59q0 39 40 79q-122 10 -194 91t-72 222v424h70v-419q0 -122 61.5 -189.5t171.5 -67.5q107 0 168 64.5t61 187.5v424h70v-418q0 -147 -73.5 -229.5t-198.5 -90.5q-43 -37 -43 -69q0 -43 78 -49z" />
    <glyph glyph-name="uogonek" unicode="&#x173;" horiz-adv-x="649" 
d="M567 -171h-7q-64 2 -98 24t-34 59q0 45 56 93v91q-63 -108 -187 -108q-97 0 -153 59.5t-56 157.5v329h67v-314q0 -79 42 -125t116 -46q73 0 122 50t49 128v307h67v-534h-8q-29 -25 -41.5 -42t-12.5 -37q0 -43 78 -49v-43z" />
    <glyph glyph-name="Wcircumflex" unicode="&#x174;" horiz-adv-x="1159" 
d="M437 794l111 118h64l111 -118h-67l-77 63l-77 -63h-65zM316 -5l-262 733h77l217 -625l206 627h56l205 -627l217 625h73l-261 -733h-59l-205 609l-206 -609h-58z" />
    <glyph glyph-name="wcircumflex" unicode="&#x175;" horiz-adv-x="905" 
d="M316 619l107 132h58l108 -132h-60l-78 70l-78 -70h-57zM243 -4l-191 538h73l149 -446l152 449h55l152 -449l150 446h70l-191 -538h-58l-151 437l-152 -437h-58z" />
    <glyph glyph-name="Ycircumflex" unicode="&#x176;" horiz-adv-x="755" 
d="M234 790l111 118h64l111 -118h-67l-77 63l-77 -63h-65zM342 0v288l-307 440h86l257 -376l259 376h82l-307 -439v-289h-70z" />
    <glyph glyph-name="ycircumflex" unicode="&#x177;" horiz-adv-x="623" 
d="M179 619l107 132h58l108 -132h-60l-78 70l-78 -70h-57zM325 74l180 460h73l-228 -552q-34 -82 -75.5 -117t-101.5 -35q-56 0 -111 26l23 55q42 -20 87 -20q39 0 66 25t54 86l-249 532h75z" />
    <glyph glyph-name="Ydieresis" unicode="&#x178;" horiz-adv-x="755" 
d="M239 790v87h88v-87h-88zM429 790v87h87v-87h-87zM342 0v288l-307 440h86l257 -376l259 376h82l-307 -439v-289h-70z" />
    <glyph glyph-name="Zacute" unicode="&#x179;" horiz-adv-x="729" 
d="M345 794l101 129l73 -34l-116 -95h-58zM75 0v44l483 621h-466v63h563v-44l-484 -621h484v-63h-580z" />
    <glyph glyph-name="zacute" unicode="&#x17a;" horiz-adv-x="588" 
d="M271 619l95 145l74 -35l-115 -110h-54zM64 0v41l369 435h-355v58h449v-41l-369 -435h369v-58h-463z" />
    <glyph glyph-name="Zdotaccent" unicode="&#x17b;" horiz-adv-x="729" 
d="M328 794v87h90v-87h-90zM75 0v44l483 621h-466v63h563v-44l-484 -621h484v-63h-580z" />
    <glyph glyph-name="zdotaccent" unicode="&#x17c;" horiz-adv-x="588" 
d="M254 619v92h88v-92h-88zM64 0v41l369 435h-355v58h449v-41l-369 -435h369v-58h-463z" />
    <glyph glyph-name="Zcaron" unicode="&#x17d;" horiz-adv-x="729" 
d="M516 912l-111 -118h-64l-111 118h67l77 -63l77 63h65zM75 0v44l483 621h-466v63h563v-44l-484 -621h484v-63h-580z" />
    <glyph glyph-name="zcaron" unicode="&#x17e;" horiz-adv-x="588" 
d="M435 751l-108 -132h-58l-107 132h59l78 -70l78 70h58zM64 0v41l369 435h-355v58h449v-41l-369 -435h369v-58h-463z" />
    <glyph glyph-name="uni018F" unicode="&#x18f;" horiz-adv-x="839" 
d="M102 601q123 139 306 139q157 0 255 -105.5t98 -269.5v-3q0 -158 -99 -266t-248 -108q-155 0 -246 107.5t-91 270.5v1q0 18 1 30h610q-9 122 -85 201t-195 79q-149 0 -258 -122zM414 52q116 0 190.5 79t83.5 204h-538q7 -127 79 -205t185 -78z" />
    <glyph glyph-name="florin" unicode="&#x192;" horiz-adv-x="541" 
d="M100 -5q-24 0 -52 4v58q20 -4 46 -4q68 0 83 82l48 258h-107v59h118l25 132q15 78 52 113.5t104 35.5q47 0 81 -11v-58q-40 10 -72 10q-41 0 -63.5 -23t-32.5 -75l-23 -124h155v-59h-165l-50 -264q-13 -69 -48.5 -101.5t-98.5 -32.5z" />
    <glyph glyph-name="Aringacute" unicode="&#x1fa;" horiz-adv-x="832" 
d="M384 913l102 117l71 -33l-115 -84h-58zM416 717q29 0 49.5 18.5t20.5 45.5q0 28 -20.5 46.5t-49.5 18.5q-30 0 -50 -18.5t-20 -46.5q0 -27 20 -45.5t50 -18.5zM237 261h355l-177 393zM48 0l315 692q-60 28 -60 89q0 43 33 72.5t80 29.5t80 -29.5t33 -72.5q0 -61 -61 -90
l316 -691h-76l-88 198h-411l-89 -198h-72z" />
    <glyph glyph-name="aringacute" unicode="&#x1fb;" horiz-adv-x="610" 
d="M276 859l97 127l73 -35l-113 -92h-57zM305 617q-46 0 -78.5 31t-32.5 75t32.5 75.5t78.5 31.5t78.5 -31.5t32.5 -75.5t-32.5 -75t-78.5 -31zM305 651q29 0 50.5 21.5t21.5 50.5q0 30 -21.5 51.5t-50.5 21.5t-50.5 -21.5t-21.5 -51.5q0 -29 21.5 -50.5t50.5 -21.5zM268 45
q79 0 134.5 43.5t55.5 109.5v56q-90 23 -169 23q-78 0 -121 -31.5t-43 -84.5v-3q0 -51 41.5 -82t101.5 -31zM259 -12q-81 0 -142 44.5t-61 122.5v2q0 82 63 127.5t168 45.5q89 0 169 -23v21q0 75 -43.5 114.5t-122.5 39.5q-80 0 -165 -41l-21 56q97 45 192 45q111 0 171 -58
q55 -57 55 -154v-330h-66v84q-71 -96 -197 -96z" />
    <glyph glyph-name="AEacute" unicode="&#x1fc;" horiz-adv-x="1097" 
d="M633 794l101 129l73 -34l-116 -95h-58zM251 261h266v405h-26zM24 0l434 728h565v-64h-436v-265h389v-64h-389v-271h441v-64h-511v198h-302l-117 -198h-74z" />
    <glyph glyph-name="aeacute" unicode="&#x1fd;" horiz-adv-x="1002" 
d="M473 619l95 145l74 -35l-115 -110h-54zM512 295h364q-6 83 -52.5 138t-127.5 55q-74 0 -125 -54.5t-59 -138.5zM257 -12q-82 0 -141.5 44.5t-59.5 122.5v2q0 82 62 127.5t164 45.5q82 0 162 -23v21q0 75 -41.5 114.5t-118.5 39.5q-74 0 -159 -41l-21 56q95 45 186 45
q160 0 199 -123q32 59 87.5 93.5t122.5 34.5q112 0 179 -80.5t67 -201.5q0 -14 -1 -24h-432q7 -89 63.5 -141.5t133.5 -52.5q100 0 175 80l44 -39q-92 -100 -221 -100q-65 0 -121.5 29t-92.5 82q-102 -111 -236 -111zM264 45q114 0 202 103q-20 49 -23 107q-92 22 -158 22
q-76 0 -118 -31.5t-42 -84.5v-3q0 -52 40 -82.5t99 -30.5z" />
    <glyph glyph-name="Oslashacute" unicode="&#x1fe;" horiz-adv-x="894" 
d="M419 804l101 129l73 -34l-116 -95h-58zM749 733h76l-104 -112q95 -106 95 -255v-2q0 -154 -104 -265t-266 -111q-135 0 -233 80l-68 -73h-76l104 111q-95 106 -95 256v2q0 154 104 265t266 111q134 0 232 -80zM149 365q0 -118 72 -208l415 452q-80 69 -190 69
q-128 0 -212.5 -90.5t-84.5 -221.5v-1zM448 50q128 0 212.5 90.5t84.5 221.5v1q0 118 -72 208l-416 -452q82 -70 191 -69z" />
    <glyph glyph-name="oslashacute" unicode="&#x1ff;" horiz-adv-x="679" 
d="M312 619l95 145l74 -35l-115 -110h-54zM561 541h71l-83 -88q68 -77 68 -184v-2q0 -114 -80 -196.5t-198 -82.5q-97 0 -171 58l-50 -51h-71l83 87q-67 78 -67 183v2q0 115 79.5 197.5t198.5 82.5q98 0 171 -59zM132 268q0 -78 44 -138l293 310q-57 47 -130 47
q-90 0 -148.5 -63t-58.5 -155v-1zM341 47q90 0 148.5 63t58.5 155v1q0 79 -46 139l-292 -311q57 -48 131 -47z" />
    <glyph glyph-name="Scommaaccent" unicode="&#x218;" horiz-adv-x="676" 
d="M358 -10q-166 0 -295 116l44 52q60 -55 119.5 -80.5t135.5 -25.5t124 37.5t48 96.5v2q0 56 -41 88.5t-156 56.5q-130 27 -187.5 74.5t-57.5 133.5v2q0 84 67 139.5t170 55.5q78 0 137 -21.5t116 -67.5l-42 -54q-97 81 -213 81q-73 0 -119 -36.5t-46 -90.5v-2
q0 -57 42.5 -90.5t161.5 -58.5q125 -26 181.5 -74t56.5 -130v-2q0 -90 -69 -146t-177 -56zM286 -245l-7 28q65 13 61 61h-38v80h86v-70q0 -87 -102 -99z" />
    <glyph glyph-name="scommaaccent" unicode="&#x219;" horiz-adv-x="528" 
d="M273 -10q-58 0 -117.5 21t-103.5 57l36 50q90 -69 188 -69q52 0 85.5 25.5t33.5 66.5v2q0 39 -34.5 59.5t-102.5 39.5q-34 10 -52 16t-46.5 19.5t-43 27t-26 36t-11.5 50.5v2q0 67 50 109.5t129 42.5q103 0 191 -60l-32 -52q-83 53 -161 53q-50 0 -81 -24t-31 -61v-2
q0 -16 8.5 -29.5t20 -22.5t33 -18t37.5 -14t44 -13q39 -12 64 -22t53.5 -27.5t42.5 -43t14 -59.5v-2q0 -72 -53.5 -115t-134.5 -43zM208 -244l-7 28q65 13 61 61h-38v80h86v-70q0 -87 -102 -99z" />
    <glyph glyph-name="schwa" unicode="&#x259;" horiz-adv-x="622" 
d="M294 547q111 0 188 -78t77 -200v-2q0 -117 -73 -198t-182 -81q-113 0 -180.5 80t-67.5 201q0 15 1 24h433q-8 89 -64.5 141.5t-133.5 52.5q-99 0 -175 -79l-43 38q89 101 220 101zM490 239h-364q6 -82 52.5 -137t127.5 -55q74 0 125 54.5t59 137.5z" />
    <glyph glyph-name="circumflex" unicode="&#x2c6;" horiz-adv-x="530" 
d="M129 619l107 132h58l108 -132h-60l-78 70l-78 -70h-57z" />
    <glyph glyph-name="caron" unicode="&#x2c7;" horiz-adv-x="530" 
d="M402 751l-108 -132h-58l-107 132h59l78 -70l78 70h58z" />
    <glyph glyph-name="breve" unicode="&#x2d8;" horiz-adv-x="530" 
d="M265 617q-62 0 -102.5 33t-44.5 91h50q22 -66 97 -66t97 66h50q-4 -58 -44.5 -91t-102.5 -33z" />
    <glyph glyph-name="dotaccent" unicode="&#x2d9;" horiz-adv-x="530" 
d="M221 619v92h88v-92h-88z" />
    <glyph glyph-name="ring" unicode="&#x2da;" horiz-adv-x="530" 
d="M265 617q-46 0 -78.5 31t-32.5 75t32.5 75.5t78.5 31.5t78.5 -31.5t32.5 -75.5t-32.5 -75t-78.5 -31zM265 651q29 0 50.5 21.5t21.5 50.5q0 30 -21.5 51.5t-50.5 21.5t-50.5 -21.5t-21.5 -51.5q0 -29 21.5 -50.5t50.5 -21.5z" />
    <glyph glyph-name="ogonek" unicode="&#x2db;" horiz-adv-x="530" 
d="M344 -128v-43h-7q-64 2 -98 24t-34 59q0 48 71 105l47 -15q-31 -25 -44 -43t-13 -38q0 -43 78 -49z" />
    <glyph glyph-name="tilde" unicode="&#x2dc;" horiz-adv-x="530" 
d="M334 619q-21 0 -71 21q-48 21 -65 21q-19 0 -30.5 -11t-22.5 -41l-43 12q15 57 36.5 80.5t57.5 23.5q21 0 71 -21q48 -21 65 -21q19 0 30.5 11t22.5 40l43 -11q-15 -57 -36.5 -80.5t-57.5 -23.5z" />
    <glyph glyph-name="hungarumlaut" unicode="&#x2dd;" horiz-adv-x="530" 
d="M109 619l96 145l68 -35l-109 -110h-55zM258 619l96 145l69 -35l-110 -110h-55z" />
    <glyph glyph-name="commaaccent" unicode="&#x326;" horiz-adv-x="530" 
d="M206 -244l-7 28q65 13 61 61h-38v80h86v-70q0 -87 -102 -99z" />
    <glyph glyph-name="uni0384" unicode="&#x384;" horiz-adv-x="530" 
d="M211 619l65 155l75 -31l-91 -124h-49z" />
    <glyph glyph-name="uni0385" unicode="&#x385;" horiz-adv-x="530" 
d="M221 619l40 173l75 -18l-68 -155h-47zM101 619v91h81v-91h-81zM348 619v91h81v-91h-81z" />
    <glyph glyph-name="uni0386" unicode="&#x386;" horiz-adv-x="832" 
d="M112 548l18 180h78l-57 -180h-39zM237 261h355l-177 393zM48 0l335 733h66l335 -733h-76l-88 198h-411l-89 -198h-72z" />
    <glyph glyph-name="uni0387" unicode="&#x387;" horiz-adv-x="268" 
d="M92 434v100h84v-100h-84z" />
    <glyph glyph-name="uni0388" unicode="&#x388;" horiz-adv-x="707" 
d="M110 0v728h523v-64h-453v-265h406v-64h-406v-271h458v-64h-528zM-50 548l18 180h78l-57 -180h-39z" />
    <glyph glyph-name="uni0389" unicode="&#x389;" horiz-adv-x="800" 
d="M-50 548l18 180h78l-57 -180h-39zM110 0v728h70v-330h440v330h70v-728h-70v334h-440v-334h-70z" />
    <glyph glyph-name="uni038A" unicode="&#x38a;" horiz-adv-x="305" 
d="M-49 548l18 180h78l-57 -180h-39zM117 0v728h70v-728h-70z" />
    <glyph glyph-name="uni038C" unicode="&#x38c;" horiz-adv-x="894" 
d="M446 -12q-162 0 -265 110t-103 264v2q0 154 104 265t266 111t265 -110t103 -264v-2q0 -154 -104 -265t-266 -111zM-11 548l18 180h78l-57 -180h-39zM448 51q127 0 211 90t84 221v2q0 131 -85 222t-212 91t-211 -90t-84 -221v-2q0 -131 85 -222t212 -91z" />
    <glyph glyph-name="uni038E" unicode="&#x38e;" horiz-adv-x="755" 
d="M-102 548l18 180h78l-57 -180h-39zM342 0v288l-307 440h86l257 -376l259 376h82l-307 -439v-289h-70z" />
    <glyph glyph-name="uni038F" unicode="&#x38f;" horiz-adv-x="913" 
d="M-11 548l18 180h78l-57 -180h-39zM457 740q160 0 260 -99t100 -249v-1q0 -194 -196 -330l221 2v-63h-310v59q105 69 158.5 144t53.5 185v1q0 127 -80 208t-208 80q-128 0 -207.5 -80.5t-79.5 -207.5v-1q0 -106 54 -183.5t158 -145.5v-59h-310v63l220 -2
q-96 69 -145.5 148.5t-49.5 182.5v1q0 147 100.5 247.5t260.5 99.5z" />
    <glyph glyph-name="uni0390" unicode="&#x390;" horiz-adv-x="302" 
d="M100 619l40 173l75 -18l-68 -155h-47zM-20 619v91h81v-91h-81zM227 619v91h81v-91h-81zM96 130v404h67v-402q0 -81 72 -81q23 0 41 5v-58q-30 -6 -52 -6q-128 0 -128 138z" />
    <glyph glyph-name="uni0391" unicode="&#x391;" horiz-adv-x="832" 
d="M237 261h355l-177 393zM48 0l335 733h66l335 -733h-76l-88 198h-411l-89 -198h-72z" />
    <glyph glyph-name="uni0392" unicode="&#x392;" horiz-adv-x="761" 
d="M110 0v728h306q124 0 190 -64q47 -49 47 -116v-2q0 -120 -120 -171q160 -44 160 -174v-2q0 -92 -71.5 -145.5t-190.5 -53.5h-321zM582 537v2q0 57 -45 91.5t-125 34.5h-233v-267h227q79 0 127.5 36.5t48.5 102.5zM623 204q0 63 -53 97.5t-153 34.5h-238v-273h253
q88 0 139.5 37.5t51.5 101.5v2z" />
    <glyph glyph-name="uni0393" unicode="&#x393;" horiz-adv-x="649" 
d="M110 0v728h488v-64h-418v-664h-70z" />
    <glyph glyph-name="uni0394" unicode="&#x394;" horiz-adv-x="831" 
d="M62 0l-6 52l325 681h69l325 -681l-6 -52h-707zM414 655l-279 -591h557z" />
    <glyph glyph-name="uni0395" unicode="&#x395;" horiz-adv-x="707" 
d="M110 0v728h523v-64h-453v-265h406v-64h-406v-271h458v-64h-528z" />
    <glyph glyph-name="uni0396" unicode="&#x396;" horiz-adv-x="729" 
d="M75 0v44l483 621h-466v63h563v-44l-484 -621h484v-63h-580z" />
    <glyph glyph-name="uni0397" unicode="&#x397;" horiz-adv-x="800" 
d="M110 0v728h70v-330h440v330h70v-728h-70v334h-440v-334h-70z" />
    <glyph glyph-name="uni0398" unicode="&#x398;" horiz-adv-x="894" 
d="M446 -12q-162 0 -265 110t-103 264v2q0 154 104 265t266 111t265 -110t103 -264v-2q0 -154 -104 -265t-266 -111zM448 51q128 0 212 90t84 221v2q0 131 -85 222t-213 91t-212 -90t-84 -221v-2q0 -131 85 -222t213 -91zM646 399v-66h-398v66h398z" />
    <glyph glyph-name="uni0399" unicode="&#x399;" horiz-adv-x="305" 
d="M117 0v728h70v-728h-70z" />
    <glyph glyph-name="uni039A" unicode="&#x39a;" horiz-adv-x="756" 
d="M110 0v728h70v-454l438 454h93l-316 -319l329 -409h-89l-289 359l-166 -168v-191h-70z" />
    <glyph glyph-name="uni039B" unicode="&#x39b;" horiz-adv-x="813" 
d="M437 733l328 -733h-78l-282 643l-283 -643h-74l326 733h63z" />
    <glyph glyph-name="uni039C" unicode="&#x39c;" horiz-adv-x="913" 
d="M110 0v728h69l277 -412l277 412h70v-728h-70v609l-276 -403h-4l-275 402v-608h-68z" />
    <glyph glyph-name="uni039D" unicode="&#x39d;" horiz-adv-x="832" 
d="M110 0v728h66l478 -606v606h68v-728h-55l-489 619v-619h-68z" />
    <glyph glyph-name="uni039E" unicode="&#x39e;" horiz-adv-x="707" 
d="M633 662h-559v66h559v-66zM604 334h-501v66h501v-66zM638 0h-569v66h569v-66z" />
    <glyph glyph-name="uni039F" unicode="&#x39f;" horiz-adv-x="894" 
d="M446 -12q-162 0 -265 110t-103 264v2q0 154 104 265t266 111t265 -110t103 -264v-2q0 -154 -104 -265t-266 -111zM448 51q127 0 211 90t84 221v2q0 131 -85 222t-212 91t-211 -90t-84 -221v-2q0 -131 85 -222t212 -91z" />
    <glyph glyph-name="uni03A0" unicode="&#x3a0;" horiz-adv-x="800" 
d="M110 0v728h580v-728h-70v664h-440v-664h-70z" />
    <glyph glyph-name="uni03A1" unicode="&#x3a1;" horiz-adv-x="705" 
d="M110 0v728h269q123 0 197.5 -61t74.5 -166v-2q0 -111 -82 -173.5t-204 -62.5h-185v-263h-70zM180 327h189q95 0 153.5 46.5t58.5 122.5v2q0 80 -56 123t-151 43h-194v-337z" />
    <glyph glyph-name="uni03A3" unicode="&#x3a3;" horiz-adv-x="706" 
d="M465 364l-292 -301h471v-63h-569v52l301 312l-299 312v52h560v-63h-462z" />
    <glyph glyph-name="uni03A4" unicode="&#x3a4;" horiz-adv-x="675" 
d="M303 0v663h-249v65h567v-65h-248v-663h-70z" />
    <glyph glyph-name="uni03A5" unicode="&#x3a5;" horiz-adv-x="755" 
d="M342 0v288l-307 440h86l257 -376l259 376h82l-307 -439v-289h-70z" />
    <glyph glyph-name="uni03A6" unicode="&#x3a6;" horiz-adv-x="953" 
d="M441 -15v91q-177 3 -276 81.5t-99 209.5v1q0 128 99.5 208t275.5 82v85h70v-85q177 -3 276.5 -81.5t99.5 -209.5v-1q0 -128 -100 -208t-276 -82v-91h-70zM814 368q0 100 -77.5 163t-226.5 65v-458q148 2 226 64t78 165v1zM138 366q0 -101 77.5 -164t227.5 -64v458
q-149 -2 -227 -64t-78 -165v-1z" />
    <glyph glyph-name="uni03A7" unicode="&#x3a7;" horiz-adv-x="762" 
d="M616 728h81l-273 -357l284 -371h-83l-245 324l-244 -324h-81l284 371l-274 357h83l234 -310z" />
    <glyph glyph-name="uni03A8" unicode="&#x3a8;" horiz-adv-x="900" 
d="M814 728v-250q0 -149 -87.5 -221.5t-241.5 -74.5v-182h-70v182q-154 3 -241.5 74.5t-87.5 218.5v253h70v-250q0 -227 259 -232v482h69v-482q128 2 194 57t66 172v253h70z" />
    <glyph glyph-name="uni03A9" unicode="&#x3a9;" horiz-adv-x="913" 
d="M457 740q160 0 260 -99t100 -249v-1q0 -194 -196 -330l221 2v-63h-310v59q105 69 158.5 144t53.5 185v1q0 127 -80 208t-208 80q-128 0 -207.5 -80.5t-79.5 -207.5v-1q0 -106 54 -183.5t158 -145.5v-59h-310v63l220 -2q-96 69 -145.5 148.5t-49.5 182.5v1
q0 147 100.5 247.5t260.5 99.5z" />
    <glyph glyph-name="uni03AA" unicode="&#x3aa;" horiz-adv-x="305" 
d="M14 794v87h88v-87h-88zM204 794v87h87v-87h-87zM117 0v728h70v-728h-70z" />
    <glyph glyph-name="uni03AB" unicode="&#x3ab;" horiz-adv-x="755" 
d="M239 790v87h88v-87h-88zM429 790v87h87v-87h-87zM342 0v288l-307 440h86l257 -376l259 376h82l-307 -439v-289h-70z" />
    <glyph glyph-name="uni03AC" unicode="&#x3ac;" horiz-adv-x="738" 
d="M324 619l65 155l75 -31l-91 -124h-49zM333 50q81 0 142.5 61t61.5 155v2q0 94 -61.5 155.5t-142.5 61.5q-84 0 -141 -59t-57 -157v-2q0 -96 58 -156.5t140 -60.5zM714 56v-58q-30 -6 -52 -6q-117 0 -126 115q-82 -119 -213 -119q-103 0 -180.5 76t-77.5 201v2
q0 125 77.5 202.5t179.5 77.5q131 0 212 -121v108h67v-402q0 -81 73 -81q22 0 40 5z" />
    <glyph glyph-name="uni03AD" unicode="&#x3ad;" horiz-adv-x="587" 
d="M271 619l65 155l75 -31l-91 -124h-49zM415 242h-120q-80 0 -120.5 -26.5t-40.5 -67.5v-1q0 -45 45.5 -72.5t123.5 -27.5q108 0 205 59l32 -50q-108 -68 -239 -68q-114 0 -175 43t-61 111v1q0 50 34 83t85 45q-104 32 -104 124v2q0 63 59 106t165 43q126 0 229 -69
l-36 -51q-88 62 -193 62q-74 0 -114.5 -27.5t-40.5 -69.5v-1q0 -44 38 -67.5t107 -23.5h121v-57z" />
    <glyph glyph-name="uni03AE" unicode="&#x3ae;" horiz-adv-x="649" 
d="M297 619l65 155l75 -31l-91 -124h-49zM561 -166h-67v480q0 79 -42 125t-116 46q-73 0 -122 -50t-49 -128v-307h-67v534h67v-95q63 108 187 108q97 0 153 -60t56 -157v-496z" />
    <glyph glyph-name="uni03AF" unicode="&#x3af;" horiz-adv-x="302" 
d="M100 619l65 155l75 -31l-91 -124h-49zM96 130v404h67v-402q0 -81 72 -81q23 0 41 5v-58q-30 -6 -52 -6q-128 0 -128 138z" />
    <glyph glyph-name="uni03B0" unicode="&#x3b0;" horiz-adv-x="652" 
d="M282 619l40 173l75 -18l-68 -155h-47zM162 619v91h81v-91h-81zM409 619v91h81v-91h-81zM325 -12q-108 0 -171.5 61.5t-63.5 176.5v308h67v-305q0 -90 45.5 -135.5t123.5 -45.5t123.5 45t45.5 135v306h67v-306q0 -116 -64 -178t-173 -62z" />
    <glyph glyph-name="uni03B1" unicode="&#x3b1;" horiz-adv-x="738" 
d="M333 50q81 0 142.5 61t61.5 155v2q0 94 -61.5 155.5t-142.5 61.5q-84 0 -141 -59t-57 -157v-2q0 -96 58 -156.5t140 -60.5zM714 56v-58q-30 -6 -52 -6q-117 0 -126 115q-82 -119 -213 -119q-103 0 -180.5 76t-77.5 201v2q0 125 77.5 202.5t179.5 77.5q131 0 212 -121v108
h67v-402q0 -81 73 -81q22 0 40 5z" />
    <glyph glyph-name="uni03B2" unicode="&#x3b2;" horiz-adv-x="684" 
d="M165 505v-99h124q108 0 169 42t61 117q0 62 -45.5 101.5t-121.5 39.5q-88 0 -137.5 -53.5t-49.5 -147.5zM290 351h-125v-84q0 -100 61.5 -159.5t155.5 -59.5q78 0 123.5 39.5t45.5 99.5q0 77 -65 120.5t-196 43.5zM165 -166h-67v671q0 122 68.5 191.5t185.5 69.5
q109 0 173 -55.5t64 -144.5v-1q0 -71 -43.5 -118.5t-119.5 -63.5q195 -42 195 -199v-1q0 -82 -62 -139t-170 -56q-146 0 -224 120v-274z" />
    <glyph glyph-name="uni03B3" unicode="&#x3b3;" horiz-adv-x="618" 
d="M574 534l-232 -527v-173h-67v175l-231 525h76l189 -455l191 455h74z" />
    <glyph glyph-name="uni03B4" unicode="&#x3b4;" horiz-adv-x="665" 
d="M527 701l-307 1l190 -154q100 -80 145 -147.5t45 -150.5q0 -109 -75.5 -185.5t-195.5 -76.5t-193 74.5t-73 183.5q0 102 58.5 171t189.5 132l-191 161v49h407v-58zM368 503l-8 6q-127 -59 -178.5 -119.5t-51.5 -143.5q0 -85 55 -142t144 -57q91 0 147 58t56 143
q0 70 -37 125t-127 130z" />
    <glyph glyph-name="uni03B5" unicode="&#x3b5;" horiz-adv-x="587" 
d="M415 242h-120q-80 0 -120.5 -26.5t-40.5 -67.5v-1q0 -45 45.5 -72.5t123.5 -27.5q108 0 205 59l32 -50q-108 -68 -239 -68q-114 0 -175 43t-61 111v1q0 50 34 83t85 45q-104 32 -104 124v2q0 63 59 106t165 43q126 0 229 -69l-36 -51q-88 62 -193 62q-74 0 -114.5 -27.5
t-40.5 -69.5v-1q0 -44 38 -67.5t107 -23.5h121v-57z" />
    <glyph glyph-name="uni03B6" unicode="&#x3b6;" horiz-adv-x="567" 
d="M461 -133v121l-128 16q-135 15 -202 70.5t-67 142.5q0 67 35.5 124t139.5 161l198 198h-332v59h422v-53l-241 -246q-90 -92 -121 -138t-31 -102q0 -129 212 -153l179 -22v-178h-64z" />
    <glyph glyph-name="uni03B7" unicode="&#x3b7;" horiz-adv-x="649" 
d="M561 -166h-67v480q0 79 -42 125t-116 46q-73 0 -122 -50t-49 -128v-307h-67v534h67v-95q63 108 187 108q97 0 153 -60t56 -157v-496z" />
    <glyph glyph-name="uni03B8" unicode="&#x3b8;" horiz-adv-x="695" 
d="M347 -12q-86 0 -149.5 53t-94.5 136.5t-31 184.5v26q0 157 74 266t202 109t201.5 -109t73.5 -266v-26q0 -156 -74 -265t-202 -109zM347 702q-92 0 -148 -83.5t-58 -212.5h413q-3 128 -60 212t-147 84zM349 48q92 0 147.5 85t57.5 214h-413q2 -130 59 -214.5t149 -84.5z
" />
    <glyph glyph-name="uni03B9" unicode="&#x3b9;" horiz-adv-x="302" 
d="M96 130v404h67v-402q0 -81 72 -81q23 0 41 5v-58q-30 -6 -52 -6q-128 0 -128 138z" />
    <glyph glyph-name="uni03BA" unicode="&#x3ba;" horiz-adv-x="597" 
d="M165 534v-324l310 324h87l-230 -236l233 -298h-82l-198 252l-120 -121v-131h-67v534h67z" />
    <glyph glyph-name="uni03BB" unicode="&#x3bb;" horiz-adv-x="629" 
d="M101 689v58q35 15 73 15q63 0 94 -33.5t69 -127.5l248 -601h-74l-190 470l-203 -470h-73l243 547l-13 34q-30 71 -51.5 96t-60.5 25q-27 0 -62 -13z" />
    <glyph glyph-name="uni03BC" unicode="&#x3bc;" horiz-adv-x="701" 
d="M676 56v-58q-30 -6 -52 -6q-109 0 -124 100q-61 -104 -169 -104q-118 0 -173 111h-1q7 -59 7 -133v-132h-66v700h67v-308q0 -75 47.5 -126.5t118.5 -51.5t118 51.5t47 126.5v308h67v-410q3 -73 73 -73q22 0 40 5z" />
    <glyph glyph-name="uni03BD" unicode="&#x3bd;" horiz-adv-x="618" 
d="M280 -4l-236 538h76l189 -458l191 458h74l-236 -538h-58z" />
    <glyph glyph-name="uni03BE" unicode="&#x3be;" horiz-adv-x="580" 
d="M552 683l-39 -52q-88 74 -182 74q-74 0 -119 -39t-45 -105q0 -71 53 -110.5t133 -39.5h98v-58h-111q-95 0 -151 -40t-56 -103q0 -68 57 -100t168 -44l174 -21v-178h-64v121l-122 15q-283 28 -283 202q0 72 47.5 117t117.5 64q-19 7 -39 19t-42 32.5t-36 53.5t-14 72
q0 85 64 144t170 59q117 0 221 -83z" />
    <glyph glyph-name="uni03BF" unicode="&#x3bf;" horiz-adv-x="679" 
d="M339 -12q-118 0 -197 81.5t-79 195.5v2q0 115 79.5 197.5t198.5 82.5q118 0 197 -81.5t79 -196.5v-2q0 -114 -80 -196.5t-198 -82.5zM341 49q89 0 147 63t58 153v2q0 91 -60 155t-147 64q-89 0 -147.5 -63t-58.5 -154v-2q0 -91 60 -154.5t148 -63.5z" />
    <glyph glyph-name="uni03C0" unicode="&#x3c0;" horiz-adv-x="727" 
d="M32 534h643v-60h-110v-342q0 -81 73 -81q22 0 40 5v-58q-30 -6 -52 -6q-128 0 -128 138v344h-289v-474h-67v474h-110v60z" />
    <glyph glyph-name="uni03C1" unicode="&#x3c1;" horiz-adv-x="686" 
d="M355 50q83 0 139 58.5t56 156.5v2q0 97 -56 157.5t-138 60.5q-87 0 -144.5 -60.5t-57.5 -156.5v-2q0 -94 60 -155t141 -61zM85 -166v431q0 121 76 201.5t193 80.5q112 0 189.5 -76.5t77.5 -201.5v-2q0 -125 -77.5 -202t-179.5 -77q-138 0 -212 125v-279h-67z" />
    <glyph glyph-name="uni03C2" unicode="&#x3c2;" horiz-adv-x="603" 
d="M467 -133v122l-109 13q-143 17 -219 87.5t-76 190.5v1q0 111 76.5 189t193.5 77q127 0 220 -102l-48 -49q-78 90 -174 90q-85 0 -141.5 -58.5t-56.5 -146.5v-1q0 -186 238 -215l161 -20v-178h-65z" />
    <glyph glyph-name="uni03C3" unicode="&#x3c3;" horiz-adv-x="706" 
d="M671 474l-184 1q60 -34 93.5 -90t33.5 -125v-1q0 -113 -79 -192t-198 -79q-118 0 -196 78.5t-78 192.5v2q0 115 79.5 194t205.5 79h323v-60zM339 49q90 0 147.5 60t57.5 150v1q0 92 -59 152.5t-148 60.5t-146.5 -60.5t-57.5 -150.5v-1q0 -91 59 -151.5t147 -60.5z" />
    <glyph glyph-name="uni03C4" unicode="&#x3c4;" horiz-adv-x="587" 
d="M543 474h-229v-312q0 -62 25 -87t77 -25q40 0 76 13v-57q-38 -15 -83 -15q-81 0 -121.5 38.5t-40.5 130.5v314h-219v60h515v-60z" />
    <glyph glyph-name="uni03C5" unicode="&#x3c5;" horiz-adv-x="652" 
d="M325 -12q-108 0 -171.5 61.5t-63.5 176.5v308h67v-305q0 -90 45.5 -135.5t123.5 -45.5t123.5 45t45.5 135v306h67v-306q0 -116 -64 -178t-173 -62z" />
    <glyph glyph-name="uni03C6" unicode="&#x3c6;" horiz-adv-x="867" 
d="M467 -166h-67v163q-162 3 -250 77.5t-88 191.5v1q0 116 89 192t249 78v222h67v-222q161 -3 249.5 -77.5t88.5 -191.5v-1q0 -117 -89 -192.5t-249 -77.5v-163zM132 266q0 -93 69 -150.5t200 -58.5v421q-132 -2 -200.5 -59.5t-68.5 -151.5v-1zM735 268q0 93 -69 151
t-200 59v-421q132 2 200.5 59t68.5 151v1z" />
    <glyph glyph-name="uni03C7" unicode="&#x3c7;" horiz-adv-x="630" 
d="M137 534l179 -281l180 281h79l-220 -330l247 -370h-82l-206 319l-207 -319h-78l244 368l-218 332h82z" />
    <glyph glyph-name="uni03C8" unicode="&#x3c8;" horiz-adv-x="844" 
d="M456 -166h-67v163q-144 1 -222.5 74.5t-78.5 197.5v265h67v-263q0 -98 60.5 -155.5t173.5 -58.5v702h66v-702q112 1 173 58t61 156v263h67v-262q0 -125 -79 -199t-221 -76v-163z" />
    <glyph glyph-name="uni03C9" unicode="&#x3c9;" horiz-adv-x="926" 
d="M430 432h66v-155q0 -104 38.5 -166.5t112.5 -62.5q63 0 101.5 51.5t38.5 140.5q0 151 -132 294h81q119 -135 119 -295q0 -117 -56 -184t-148 -67q-75 0 -122.5 44.5t-66.5 112.5q-18 -68 -65.5 -112.5t-123.5 -44.5q-92 0 -147 66.5t-55 184.5q0 155 119 295h80
q-131 -138 -131 -294q0 -88 38.5 -140t98.5 -52q76 0 115 62t39 167v155z" />
    <glyph glyph-name="uni03CA" unicode="&#x3ca;" horiz-adv-x="302" 
d="M1 619v92h84v-92h-84zM177 619v92h84v-92h-84zM96 130v404h67v-402q0 -81 72 -81q23 0 41 5v-58q-30 -6 -52 -6q-128 0 -128 138z" />
    <glyph glyph-name="uni03CB" unicode="&#x3cb;" horiz-adv-x="652" 
d="M196 619v92h84v-92h-84zM372 619v92h84v-92h-84zM325 -12q-108 0 -171.5 61.5t-63.5 176.5v308h67v-305q0 -90 45.5 -135.5t123.5 -45.5t123.5 45t45.5 135v306h67v-306q0 -116 -64 -178t-173 -62z" />
    <glyph glyph-name="uni03CC" unicode="&#x3cc;" horiz-adv-x="679" 
d="M308 619l65 155l75 -31l-91 -124h-49zM339 -12q-118 0 -197 81.5t-79 195.5v2q0 115 79.5 197.5t198.5 82.5q118 0 197 -81.5t79 -196.5v-2q0 -114 -80 -196.5t-198 -82.5zM341 49q89 0 147 63t58 153v2q0 91 -60 155t-147 64q-89 0 -147.5 -63t-58.5 -154v-2
q0 -91 60 -154.5t148 -63.5z" />
    <glyph glyph-name="uni03CD" unicode="&#x3cd;" horiz-adv-x="652" 
d="M294 619l65 155l75 -31l-91 -124h-49zM325 -12q-108 0 -171.5 61.5t-63.5 176.5v308h67v-305q0 -90 45.5 -135.5t123.5 -45.5t123.5 45t45.5 135v306h67v-306q0 -116 -64 -178t-173 -62z" />
    <glyph glyph-name="uni03CE" unicode="&#x3ce;" horiz-adv-x="926" 
d="M431 619l65 155l75 -31l-91 -124h-49zM430 432h66v-155q0 -104 38.5 -166.5t112.5 -62.5q63 0 101.5 51.5t38.5 140.5q0 151 -132 294h81q119 -135 119 -295q0 -117 -56 -184t-148 -67q-75 0 -122.5 44.5t-66.5 112.5q-18 -68 -65.5 -112.5t-123.5 -44.5q-92 0 -147 66.5
t-55 184.5q0 155 119 295h80q-131 -138 -131 -294q0 -88 38.5 -140t98.5 -52q76 0 115 62t39 167v155z" />
    <glyph glyph-name="uni0400" unicode="&#x400;" horiz-adv-x="707" 
d="M402 794h-58l-116 95l73 34zM110 0v728h523v-64h-453v-265h406v-64h-406v-271h458v-64h-528z" />
    <glyph glyph-name="uni0401" unicode="&#x401;" horiz-adv-x="707" 
d="M235 794v87h88v-87h-88zM425 794v87h87v-87h-87zM110 0v728h523v-64h-453v-265h406v-64h-406v-271h458v-64h-528z" />
    <glyph glyph-name="uni0402" unicode="&#x402;" horiz-adv-x="888" 
d="M614 728v-65h-255v-237q97 29 198 29q133 0 204 -60.5t71 -167.5q0 -105 -73.5 -167t-202.5 -62h-22v63h17q105 0 157.5 43.5t52.5 121.5t-51 122t-159 44q-90 0 -192 -29v-363h-70v663h-239v65h564z" />
    <glyph glyph-name="uni0403" unicode="&#x403;" horiz-adv-x="649" 
d="M307 794l101 129l73 -34l-116 -95h-58zM110 0v728h488v-64h-418v-664h-70z" />
    <glyph glyph-name="uni0404" unicode="&#x404;" horiz-adv-x="783" 
d="M441 -12q-156 0 -259.5 108t-103.5 266v2q0 157 104.5 266.5t262.5 109.5q92 0 156.5 -29t126.5 -86l-47 -51q-105 103 -236 103q-118 0 -200.5 -79.5t-93.5 -199.5h415v-62h-415q9 -123 91.5 -204t201.5 -81q74 0 130 26.5t111 82.5l46 -45q-62 -63 -130 -95t-160 -32z
" />
    <glyph glyph-name="uni0405" unicode="&#x405;" horiz-adv-x="676" 
d="M358 -10q-166 0 -295 116l44 52q60 -55 119.5 -80.5t135.5 -25.5t124 37.5t48 96.5v2q0 56 -41 88.5t-156 56.5q-130 27 -187.5 74.5t-57.5 133.5v2q0 84 67 139.5t170 55.5q78 0 137 -21.5t116 -67.5l-42 -54q-97 81 -213 81q-73 0 -119 -36.5t-46 -90.5v-2
q0 -57 42.5 -90.5t161.5 -58.5q125 -26 181.5 -74t56.5 -130v-2q0 -90 -69 -146t-177 -56z" />
    <glyph glyph-name="uni0406" unicode="&#x406;" horiz-adv-x="305" 
d="M117 0v728h70v-728h-70z" />
    <glyph glyph-name="uni0407" unicode="&#x407;" horiz-adv-x="305" 
d="M14 794v87h88v-87h-88zM204 794v87h87v-87h-87zM117 0v728h70v-728h-70z" />
    <glyph glyph-name="uni0408" unicode="&#x408;" horiz-adv-x="583" 
d="M263 -10q-146 0 -223 132l53 41q34 -56 74 -83t98 -27q66 0 107.5 48t41.5 136v491h71v-489q0 -123 -67 -190q-61 -59 -155 -59z" />
    <glyph glyph-name="uni0409" unicode="&#x409;" horiz-adv-x="1073" 
d="M488 0v669h-4l-383 -669h-75l418 728h114v-269h188q123 0 197.5 -59.5t74.5 -164.5v-2q0 -110 -81 -171.5t-204 -61.5h-245zM558 64h178q95 0 153.5 45.5t58.5 120.5v2q0 79 -56 121.5t-150 42.5h-184v-332z" />
    <glyph glyph-name="uni040A" unicode="&#x40a;" horiz-adv-x="1195" 
d="M680 64h178q95 0 153.5 45.5t58.5 120.5v2q0 79 -56.5 121.5t-150.5 42.5h-183v-332zM610 0v334h-430v-334h-70v728h70v-330h430v330h70v-269h187q124 0 198.5 -59.5t74.5 -164.5v-2q0 -110 -81 -171.5t-204 -61.5h-245z" />
    <glyph glyph-name="uni040B" unicode="&#x40b;" horiz-adv-x="924" 
d="M614 728v-65h-255v-237q107 31 202 31q272 0 272 -243v-214h-70v201q0 103 -50 147.5t-158 44.5q-96 0 -196 -31v-362h-70v663h-239v65h564z" />
    <glyph glyph-name="uni040C" unicode="&#x40c;" horiz-adv-x="758" 
d="M343 790l101 129l73 -34l-116 -95h-58zM110 0v728h70v-323h130l312 323h91l-344 -351l360 -377h-95l-322 341h-132v-341h-70z" />
    <glyph glyph-name="uni040D" unicode="&#x40d;" horiz-adv-x="832" 
d="M444 790h-58l-116 95l73 34zM722 0h-70v621l-486 -621h-56v728h70v-607l475 607h67v-728z" />
    <glyph glyph-name="uni040E" unicode="&#x40e;" horiz-adv-x="745" 
d="M386 788q-62 0 -102.5 30t-44.5 82h55q19 -54 92 -54t92 54h55q-4 -52 -44.5 -82t-102.5 -30zM279 0h-78l153 252l-313 476h81l270 -416l241 416h79z" />
    <glyph glyph-name="uni040F" unicode="&#x40f;" horiz-adv-x="807" 
d="M366 -153v153h-256v728h70v-664h440v664h70v-728h-256v-153h-68z" />
    <glyph glyph-name="uni0410" unicode="&#x410;" horiz-adv-x="832" 
d="M237 261h355l-177 393zM48 0l335 733h66l335 -733h-76l-88 198h-411l-89 -198h-72z" />
    <glyph glyph-name="uni0411" unicode="&#x411;" horiz-adv-x="739" 
d="M110 0v728h510v-64h-441v-250h236q121 0 193.5 -51t72.5 -149v-2q0 -104 -79 -158t-199 -54h-293zM179 64h227q92 0 148.5 38t56.5 107v2q0 72 -53.5 106t-145.5 34h-233v-287z" />
    <glyph glyph-name="uni0412" unicode="&#x412;" horiz-adv-x="761" 
d="M110 0v728h306q124 0 190 -64q47 -49 47 -116v-2q0 -120 -120 -171q160 -44 160 -174v-2q0 -92 -71.5 -145.5t-190.5 -53.5h-321zM582 537v2q0 57 -45 91.5t-125 34.5h-233v-267h227q79 0 127.5 36.5t48.5 102.5zM623 204q0 63 -53 97.5t-153 34.5h-238v-273h253
q88 0 139.5 37.5t51.5 101.5v2z" />
    <glyph glyph-name="uni0413" unicode="&#x413;" horiz-adv-x="649" 
d="M110 0v728h488v-64h-418v-664h-70z" />
    <glyph glyph-name="uni0414" unicode="&#x414;" horiz-adv-x="892" 
d="M445 653l-259 -590h516zM45 64h68l297 669h72l297 -669h68v-217h-68v153h-666v-153h-68v217z" />
    <glyph glyph-name="uni0415" unicode="&#x415;" horiz-adv-x="707" 
d="M110 0v728h523v-64h-453v-265h406v-64h-406v-271h458v-64h-528z" />
    <glyph glyph-name="uni0416" unicode="&#x416;" horiz-adv-x="1107" 
d="M37 728h87l294 -323h101v323h69v-323h101l294 323h87l-322 -351l329 -377h-86l-300 342h-103v-342h-69v342h-107l-298 -342h-84l329 377z" />
    <glyph glyph-name="uni0417" unicode="&#x417;" horiz-adv-x="693" 
d="M102 583l-42 47q122 110 285 110q115 0 186.5 -53t71.5 -140v-1q0 -63 -39 -109.5t-111 -66.5q76 -16 121 -61.5t45 -111.5v-2q0 -90 -78 -148.5t-206 -58.5q-166 0 -285 100l41 51q112 -89 244 -89q94 0 153 41.5t59 104.5v2q0 67 -58 102.5t-161 35.5h-123v61h124
q89 0 145.5 37t56.5 106v2q0 61 -51 98.5t-136 37.5q-131 0 -242 -95z" />
    <glyph glyph-name="uni0418" unicode="&#x418;" horiz-adv-x="832" 
d="M722 0h-70v621l-486 -621h-56v728h70v-607l475 607h67v-728z" />
    <glyph glyph-name="uni0419" unicode="&#x419;" horiz-adv-x="832" 
d="M416 788q-62 0 -102.5 30t-44.5 82h55q19 -54 92 -54t92 54h55q-4 -52 -44.5 -82t-102.5 -30zM722 0h-70v621l-486 -621h-56v728h70v-607l475 607h67v-728z" />
    <glyph glyph-name="uni041A" unicode="&#x41a;" horiz-adv-x="758" 
d="M110 0v728h70v-323h130l312 323h91l-344 -351l360 -377h-95l-322 341h-132v-341h-70z" />
    <glyph glyph-name="uni041B" unicode="&#x41b;" horiz-adv-x="813" 
d="M437 733l328 -733h-78l-282 643l-283 -643h-74l326 733h63z" />
    <glyph glyph-name="uni041C" unicode="&#x41c;" horiz-adv-x="913" 
d="M110 0v728h69l277 -412l277 412h70v-728h-70v609l-276 -403h-4l-275 402v-608h-68z" />
    <glyph glyph-name="uni041D" unicode="&#x41d;" horiz-adv-x="800" 
d="M110 0v728h70v-330h440v330h70v-728h-70v334h-440v-334h-70z" />
    <glyph glyph-name="uni041E" unicode="&#x41e;" horiz-adv-x="894" 
d="M446 -12q-162 0 -265 110t-103 264v2q0 154 104 265t266 111t265 -110t103 -264v-2q0 -154 -104 -265t-266 -111zM448 51q127 0 211 90t84 221v2q0 131 -85 222t-212 91t-211 -90t-84 -221v-2q0 -131 85 -222t212 -91z" />
    <glyph glyph-name="uni041F" unicode="&#x41f;" horiz-adv-x="800" 
d="M110 0v728h580v-728h-70v664h-440v-664h-70z" />
    <glyph glyph-name="uni0420" unicode="&#x420;" horiz-adv-x="705" 
d="M110 0v728h269q123 0 197.5 -61t74.5 -166v-2q0 -111 -82 -173.5t-204 -62.5h-185v-263h-70zM180 327h189q95 0 153.5 46.5t58.5 122.5v2q0 80 -56 123t-151 43h-194v-337z" />
    <glyph glyph-name="uni0421" unicode="&#x421;" horiz-adv-x="782" 
d="M441 -12q-155 0 -259 108t-104 266v2q0 157 104.5 266.5t261.5 109.5q92 0 157 -29t127 -86l-48 -52q-109 104 -237 104q-125 0 -208.5 -90t-83.5 -221v-2q0 -132 84.5 -222.5t208.5 -90.5q73 0 128.5 27t113.5 82l46 -45q-63 -63 -130.5 -95t-160.5 -32z" />
    <glyph glyph-name="uni0422" unicode="&#x422;" horiz-adv-x="675" 
d="M303 0v663h-249v65h567v-65h-248v-663h-70z" />
    <glyph glyph-name="uni0423" unicode="&#x423;" horiz-adv-x="745" 
d="M279 0h-78l153 252l-313 476h81l270 -416l241 416h79z" />
    <glyph glyph-name="uni0424" unicode="&#x424;" horiz-adv-x="953" 
d="M441 -15v91q-177 3 -276 81.5t-99 209.5v1q0 128 99.5 208t275.5 82v85h70v-85q177 -3 276.5 -81.5t99.5 -209.5v-1q0 -128 -100 -208t-276 -82v-91h-70zM814 368q0 100 -77.5 163t-226.5 65v-458q148 2 226 64t78 165v1zM138 366q0 -101 77.5 -164t227.5 -64v458
q-149 -2 -227 -64t-78 -165v-1z" />
    <glyph glyph-name="uni0425" unicode="&#x425;" horiz-adv-x="762" 
d="M616 728h81l-273 -357l284 -371h-83l-245 324l-244 -324h-81l284 371l-274 357h83l234 -310z" />
    <glyph glyph-name="uni0426" unicode="&#x426;" horiz-adv-x="812" 
d="M693 -153v153h-583v728h70v-664h440v664h70v-664h71v-217h-68z" />
    <glyph glyph-name="uni0427" unicode="&#x427;" horiz-adv-x="746" 
d="M566 0v293q-100 -30 -203 -30q-272 0 -272 243v222h70v-209q0 -103 50 -147.5t158 -44.5q98 0 197 31v370h70v-728h-70z" />
    <glyph glyph-name="uni0428" unicode="&#x428;" horiz-adv-x="1150" 
d="M110 0v728h70v-664h360v664h70v-664h359v664h70v-728h-929z" />
    <glyph glyph-name="uni0429" unicode="&#x429;" horiz-adv-x="1162" 
d="M110 0v728h70v-664h360v664h70v-664h359v664h70v-664h72v-217h-68v153h-933z" />
    <glyph glyph-name="uni042A" unicode="&#x42a;" horiz-adv-x="890" 
d="M295 0v664h-245v64h315v-269h198q123 0 198 -59.5t75 -164.5v-2q0 -110 -81 -171.5t-204 -61.5h-256zM365 64h189q94 0 153 45.5t59 120.5v2q0 79 -56.5 121.5t-150.5 42.5h-194v-332z" />
    <glyph glyph-name="uni042B" unicode="&#x42b;" horiz-adv-x="976" 
d="M796 0v728h70v-728h-70zM110 0v728h70v-269h198q123 0 198 -59.5t75 -164.5v-2q0 -110 -81 -171.5t-204 -61.5h-256zM180 64h189q95 0 153.5 45.5t58.5 120.5v2q0 79 -56.5 121.5t-150.5 42.5h-194v-332z" />
    <glyph glyph-name="uni042C" unicode="&#x42c;" horiz-adv-x="706" 
d="M110 0v728h70v-269h198q123 0 198 -59.5t75 -164.5v-2q0 -110 -81 -171.5t-204 -61.5h-256zM180 64h189q94 0 153 45.5t59 120.5v2q0 79 -56.5 121.5t-150.5 42.5h-194v-332z" />
    <glyph glyph-name="uni042D" unicode="&#x42d;" horiz-adv-x="785" 
d="M58 622q127 118 291 118q157 0 257.5 -106.5t100.5 -267.5v-2q0 -158 -102.5 -267t-263.5 -109q-167 0 -287 122l46 48q109 -107 241 -107q122 0 203.5 80.5t89.5 204.5h-415v62h414q-10 122 -89 200.5t-196 78.5q-132 0 -246 -102z" />
    <glyph glyph-name="uni042E" unicode="&#x42e;" horiz-adv-x="1140" 
d="M110 0v728h70v-330h172q12 142 110.5 242t245.5 100q156 0 255 -111t99 -263v-2q0 -152 -100.5 -264t-255.5 -112q-148 0 -246 101t-108 245h-172v-334h-70zM708 51q122 0 202 91.5t80 219.5v2q0 128 -81 220.5t-203 92.5t-202 -91t-80 -220v-2q0 -129 81 -221t203 -92z
" />
    <glyph glyph-name="uni042F" unicode="&#x42f;" horiz-adv-x="762" 
d="M582 354v310h-236q-91 0 -143.5 -41t-52.5 -110v-2q0 -76 58 -116.5t152 -40.5h222zM290 298q-95 14 -152.5 69.5t-57.5 145.5v1q0 97 73 155.5t197 58.5h302v-728h-70v291h-214l-228 -291h-86z" />
    <glyph glyph-name="uni0430" unicode="&#x430;" horiz-adv-x="610" 
d="M268 45q79 0 134.5 43.5t55.5 109.5v56q-90 23 -169 23q-78 0 -121 -31.5t-43 -84.5v-3q0 -51 41.5 -82t101.5 -31zM259 -12q-81 0 -142 44.5t-61 122.5v2q0 82 63 127.5t168 45.5q89 0 169 -23v21q0 75 -43.5 114.5t-122.5 39.5q-80 0 -165 -41l-21 56q97 45 192 45
q111 0 171 -58q55 -57 55 -154v-330h-66v84q-71 -96 -197 -96z" />
    <glyph glyph-name="uni0431" unicode="&#x431;" horiz-adv-x="680" 
d="M346 -12q-114 0 -187 71q-85 87 -85 251v1q0 213 68.5 308.5t223.5 120.5l174 30l12 -63l-177 -29q-119 -21 -170 -80.5t-64 -192.5q34 54 92 84.5t129 30.5q115 0 185 -73t70 -185v-1q0 -113 -76 -193.5t-195 -79.5zM347 48q88 0 144 60.5t56 151.5v1q0 89 -53.5 145.5
t-139.5 55.5q-92 0 -151 -55.5t-59 -142.5q0 -97 58.5 -156.5t144.5 -59.5z" />
    <glyph glyph-name="uni0432" unicode="&#x432;" horiz-adv-x="631" 
d="M98 0v534h268q84 0 132 -36.5t48 -100.5q0 -92 -99 -124q120 -30 120 -130q0 -68 -54 -105.5t-146 -37.5h-269zM478 392q0 40 -30.5 63t-86.5 23h-197v-180h188q60 0 93 25.5t33 68.5zM498 145q0 46 -36.5 72t-104.5 26h-193v-187h202q63 0 97.5 24t34.5 65z" />
    <glyph glyph-name="uni0433" unicode="&#x433;" horiz-adv-x="519" 
d="M98 0v534h385v-61h-318v-473h-67z" />
    <glyph glyph-name="uni0434" unicode="&#x434;" horiz-adv-x="685" 
d="M342 472l-179 -412h356zM308 539h69l215 -478h61v-204h-62v143h-497v-143h-62v204h61z" />
    <glyph glyph-name="uni0435" unicode="&#x435;" horiz-adv-x="622" 
d="M328 -12q-111 0 -188 78t-77 200v2q0 117 73 198t182 81q113 0 180.5 -80.5t67.5 -201.5q0 -14 -2 -24h-432q8 -89 64.5 -141.5t133.5 -52.5q98 0 175 80l43 -39q-92 -100 -220 -100zM132 295h364q-6 83 -52.5 138t-127.5 55q-74 0 -125 -54.5t-59 -138.5z" />
    <glyph glyph-name="uni0436" unicode="&#x436;" horiz-adv-x="906" 
d="M486 534v-234h97l202 234h83l-231 -263l238 -271h-83l-208 240h-98v-240h-66v240h-101l-206 -240h-83l238 270l-230 264h83l201 -234h98v234h66z" />
    <glyph glyph-name="uni0437" unicode="&#x437;" horiz-adv-x="587" 
d="M48 58l36 52q89 -63 200 -63q77 0 122 27.5t45 73.5v1q0 44 -43 68.5t-116 24.5h-122v57h121q68 0 107 26t39 69v1q0 43 -39 68t-108 25q-103 0 -200 -67l-35 49q110 77 236 77q100 0 157.5 -41t57.5 -107v-2q0 -49 -32 -79.5t-80 -44.5q55 -10 90.5 -43t35.5 -85v-1
q0 -67 -62.5 -111.5t-172.5 -44.5q-138 0 -237 70z" />
    <glyph glyph-name="uni0438" unicode="&#x438;" horiz-adv-x="673" 
d="M98 0v534h67v-435l344 435h66v-534h-67v435l-346 -435h-64z" />
    <glyph glyph-name="uni0439" unicode="&#x439;" horiz-adv-x="673" 
d="M336 617q-62 0 -102.5 33t-44.5 91h50q22 -66 97 -66t97 66h50q-4 -58 -44.5 -91t-102.5 -33zM98 0v534h67v-435l344 435h66v-534h-67v435l-346 -435h-64z" />
    <glyph glyph-name="uni043A" unicode="&#x43a;" horiz-adv-x="599" 
d="M165 534v-234h107l209 234h84l-237 -261l243 -273h-86l-210 240h-110v-240h-67v534h67z" />
    <glyph glyph-name="uni043B" unicode="&#x43b;" horiz-adv-x="640" 
d="M351 539l245 -539h-75l-202 455l-201 -455h-74l246 539h61z" />
    <glyph glyph-name="uni043C" unicode="&#x43c;" horiz-adv-x="763" 
d="M98 0v534h70l214 -313l213 313h70v-534h-68v427l-215 -309h-3l-215 308v-426h-66z" />
    <glyph glyph-name="uni043D" unicode="&#x43d;" horiz-adv-x="669" 
d="M98 0v534h67v-234h339v234h67v-534h-67v239h-339v-239h-67z" />
    <glyph glyph-name="uni043E" unicode="&#x43e;" horiz-adv-x="679" 
d="M339 -12q-118 0 -197 81.5t-79 195.5v2q0 115 79.5 197.5t198.5 82.5q118 0 197 -81.5t79 -196.5v-2q0 -114 -80 -196.5t-198 -82.5zM341 49q89 0 147 63t58 153v2q0 91 -60 155t-147 64q-89 0 -147.5 -63t-58.5 -154v-2q0 -91 60 -154.5t148 -63.5z" />
    <glyph glyph-name="uni043F" unicode="&#x43f;" horiz-adv-x="667" 
d="M98 0v534h472v-534h-67v473h-338v-473h-67z" />
    <glyph glyph-name="uni0440" unicode="&#x440;" horiz-adv-x="699" 
d="M366 50q84 0 140.5 58.5t56.5 156.5v2q0 97 -57.5 157.5t-139.5 60.5t-143 -61.5t-61 -155.5v-2q0 -94 61 -155t143 -61zM98 -166v700h67v-112q84 125 212 125q102 0 179.5 -76.5t77.5 -201.5v-2q0 -125 -77.5 -202t-179.5 -77q-130 0 -212 120v-274h-67z" />
    <glyph glyph-name="uni0441" unicode="&#x441;" horiz-adv-x="604" 
d="M336 -12q-115 0 -194 81.5t-79 195.5v2q0 114 79.5 197t194.5 83q121 0 213 -98l-45 -47q-82 84 -170 84q-85 0 -143.5 -63.5t-58.5 -153.5v-2q0 -91 60 -154.5t147 -63.5q95 0 170 84l44 -41q-92 -104 -218 -104z" />
    <glyph glyph-name="uni0442" unicode="&#x442;" horiz-adv-x="577" 
d="M255 0v474h-221v60h510v-60h-222v-474h-67z" />
    <glyph glyph-name="uni0443" unicode="&#x443;" horiz-adv-x="623" 
d="M325 74l180 460h73l-228 -552q-34 -82 -75.5 -117t-101.5 -35q-56 0 -111 26l23 55q42 -20 87 -20q39 0 66 25t54 86l-249 532h75z" />
    <glyph glyph-name="uni0444" unicode="&#x444;" horiz-adv-x="867" 
d="M467 -166h-67v163q-162 3 -250 77.5t-88 191.5v1q0 116 89 192t249 78v222h67v-222q161 -3 249.5 -77.5t88.5 -191.5v-1q0 -117 -89 -192.5t-249 -77.5v-163zM132 266q0 -93 69 -150.5t200 -58.5v421q-132 -2 -200.5 -59.5t-68.5 -151.5v-1zM735 268q0 93 -69 151
t-200 59v-421q132 2 200.5 59t68.5 151v1z" />
    <glyph glyph-name="uni0445" unicode="&#x445;" horiz-adv-x="605" 
d="M136 534l167 -216l168 216h77l-206 -260l215 -274h-80l-176 229l-176 -229h-77l214 272l-205 262h79z" />
    <glyph glyph-name="uni0446" unicode="&#x446;" horiz-adv-x="681" 
d="M570 -143v143h-472v534h67v-473h338v473h67v-473h63v-204h-63z" />
    <glyph glyph-name="uni0447" unicode="&#x447;" horiz-adv-x="620" 
d="M455 0v192q-86 -23 -161 -23q-217 0 -217 199v166h67v-161q0 -75 37.5 -108t119.5 -33q77 0 154 23v279h67v-534h-67z" />
    <glyph glyph-name="uni0448" unicode="&#x448;" horiz-adv-x="967" 
d="M98 0v534h67v-473h285v473h67v-473h285v473h67v-534h-771z" />
    <glyph glyph-name="uni0449" unicode="&#x449;" horiz-adv-x="981" 
d="M98 0v534h67v-473h285v473h67v-473h285v473h67v-473h63v-204h-63v143h-771z" />
    <glyph glyph-name="uni044A" unicode="&#x44a;" horiz-adv-x="712" 
d="M29 534h250v-189h176q97 0 152.5 -46t55.5 -125v-2q0 -78 -56 -125t-154 -47h-240v474h-184v60zM279 287v-228h173q71 0 106.5 29.5t35.5 83.5v1q0 53 -35.5 83.5t-105.5 30.5h-174z" />
    <glyph glyph-name="uni044B" unicode="&#x44b;" horiz-adv-x="816" 
d="M651 0v534h67v-534h-67zM165 534v-189h175q98 0 153.5 -46t55.5 -125v-2q0 -78 -56 -125t-155 -47h-240v534h67zM165 287v-228h172q71 0 107 29.5t36 83.5v1q0 53 -36 83.5t-106 30.5h-173z" />
    <glyph glyph-name="uni044C" unicode="&#x44c;" horiz-adv-x="597" 
d="M165 534v-189h175q98 0 153.5 -46t55.5 -125v-2q0 -78 -56 -125t-155 -47h-240v534h67zM165 287v-228h172q71 0 107 29.5t36 83.5v1q0 53 -36 83.5t-106 30.5h-173z" />
    <glyph glyph-name="uni044D" unicode="&#x44d;" horiz-adv-x="607" 
d="M90 127q77 -79 183 -79q81 0 138.5 56t62.5 138h-299v58h299q-8 81 -63.5 133.5t-137.5 52.5q-100 0 -182 -77l-40 47q100 91 225 91q116 0 192 -79.5t76 -200.5v-2q0 -113 -77.5 -195t-192.5 -82q-132 0 -226 92z" />
    <glyph glyph-name="uni044E" unicode="&#x44e;" horiz-adv-x="906" 
d="M165 239v-239h-67v534h67v-233h139q12 105 86.5 175.5t183.5 70.5q116 0 192.5 -81.5t76.5 -196.5v-2q0 -115 -77 -197t-194 -82q-110 0 -185 72t-84 179h-138zM574 49q87 0 143 63t56 153v2q0 92 -57.5 155.5t-143.5 63.5q-88 0 -144 -63t-56 -154v-2q0 -92 57.5 -155
t144.5 -63z" />
    <glyph glyph-name="uni044F" unicode="&#x44f;" horiz-adv-x="643" 
d="M478 477h-193q-62 0 -100 -30.5t-38 -77.5v-1q0 -50 37 -79.5t101 -29.5h193v218zM478 203h-183l-154 -203h-82l162 210q-67 13 -104.5 54.5t-37.5 103.5v1q0 73 56.5 119t150.5 46h259v-534h-67v203z" />
    <glyph glyph-name="uni0450" unicode="&#x450;" horiz-adv-x="622" 
d="M291 619l-115 110l74 35l95 -145h-54zM328 -12q-111 0 -188 78t-77 200v2q0 117 73 198t182 81q113 0 180.5 -80.5t67.5 -201.5q0 -14 -2 -24h-432q8 -89 64.5 -141.5t133.5 -52.5q98 0 175 80l43 -39q-92 -100 -220 -100zM132 295h364q-6 83 -52.5 138t-127.5 55
q-74 0 -125 -54.5t-59 -138.5z" />
    <glyph glyph-name="uni0451" unicode="&#x451;" horiz-adv-x="622" 
d="M188 619v92h84v-92h-84zM364 619v92h84v-92h-84zM328 -12q-111 0 -188 78t-77 200v2q0 117 73 198t182 81q113 0 180.5 -80.5t67.5 -201.5q0 -14 -2 -24h-432q8 -89 64.5 -141.5t133.5 -52.5q98 0 175 80l43 -39q-92 -100 -220 -100zM132 295h364q-6 83 -52.5 138
t-127.5 55q-74 0 -125 -54.5t-59 -138.5z" />
    <glyph glyph-name="uni0452" unicode="&#x452;" horiz-adv-x="629" 
d="M362 599h-197v-168q90 24 162 24q217 0 217 -199v-218q0 -208 -177 -208q-28 0 -62 8v59q32 -8 56 -8q59 0 87.5 34.5t28.5 116.5v211q0 75 -38 108t-119 33q-73 0 -155 -23v-369h-67v599h-117v58h117v102h67v-102h197v-58z" />
    <glyph glyph-name="uni0453" unicode="&#x453;" horiz-adv-x="519" 
d="M245 619l95 145l74 -35l-115 -110h-54zM98 0v534h385v-61h-318v-473h-67z" />
    <glyph glyph-name="uni0454" unicode="&#x454;" horiz-adv-x="606" 
d="M551 458l-41 -49q-80 77 -173 77q-81 0 -138.5 -52.5t-65.5 -133.5h299v-58h-300q7 -85 66 -139.5t142 -54.5q100 0 176 79l41 -43q-91 -96 -221 -96q-116 0 -194.5 80.5t-78.5 196.5v2q0 116 79 198t195 82q125 0 214 -89z" />
    <glyph glyph-name="uni0455" unicode="&#x455;" horiz-adv-x="528" 
d="M273 -10q-58 0 -117.5 21t-103.5 57l36 50q90 -69 188 -69q52 0 85.5 25.5t33.5 66.5v2q0 39 -34.5 59.5t-102.5 39.5q-34 10 -52 16t-46.5 19.5t-43 27t-26 36t-11.5 50.5v2q0 67 50 109.5t129 42.5q103 0 191 -60l-32 -52q-83 53 -161 53q-50 0 -81 -24t-31 -61v-2
q0 -16 8.5 -29.5t20 -22.5t33 -18t37.5 -14t44 -13q39 -12 64 -22t53.5 -27.5t42.5 -43t14 -59.5v-2q0 -72 -53.5 -115t-134.5 -43z" />
    <glyph glyph-name="uni0456" unicode="&#x456;" horiz-adv-x="277" 
d="M99 661v81h79v-81h-79zM105 0v534h67v-534h-67z" />
    <glyph glyph-name="uni0457" unicode="&#x457;" horiz-adv-x="277" 
d="M8 619v92h84v-92h-84zM184 619v92h84v-92h-84zM105 0v534h67v-534h-67z" />
    <glyph glyph-name="uni0458" unicode="&#x458;" horiz-adv-x="277" 
d="M99 661v81h79v-81h-79zM49 -170q-19 0 -47 5v57q17 -4 41 -4q62 0 62 73v573h67v-572q0 -66 -32.5 -99t-90.5 -33z" />
    <glyph glyph-name="uni0459" unicode="&#x459;" horiz-adv-x="876" 
d="M387 0v479h-3l-295 -479h-74l329 534h109v-189h165q98 0 153.5 -46t55.5 -125v-2q0 -78 -56 -125t-155 -47h-229zM453 59h163q71 0 106.5 29.5t35.5 83.5v1q0 53 -36 83.5t-106 30.5h-163v-228z" />
    <glyph glyph-name="uni045A" unicode="&#x45a;" horiz-adv-x="987" 
d="M564 287v-228h163q71 0 106.5 29.5t35.5 83.5v1q0 53 -36 83.5t-106 30.5h-163zM564 534v-189h165q98 0 153.5 -46t55.5 -125v-2q0 -78 -56 -125t-155 -47h-229v239h-333v-239h-67v534h67v-233h333v233h66z" />
    <glyph glyph-name="uni045B" unicode="&#x45b;" horiz-adv-x="629" 
d="M165 759v-102h197v-58h-197v-168q90 24 162 24q217 0 217 -199v-256h-67v251q0 75 -38 108t-119 33q-73 0 -155 -23v-369h-67v599h-117v58h117v102h67z" />
    <glyph glyph-name="uni045C" unicode="&#x45c;" horiz-adv-x="599" 
d="M275 619l95 145l74 -35l-115 -110h-54zM165 534v-234h107l209 234h84l-237 -261l243 -273h-86l-210 240h-110v-240h-67v534h67z" />
    <glyph glyph-name="uni045D" unicode="&#x45d;" horiz-adv-x="673" 
d="M309 619l-115 110l74 35l95 -145h-54zM98 0v534h67v-435l344 435h66v-534h-67v435l-346 -435h-64z" />
    <glyph glyph-name="uni045E" unicode="&#x45e;" horiz-adv-x="623" 
d="M315 617q-62 0 -102.5 33t-44.5 91h50q22 -66 97 -66t97 66h50q-4 -58 -44.5 -91t-102.5 -33zM325 74l180 460h73l-228 -552q-34 -82 -75.5 -117t-101.5 -35q-56 0 -111 26l23 55q42 -20 87 -20q39 0 66 25t54 86l-249 532h75z" />
    <glyph glyph-name="uni045F" unicode="&#x45f;" horiz-adv-x="667" 
d="M98 0v534h67v-473h338v473h67v-534h-205v-143h-63v143h-204z" />
    <glyph glyph-name="uni0462" unicode="&#x462;" horiz-adv-x="890" 
d="M585 394q119 0 184.5 -50.5t65.5 -142.5v-2q0 -91 -70.5 -145t-183.5 -54h-287v556h-244v62h244v125h70v-125h270v-62h-270v-162h221zM583 331h-219v-268h219q84 0 133 37t49 98v1q0 132 -182 132z" />
    <glyph glyph-name="uni0463" unicode="&#x463;" horiz-adv-x="712" 
d="M280 339h177q96 0 151 -45.5t55 -122.5v-3q0 -76 -55 -122t-153 -46h-242v475h-184v59h184v225h67v-225h224v-59h-224v-136zM279 281v-223h176q69 0 104 29.5t35 81.5v1q0 52 -35 81.5t-104 29.5h-176z" />
    <glyph glyph-name="uni0472" unicode="&#x472;" horiz-adv-x="893" 
d="M445 -12q-161 0 -264 110t-103 264v2q0 154 104 265t266 111q161 0 264 -110t103 -264v-2q0 -154 -104 -265t-266 -111zM445 678q-120 0 -202 -80t-93 -200h593q-11 120 -94.5 200t-203.5 80zM448 50q121 0 204 81t92 203h-594q10 -121 93.5 -202.5t204.5 -81.5z" />
    <glyph glyph-name="uni0473" unicode="&#x473;" horiz-adv-x="678" 
d="M338 -12q-118 0 -196.5 81.5t-78.5 195.5v2q0 115 79.5 197.5t197.5 82.5t197 -81.5t79 -196.5v-2q0 -114 -80 -196.5t-198 -82.5zM338 487q-82 0 -139.5 -54t-67.5 -135h416q-11 81 -70 135t-139 54zM340 47q84 0 142 55.5t66 138.5h-417q9 -84 68 -139t141 -55z" />
    <glyph glyph-name="uni0474" unicode="&#x474;" horiz-adv-x="829" 
d="M363 -5l-315 733h77l271 -646l195 474q40 100 88.5 137.5t126.5 37.5h11v-63h-6q-56 0 -91.5 -29.5t-67.5 -104.5l-227 -539h-62z" />
    <glyph glyph-name="uni0475" unicode="&#x475;" horiz-adv-x="627" 
d="M269 -4l-225 538h76l179 -458l125 307q35 88 75.5 121.5t104.5 33.5h7v-60h-1q-41 0 -68.5 -23.5t-56.5 -90.5l-157 -368h-59z" />
    <glyph glyph-name="uni0490" unicode="&#x490;" horiz-adv-x="649" 
d="M110 728h420v146h68v-210h-418v-664h-70v728z" />
    <glyph glyph-name="uni0491" unicode="&#x491;" horiz-adv-x="519" 
d="M98 0v534h322v139h63v-200h-318v-473h-67z" />
    <glyph glyph-name="uni0492" unicode="&#x492;" horiz-adv-x="681" 
d="M141 0v326h-78v59h78v343h488v-64h-418v-279h204v-59h-204v-326h-70z" />
    <glyph glyph-name="uni0493" unicode="&#x493;" horiz-adv-x="538" 
d="M117 0v229h-73v53h73v252h385v-61h-318v-191h152v-53h-152v-229h-67z" />
    <glyph glyph-name="uni0496" unicode="&#x496;" horiz-adv-x="1121" 
d="M1070 728l-322 -351l273 -313h81v-217h-68v153h-43l-300 342h-103v-342h-69v342h-107l-298 -342h-84l329 377l-322 351h87l294 -323h101v323h69v-323h101l294 323h87z" />
    <glyph glyph-name="uni0497" unicode="&#x497;" horiz-adv-x="915" 
d="M868 534l-231 -263l184 -210h78v-204h-63v143h-44l-208 240h-98v-240h-66v240h-101l-206 -240h-83l238 270l-230 264h83l201 -234h98v234h66v-234h97l202 234h83z" />
    <glyph glyph-name="uni0498" unicode="&#x498;" horiz-adv-x="691" 
d="M100 583l-42 47q122 110 285 110q115 0 186.5 -53t71.5 -140v-1q0 -63 -39 -109.5t-111 -66.5q76 -16 121 -61.5t45 -111.5v-2q0 -84 -68.5 -141t-182.5 -65l1 -142h-68l1 142q-145 9 -252 99l41 51q112 -89 244 -89q94 0 153 41.5t59 104.5v2q0 67 -58 102.5t-161 35.5
h-123v61h124q89 0 145.5 37t56.5 106v2q0 61 -51 98.5t-136 37.5q-131 0 -242 -95z" />
    <glyph glyph-name="uni0499" unicode="&#x499;" horiz-adv-x="587" 
d="M48 58l36 52q89 -63 200 -63q77 0 122 27.5t45 73.5v1q0 44 -43 68.5t-116 24.5h-122v57h121q68 0 107 26t39 69v1q0 43 -39 68t-108 25q-103 0 -200 -67l-35 49q110 77 236 77q100 0 157.5 -41t57.5 -107v-2q0 -49 -32 -79.5t-80 -44.5q55 -10 90.5 -43t35.5 -85v-1
q0 -62 -54.5 -105t-151.5 -50l2 -132h-63l1 132q-123 9 -206 69z" />
    <glyph glyph-name="uni049A" unicode="&#x49a;" horiz-adv-x="769" 
d="M110 0v728h70v-323h130l312 323h91l-344 -351l299 -313h82v-217h-68v153h-48l-322 341h-132v-341h-70z" />
    <glyph glyph-name="uni049B" unicode="&#x49b;" horiz-adv-x="603" 
d="M165 534v-234h107l209 234h84l-237 -261l189 -212h71v-204h-63v143h-40l-210 240h-110v-240h-67v534h67z" />
    <glyph glyph-name="uni049C" unicode="&#x49c;" horiz-adv-x="785" 
d="M738 728l-293 -352l306 -376h-88l-273 336h-8l1 -231h-58v231h-145v-336h-70v728h70v-329h145v235h58l-1 -235h2l267 329h87z" />
    <glyph glyph-name="uni049D" unicode="&#x49d;" horiz-adv-x="646" 
d="M607 534l-218 -255l218 -279h-81l-189 245h-28v-164h-52v164h-92v-245h-67v534h67v-232h92v163h52v-163h26l190 232h82z" />
    <glyph glyph-name="uni04A0" unicode="&#x4a0;" horiz-adv-x="942" 
d="M50 664v64h315v-323h130l312 323h91l-344 -351l360 -377h-95l-322 341h-132v-341h-70v664h-245z" />
    <glyph glyph-name="uni04A1" unicode="&#x4a1;" horiz-adv-x="714" 
d="M280 534v-234h107l209 234h84l-237 -261l243 -273h-86l-210 240h-110v-240h-67v474h-184v60h251z" />
    <glyph glyph-name="uni04A2" unicode="&#x4a2;" horiz-adv-x="813" 
d="M110 0v728h70v-330h440v330h70v-664h72v-217h-68v153h-74v334h-440v-334h-70z" />
    <glyph glyph-name="uni04A3" unicode="&#x4a3;" horiz-adv-x="683" 
d="M97 0v534h67v-234h339v234h67v-473h65v-204h-63v143h-69v239h-339v-239h-67z" />
    <glyph glyph-name="uni04A4" unicode="&#x4a4;" horiz-adv-x="1075" 
d="M573 0v334h-430v-334h-70v728h70v-330h430v330h450v-64h-380v-664h-70z" />
    <glyph glyph-name="uni04A5" unicode="&#x4a5;" horiz-adv-x="909" 
d="M498 0v239h-333v-239h-67v534h67v-233h333v233h374v-61h-308v-473h-66z" />
    <glyph glyph-name="uni04AA" unicode="&#x4aa;" horiz-adv-x="782" 
d="M405 -153l1 143q-142 13 -235 118.5t-93 253.5v2q0 157 104.5 266.5t261.5 109.5q92 0 157 -29t127 -86l-48 -52q-109 104 -237 104q-125 0 -208.5 -90t-83.5 -221v-2q0 -132 84.5 -222.5t208.5 -90.5q73 0 128.5 27t113.5 82l46 -45q-58 -58 -119 -89.5t-142 -36.5
l2 -142h-68z" />
    <glyph glyph-name="uni04AB" unicode="&#x4ab;" horiz-adv-x="604" 
d="M300 -143l1 133q-102 13 -170 91.5t-68 183.5v2q0 114 79.5 197t194.5 83q121 0 213 -98l-45 -47q-82 84 -170 84q-85 0 -143.5 -63.5t-58.5 -153.5v-2q0 -91 60 -154.5t147 -63.5q95 0 170 84l44 -41q-82 -94 -192 -103l1 -132h-63z" />
    <glyph glyph-name="uni04AE" unicode="&#x4ae;" horiz-adv-x="755" 
d="M342 0v288l-307 440h86l257 -376l259 376h82l-307 -439v-289h-70z" />
    <glyph glyph-name="uni04AF" unicode="&#x4af;" horiz-adv-x="618" 
d="M574 534l-232 -527v-173h-67v175l-231 525h76l189 -455l191 455h74z" />
    <glyph glyph-name="uni04B0" unicode="&#x4b0;" horiz-adv-x="755" 
d="M342 0v238h-195v59h188l-300 431h86l257 -376l259 376h82l-302 -431h189v-59h-194v-238h-70z" />
    <glyph glyph-name="uni04B1" unicode="&#x4b1;" horiz-adv-x="618" 
d="M514 53v-53h-172v-166h-67v166h-171v53h151l-211 481h76l189 -455l191 455h74l-212 -481h152z" />
    <glyph glyph-name="uni04B2" unicode="&#x4b2;" horiz-adv-x="773" 
d="M616 728h81l-273 -357l235 -307h79v-217h-68v153h-45l-245 324l-244 -324h-81l284 371l-274 357h83l234 -310z" />
    <glyph glyph-name="uni04B3" unicode="&#x4b3;" horiz-adv-x="607" 
d="M136 534l167 -216l168 216h77l-206 -260l167 -213h72v-204h-63v143h-41l-176 229l-176 -229h-77l214 272l-205 262h79z" />
    <glyph glyph-name="uni04B6" unicode="&#x4b6;" horiz-adv-x="759" 
d="M566 0v293q-100 -30 -203 -30q-272 0 -272 243v222h70v-209q0 -103 50 -147.5t158 -44.5q98 0 197 31v370h70v-664h72v-217h-68v153h-74z" />
    <glyph glyph-name="uni04B7" unicode="&#x4b7;" horiz-adv-x="634" 
d="M455 0v192q-86 -23 -161 -23q-217 0 -217 199v166h67v-161q0 -75 37.5 -108t119.5 -33q77 0 154 23v279h67v-473h64v-204h-63v143h-68z" />
    <glyph glyph-name="uni04B8" unicode="&#x4b8;" horiz-adv-x="741" 
d="M561 0v293q-77 -24 -170 -29l1 -176h-59l1 175q-248 10 -248 243v222h70v-209q0 -96 43 -141t135 -50l-1 234h59l-1 -235q86 5 170 31v370h70v-728h-70z" />
    <glyph glyph-name="uni04B9" unicode="&#x4b9;" horiz-adv-x="620" 
d="M455 0v192q-66 -18 -129 -22v-114h-52v113q-197 9 -197 196v169h67v-157q0 -73 32 -106t98 -38v163h52v-164q62 3 129 23v279h67v-534h-67z" />
    <glyph glyph-name="uni04BA" unicode="&#x4ba;" horiz-adv-x="741" 
d="M169 728v-294q104 31 204 31q271 0 271 -243v-222h-70v209q0 103 -49.5 147.5t-157.5 44.5q-96 0 -198 -32v-369h-70v728h70z" />
    <glyph glyph-name="uni04BB" unicode="&#x4bb;" horiz-adv-x="649" 
d="M98 0v759h67v-320q63 108 187 108q97 0 153 -60t56 -157v-330h-67v314q0 79 -42 125t-116 46q-73 0 -122 -50t-49 -128v-307h-67z" />
    <glyph glyph-name="uni04C0" unicode="&#x4c0;" horiz-adv-x="305" 
d="M117 0v728h70v-728h-70z" />
    <glyph glyph-name="uni04C1" unicode="&#x4c1;" horiz-adv-x="1107" 
d="M554 792q-62 0 -102.5 30t-44.5 82h55q19 -54 92 -54t92 54h55q-4 -52 -44.5 -82t-102.5 -30zM37 728h87l294 -323h101v323h69v-323h101l294 323h87l-322 -351l329 -377h-86l-300 342h-103v-342h-69v342h-107l-298 -342h-84l329 377z" />
    <glyph glyph-name="uni04C2" unicode="&#x4c2;" horiz-adv-x="906" 
d="M453 617q-62 0 -102.5 33t-44.5 91h50q22 -66 97 -66t97 66h50q-4 -58 -44.5 -91t-102.5 -33zM486 534v-234h97l202 234h83l-231 -263l238 -271h-83l-208 240h-98v-240h-66v240h-101l-206 -240h-83l238 270l-230 264h83l201 -234h98v234h66z" />
    <glyph glyph-name="uni04CF" unicode="&#x4cf;" horiz-adv-x="277" 
d="M105 0v759h67v-759h-67z" />
    <glyph glyph-name="uni04D0" unicode="&#x4d0;" horiz-adv-x="832" 
d="M416 802q-62 0 -102.5 30t-44.5 82h55q19 -54 92 -54t92 54h55q-4 -52 -44.5 -82t-102.5 -30zM237 261h355l-177 393zM48 0l335 733h66l335 -733h-76l-88 198h-411l-89 -198h-72z" />
    <glyph glyph-name="uni04D1" unicode="&#x4d1;" horiz-adv-x="610" 
d="M305 617q-62 0 -102.5 33t-44.5 91h50q22 -66 97 -66t97 66h50q-4 -58 -44.5 -91t-102.5 -33zM268 45q79 0 134.5 43.5t55.5 109.5v56q-90 23 -169 23q-78 0 -121 -31.5t-43 -84.5v-3q0 -51 41.5 -82t101.5 -31zM259 -12q-81 0 -142 44.5t-61 122.5v2q0 82 63 127.5
t168 45.5q89 0 169 -23v21q0 75 -43.5 114.5t-122.5 39.5q-80 0 -165 -41l-21 56q97 45 192 45q111 0 171 -58q55 -57 55 -154v-330h-66v84q-71 -96 -197 -96z" />
    <glyph glyph-name="uni04D2" unicode="&#x4d2;" horiz-adv-x="832" 
d="M278 804v87h88v-87h-88zM468 804v87h87v-87h-87zM237 261h355l-177 393zM48 0l335 733h66l335 -733h-76l-88 198h-411l-89 -198h-72z" />
    <glyph glyph-name="uni04D3" unicode="&#x4d3;" horiz-adv-x="610" 
d="M175 619v92h84v-92h-84zM351 619v92h84v-92h-84zM268 45q79 0 134.5 43.5t55.5 109.5v56q-90 23 -169 23q-78 0 -121 -31.5t-43 -84.5v-3q0 -51 41.5 -82t101.5 -31zM259 -12q-81 0 -142 44.5t-61 122.5v2q0 82 63 127.5t168 45.5q89 0 169 -23v21q0 75 -43.5 114.5
t-122.5 39.5q-80 0 -165 -41l-21 56q97 45 192 45q111 0 171 -58q55 -57 55 -154v-330h-66v84q-71 -96 -197 -96z" />
    <glyph glyph-name="uni04D4" unicode="&#x4d4;" horiz-adv-x="1097" 
d="M251 261h266v405h-26zM24 0l434 728h565v-64h-436v-265h389v-64h-389v-271h441v-64h-511v198h-302l-117 -198h-74z" />
    <glyph glyph-name="uni04D5" unicode="&#x4d5;" horiz-adv-x="1002" 
d="M512 295h364q-6 83 -52.5 138t-127.5 55q-74 0 -125 -54.5t-59 -138.5zM257 -12q-82 0 -141.5 44.5t-59.5 122.5v2q0 82 62 127.5t164 45.5q82 0 162 -23v21q0 75 -41.5 114.5t-118.5 39.5q-74 0 -159 -41l-21 56q95 45 186 45q160 0 199 -123q32 59 87.5 93.5
t122.5 34.5q112 0 179 -80.5t67 -201.5q0 -14 -1 -24h-432q7 -89 63.5 -141.5t133.5 -52.5q100 0 175 80l44 -39q-92 -100 -221 -100q-65 0 -121.5 29t-92.5 82q-102 -111 -236 -111zM264 45q114 0 202 103q-20 49 -23 107q-92 22 -158 22q-76 0 -118 -31.5t-42 -84.5v-3
q0 -52 40 -82.5t99 -30.5z" />
    <glyph glyph-name="uni04D6" unicode="&#x4d6;" horiz-adv-x="707" 
d="M373 792q-62 0 -102.5 30t-44.5 82h55q19 -54 92 -54t92 54h55q-4 -52 -44.5 -82t-102.5 -30zM110 0v728h523v-64h-453v-265h406v-64h-406v-271h458v-64h-528z" />
    <glyph glyph-name="uni04D7" unicode="&#x4d7;" horiz-adv-x="622" 
d="M318 617q-62 0 -102.5 33t-44.5 91h50q22 -66 97 -66t97 66h50q-4 -58 -44.5 -91t-102.5 -33zM328 -12q-111 0 -188 78t-77 200v2q0 117 73 198t182 81q113 0 180.5 -80.5t67.5 -201.5q0 -14 -2 -24h-432q8 -89 64.5 -141.5t133.5 -52.5q98 0 175 80l43 -39
q-92 -100 -220 -100zM132 295h364q-6 83 -52.5 138t-127.5 55q-74 0 -125 -54.5t-59 -138.5z" />
    <glyph glyph-name="uni04D8" unicode="&#x4d8;" horiz-adv-x="839" 
d="M102 601q123 139 306 139q157 0 255 -105.5t98 -269.5v-3q0 -158 -99 -266t-248 -108q-155 0 -246 107.5t-91 270.5v1q0 18 1 30h610q-9 122 -85 201t-195 79q-149 0 -258 -122zM414 52q116 0 190.5 79t83.5 204h-538q7 -127 79 -205t185 -78z" />
    <glyph glyph-name="uni04D9" unicode="&#x4d9;" horiz-adv-x="622" 
d="M294 547q111 0 188 -78t77 -200v-2q0 -117 -73 -198t-182 -81q-113 0 -180.5 80t-67.5 201q0 15 1 24h433q-8 89 -64.5 141.5t-133.5 52.5q-99 0 -175 -79l-43 38q89 101 220 101zM490 239h-364q6 -82 52.5 -137t127.5 -55q74 0 125 54.5t59 137.5z" />
    <glyph glyph-name="uni04DC" unicode="&#x4dc;" horiz-adv-x="1107" 
d="M415 794v87h88v-87h-88zM605 794v87h87v-87h-87zM37 728h87l294 -323h101v323h69v-323h101l294 323h87l-322 -351l329 -377h-86l-300 342h-103v-342h-69v342h-107l-298 -342h-84l329 377z" />
    <glyph glyph-name="uni04DD" unicode="&#x4dd;" horiz-adv-x="906" 
d="M323 619v92h84v-92h-84zM499 619v92h84v-92h-84zM486 534v-234h97l202 234h83l-231 -263l238 -271h-83l-208 240h-98v-240h-66v240h-101l-206 -240h-83l238 270l-230 264h83l201 -234h98v234h66z" />
    <glyph glyph-name="uni04DE" unicode="&#x4de;" horiz-adv-x="691" 
d="M201 803v87h88v-87h-88zM391 803v87h87v-87h-87zM100 583l-42 47q122 110 285 110q115 0 186.5 -53t71.5 -140v-1q0 -63 -39 -109.5t-111 -66.5q76 -16 121 -61.5t45 -111.5v-2q0 -90 -78 -148.5t-206 -58.5q-166 0 -285 100l41 51q112 -89 244 -89q94 0 153 41.5
t59 104.5v2q0 67 -58 102.5t-161 35.5h-123v61h124q89 0 145.5 37t56.5 106v2q0 61 -51 98.5t-136 37.5q-131 0 -242 -95z" />
    <glyph glyph-name="uni04DF" unicode="&#x4df;" horiz-adv-x="587" 
d="M158 619v92h84v-92h-84zM334 619v92h84v-92h-84zM48 58l36 52q89 -63 200 -63q77 0 122 27.5t45 73.5v1q0 44 -43 68.5t-116 24.5h-122v57h121q68 0 107 26t39 69v1q0 43 -39 68t-108 25q-103 0 -200 -67l-35 49q110 77 236 77q100 0 157.5 -41t57.5 -107v-2
q0 -49 -32 -79.5t-80 -44.5q55 -10 90.5 -43t35.5 -85v-1q0 -67 -62.5 -111.5t-172.5 -44.5q-138 0 -237 70z" />
    <glyph glyph-name="uni04E2" unicode="&#x4e2;" horiz-adv-x="832" 
d="M249 814v60h334v-60h-334zM722 0h-70v621l-486 -621h-56v728h70v-607l475 607h67v-728z" />
    <glyph glyph-name="uni04E3" unicode="&#x4e3;" horiz-adv-x="673" 
d="M178 643v57h316v-57h-316zM98 0v534h67v-435l344 435h66v-534h-67v435l-346 -435h-64z" />
    <glyph glyph-name="uni04E4" unicode="&#x4e4;" horiz-adv-x="832" 
d="M278 790v87h88v-87h-88zM468 790v87h87v-87h-87zM722 0h-70v621l-486 -621h-56v728h70v-607l475 607h67v-728z" />
    <glyph glyph-name="uni04E5" unicode="&#x4e5;" horiz-adv-x="673" 
d="M206 619v92h84v-92h-84zM382 619v92h84v-92h-84zM98 0v534h67v-435l344 435h66v-534h-67v435l-346 -435h-64z" />
    <glyph glyph-name="uni04E6" unicode="&#x4e6;" horiz-adv-x="894" 
d="M309 804v87h88v-87h-88zM499 804v87h87v-87h-87zM446 -12q-162 0 -265 110t-103 264v2q0 154 104 265t266 111t265 -110t103 -264v-2q0 -154 -104 -265t-266 -111zM448 51q127 0 211 90t84 221v2q0 131 -85 222t-212 91t-211 -90t-84 -221v-2q0 -131 85 -222t212 -91z
" />
    <glyph glyph-name="uni04E7" unicode="&#x4e7;" horiz-adv-x="679" 
d="M210 619v92h84v-92h-84zM386 619v92h84v-92h-84zM339 -12q-118 0 -197 81.5t-79 195.5v2q0 115 79.5 197.5t198.5 82.5q118 0 197 -81.5t79 -196.5v-2q0 -114 -80 -196.5t-198 -82.5zM341 49q89 0 147 63t58 153v2q0 91 -60 155t-147 64q-89 0 -147.5 -63t-58.5 -154v-2
q0 -91 60 -154.5t148 -63.5z" />
    <glyph glyph-name="uni04E8" unicode="&#x4e8;" horiz-adv-x="893" 
d="M445 -12q-161 0 -264 110t-103 264v2q0 154 104 265t266 111q161 0 264 -110t103 -264v-2q0 -154 -104 -265t-266 -111zM445 678q-120 0 -202 -80t-93 -200h593q-11 120 -94.5 200t-203.5 80zM448 50q121 0 204 81t92 203h-594q10 -121 93.5 -202.5t204.5 -81.5z" />
    <glyph glyph-name="uni04E9" unicode="&#x4e9;" horiz-adv-x="678" 
d="M338 -12q-118 0 -196.5 81.5t-78.5 195.5v2q0 115 79.5 197.5t197.5 82.5t197 -81.5t79 -196.5v-2q0 -114 -80 -196.5t-198 -82.5zM338 487q-82 0 -139.5 -54t-67.5 -135h416q-11 81 -70 135t-139 54zM340 47q84 0 142 55.5t66 138.5h-417q9 -84 68 -139t141 -55z" />
    <glyph glyph-name="uni04EE" unicode="&#x4ee;" horiz-adv-x="745" 
d="M219 814v60h334v-60h-334zM279 0h-78l153 252l-313 476h81l270 -416l241 416h79z" />
    <glyph glyph-name="uni04EF" unicode="&#x4ef;" horiz-adv-x="623" 
d="M157 643v57h316v-57h-316zM325 74l180 460h73l-228 -552q-34 -82 -75.5 -117t-101.5 -35q-56 0 -111 26l23 55q42 -20 87 -20q39 0 66 25t54 86l-249 532h75z" />
    <glyph glyph-name="uni04F0" unicode="&#x4f0;" horiz-adv-x="745" 
d="M247 790v87h88v-87h-88zM437 790v87h87v-87h-87zM279 0h-78l153 252l-313 476h81l270 -416l241 416h79z" />
    <glyph glyph-name="uni04F1" unicode="&#x4f1;" horiz-adv-x="623" 
d="M185 619v92h84v-92h-84zM361 619v92h84v-92h-84zM325 74l180 460h73l-228 -552q-34 -82 -75.5 -117t-101.5 -35q-56 0 -111 26l23 55q42 -20 87 -20q39 0 66 25t54 86l-249 532h75z" />
    <glyph glyph-name="uni04F2" unicode="&#x4f2;" horiz-adv-x="745" 
d="M424 790l101 129l72 -34l-115 -95h-58zM271 790l101 129l72 -34l-116 -95h-57zM279 0h-78l153 252l-313 476h81l270 -416l241 416h79z" />
    <glyph glyph-name="uni04F3" unicode="&#x4f3;" horiz-adv-x="623" 
d="M205 619l96 145l68 -35l-109 -110h-55zM354 619l96 145l69 -35l-110 -110h-55zM325 74l180 460h73l-228 -552q-34 -82 -75.5 -117t-101.5 -35q-56 0 -111 26l23 55q42 -20 87 -20q39 0 66 25t54 86l-249 532h75z" />
    <glyph glyph-name="uni04F4" unicode="&#x4f4;" horiz-adv-x="746" 
d="M225 790v87h88v-87h-88zM415 790v87h87v-87h-87zM566 0v293q-100 -30 -203 -30q-272 0 -272 243v222h70v-209q0 -103 50 -147.5t158 -44.5q98 0 197 31v370h70v-728h-70z" />
    <glyph glyph-name="uni04F5" unicode="&#x4f5;" horiz-adv-x="620" 
d="M170 619v92h84v-92h-84zM346 619v92h84v-92h-84zM455 0v192q-86 -23 -161 -23q-217 0 -217 199v166h67v-161q0 -75 37.5 -108t119.5 -33q77 0 154 23v279h67v-534h-67z" />
    <glyph glyph-name="uni04F8" unicode="&#x4f8;" horiz-adv-x="976" 
d="M349 790v87h88v-87h-88zM539 790v87h87v-87h-87zM796 0v728h70v-728h-70zM110 0v728h70v-269h198q123 0 198 -59.5t75 -164.5v-2q0 -110 -81 -171.5t-204 -61.5h-256zM180 64h189q95 0 153.5 45.5t58.5 120.5v2q0 79 -56.5 121.5t-150.5 42.5h-194v-332z" />
    <glyph glyph-name="uni04F9" unicode="&#x4f9;" horiz-adv-x="816" 
d="M278 619v92h84v-92h-84zM454 619v92h84v-92h-84zM651 0v534h67v-534h-67zM165 534v-189h175q98 0 153.5 -46t55.5 -125v-2q0 -78 -56 -125t-155 -47h-240v534h67zM165 287v-228h172q71 0 107 29.5t36 83.5v1q0 53 -36 83.5t-106 30.5h-173z" />
    <glyph glyph-name="baht" unicode="&#xe3f;" horiz-adv-x="668" 
d="M271 -123h-56l19 123h-131v728h251l13 82h56l-14 -87q78 -13 124 -59.5t46 -116.5v-1q0 -127 -129 -173q158 -41 158 -174v-1q0 -92 -69 -145t-183 -53h-66zM168 394h135l44 275h-179v-275zM514 538q0 50 -31 83.5t-87 43.5l-44 -271q75 2 118.5 39.5t43.5 103.5v1z
M168 59h80l46 281h-126v-281zM350 340h-7l-46 -281h61q86 0 135.5 37t49.5 103v1q0 67 -50 104t-143 36z" />
    <glyph glyph-name="Wgrave" unicode="&#x1e80;" horiz-adv-x="1159" 
d="M608 794h-58l-116 95l73 34zM316 -5l-262 733h77l217 -625l206 627h56l205 -627l217 625h73l-261 -733h-59l-205 609l-206 -609h-58z" />
    <glyph glyph-name="wgrave" unicode="&#x1e81;" horiz-adv-x="905" 
d="M426 619l-115 110l74 35l95 -145h-54zM243 -4l-191 538h73l149 -446l152 449h55l152 -449l150 446h70l-191 -538h-58l-151 437l-152 -437h-58z" />
    <glyph glyph-name="Wacute" unicode="&#x1e82;" horiz-adv-x="1159" 
d="M551 794l101 129l73 -34l-116 -95h-58zM316 -5l-262 733h77l217 -625l206 627h56l205 -627l217 625h73l-261 -733h-59l-205 609l-206 -609h-58z" />
    <glyph glyph-name="wacute" unicode="&#x1e83;" horiz-adv-x="905" 
d="M425 619l95 145l74 -35l-115 -110h-54zM243 -4l-191 538h73l149 -446l152 449h55l152 -449l150 446h70l-191 -538h-58l-151 437l-152 -437h-58z" />
    <glyph glyph-name="Wdieresis" unicode="&#x1e84;" horiz-adv-x="1159" 
d="M441 794v87h88v-87h-88zM631 794v87h87v-87h-87zM316 -5l-262 733h77l217 -625l206 627h56l205 -627l217 625h73l-261 -733h-59l-205 609l-206 -609h-58z" />
    <glyph glyph-name="wdieresis" unicode="&#x1e85;" horiz-adv-x="905" 
d="M322 619v92h84v-92h-84zM498 619v92h84v-92h-84zM243 -4l-191 538h73l149 -446l152 449h55l152 -449l150 446h70l-191 -538h-58l-151 437l-152 -437h-58z" />
    <glyph glyph-name="Ygrave" unicode="&#x1ef2;" horiz-adv-x="755" 
d="M406 790h-58l-116 95l73 34zM342 0v288l-307 440h86l257 -376l259 376h82l-307 -439v-289h-70z" />
    <glyph glyph-name="ygrave" unicode="&#x1ef3;" horiz-adv-x="623" 
d="M289 619l-115 110l74 35l95 -145h-54zM325 74l180 460h73l-228 -552q-34 -82 -75.5 -117t-101.5 -35q-56 0 -111 26l23 55q42 -20 87 -20q39 0 66 25t54 86l-249 532h75z" />
    <glyph glyph-name="enspace" unicode="&#x2002;" horiz-adv-x="500" 
 />
    <glyph glyph-name="emspace" unicode="&#x2003;" horiz-adv-x="1000" 
 />
    <glyph glyph-name="threeperemspace" unicode="&#x2004;" horiz-adv-x="333" 
 />
    <glyph glyph-name="fourperemspace" unicode="&#x2005;" horiz-adv-x="250" 
 />
    <glyph glyph-name="figurespace" unicode="&#x2007;" horiz-adv-x="630" 
 />
    <glyph glyph-name="thinspace" unicode="&#x2009;" horiz-adv-x="133" 
 />
    <glyph glyph-name="hairspace" unicode="&#x200a;" horiz-adv-x="75" 
 />
    <glyph glyph-name="endash" unicode="&#x2013;" horiz-adv-x="559" 
d="M75 277v68h409v-68h-409z" />
    <glyph glyph-name="emdash" unicode="&#x2014;" horiz-adv-x="944" 
d="M75 277v68h794v-68h-794z" />
    <glyph glyph-name="quoteleft" unicode="&#x2018;" horiz-adv-x="258" 
d="M82 513v87q0 56 24 87t78 46l13 -32q-37 -15 -52 -35.5t-13 -52.5h34v-100h-84z" />
    <glyph glyph-name="quoteright" unicode="&#x2019;" horiz-adv-x="258" 
d="M74 508l-13 32q37 16 52 36t13 52h-34v100h84v-86q0 -56 -24 -87t-78 -47z" />
    <glyph glyph-name="quotesinglbase" unicode="&#x201a;" horiz-adv-x="258" 
d="M69 -120l-13 32q37 16 52 36.5t13 51.5h-34v100h84v-86q0 -56 -24 -87t-78 -47z" />
    <glyph glyph-name="quotedblleft" unicode="&#x201c;" horiz-adv-x="457" 
d="M82 513v87q0 56 24 87t78 46l13 -32q-37 -15 -52 -35.5t-13 -52.5h34v-100h-84zM281 513v87q0 56 24 87t78 46l13 -32q-37 -15 -52.5 -35.5t-12.5 -52.5h33v-100h-83z" />
    <glyph glyph-name="quotedblright" unicode="&#x201d;" horiz-adv-x="457" 
d="M74 508l-13 32q37 16 52 36t13 52h-34v100h84v-86q0 -56 -24 -87t-78 -47zM272 508l-12 32q37 16 52 36t13 52h-34v100h84v-86q0 -56 -24 -87t-79 -47z" />
    <glyph glyph-name="quotedblbase" unicode="&#x201e;" horiz-adv-x="457" 
d="M69 -120l-13 32q37 16 52 36.5t13 51.5h-34v100h84v-86q0 -56 -24 -87t-78 -47zM267 -120l-12 32q37 16 52 36.5t12 51.5h-33v100h84v-86q0 -56 -24 -87t-79 -47z" />
    <glyph glyph-name="dagger" unicode="&#x2020;" horiz-adv-x="436" 
d="M192 248l6 294l-129 -7v52l128 -7l-8 148h58l-8 -148l128 7v-52l-129 7l6 -294h-52z" />
    <glyph glyph-name="daggerdbl" unicode="&#x2021;" horiz-adv-x="457" 
d="M199 0l9 148l-129 -7v52l129 -7l-5 178l5 178l-129 -7v52l129 -7l-9 148h59l-8 -148l128 7v-52l-129 7l6 -178l-6 -178l129 7v-52l-128 7l8 -148h-59z" />
    <glyph glyph-name="bullet" unicode="&#x2022;" horiz-adv-x="503" 
d="M252 233q-55 0 -94 38.5t-39 93.5v2q0 54 39.5 93t93.5 39q53 0 93 -39t40 -93v-2q0 -55 -39 -93.5t-94 -38.5z" />
    <glyph glyph-name="ellipsis" unicode="&#x2026;" horiz-adv-x="742" 
d="M87 0v98h81v-98h-81zM330 0v98h82v-98h-82zM574 0v98h81v-98h-81z" />
    <glyph glyph-name="perthousand" unicode="&#x2030;" horiz-adv-x="1264" 
d="M222 364q-71 0 -116 54.5t-45 129.5v2q0 77 45.5 131.5t117.5 54.5q71 0 116.5 -54.5t45.5 -129.5v-2q0 -76 -46 -131t-118 -55zM736 728l-279 -380l-255 -348h-66l278 377l256 351h66zM224 416q44 0 72 38t28 94v2q0 57 -30 95.5t-72 38.5q-43 0 -71 -38.5t-28 -93.5v-2
q0 -57 29.5 -95.5t71.5 -38.5zM1040 -8q-71 0 -116.5 54t-45.5 130v2q0 76 46 131t118 55q71 0 116.5 -54.5t45.5 -129.5v-2q0 -76 -46 -131t-118 -55zM648 -8q-71 0 -116 54t-45 130v2q0 76 46 131t117 55t116.5 -54.5t45.5 -129.5v-2q0 -76 -46 -131t-118 -55zM1042 44
q44 0 71.5 38t27.5 94v2q0 57 -29.5 95.5t-71.5 38.5q-43 0 -71 -38.5t-28 -93.5v-2q0 -57 29.5 -95.5t71.5 -38.5zM650 44q44 0 72 38t28 94v2q0 57 -30 95.5t-72 38.5q-43 0 -71 -38.5t-28 -93.5v-2q0 -57 29.5 -95.5t71.5 -38.5z" />
    <glyph glyph-name="guilsinglleft" unicode="&#x2039;" horiz-adv-x="343" 
d="M226 44l-170 219v8l170 220l49 -30l-140 -193l140 -195z" />
    <glyph glyph-name="guilsinglright" unicode="&#x203a;" horiz-adv-x="343" 
d="M117 44l-49 29l140 193l-140 195l49 30l170 -220v-8z" />
    <glyph glyph-name="fraction" unicode="&#x2044;" horiz-adv-x="114" 
d="M-216 0l257 372l238 356h51l-257 -372l-238 -356h-51z" />
    <glyph glyph-name="zero.sup" unicode="&#x2070;" 
d="M209 432q-67 0 -107.5 58.5t-40.5 150.5v2q0 92 41 151.5t108 59.5t108.5 -58.5t41.5 -150.5v-2q0 -92 -42 -151.5t-109 -59.5zM209 811q-46 0 -73 -46.5t-27 -119.5v-3q0 -73 27.5 -120t73.5 -47t73.5 47t27.5 120v3q0 72 -28 119t-74 47z" />
    <glyph glyph-name="four.sup" unicode="&#x2074;" 
d="M312 533v-93h-45v93h-198l-12 41l201 276h54v-276h56v-41h-56zM267 574v216l-159 -216h159z" />
    <glyph glyph-name="five.sup" unicode="&#x2075;" 
d="M207 432q-84 0 -147 68l32 34q54 -59 116 -59q44 0 71 25t27 62q0 38 -27.5 60t-70.5 22q-44 0 -91 -22l-32 19l14 203h238v-47h-198l-9 -126q39 17 84 17q60 0 101 -33.5t41 -89.5q0 -58 -43 -95.5t-106 -37.5z" />
    <glyph glyph-name="six.sup" unicode="&#x2076;" 
d="M209 432q-61 0 -100 39q-49 49 -49 157v2q0 100 45 162t118 62q67 0 115 -48l-28 -35q-42 40 -89 40q-46 0 -79 -47t-34 -118q43 52 109 52q55 0 93 -35.5t38 -93.5t-40 -97.5t-99 -39.5zM207 475q41 0 67.5 25.5t26.5 66.5t-24.5 65.5t-65.5 24.5t-68.5 -25.5
t-27.5 -64.5v-1q0 -39 27 -65.5t65 -25.5z" />
    <glyph glyph-name="seven.sup" unicode="&#x2077;" 
d="M170 440h-55l181 357h-222v47h278v-36z" />
    <glyph glyph-name="eight.sup" unicode="&#x2078;" 
d="M210 432q-64 0 -105.5 32.5t-41.5 84.5q0 68 76 101q-64 31 -64 93q0 48 40 79.5t97 31.5q55 0 95 -31.5t40 -79.5q0 -63 -64 -93q34 -14 55 -40t21 -59q0 -53 -42 -86t-107 -33zM211 813q-40 0 -65 -20t-25 -52t25.5 -53t64.5 -21t64.5 21t25.5 53t-25.5 52t-64.5 20z
M211 629q-45 0 -73.5 -22.5t-28.5 -56.5t28 -55.5t74 -21.5q45 0 73 21.5t28 55.5t-28 56.5t-73 22.5z" />
    <glyph glyph-name="nine.sup" unicode="&#x2079;" 
d="M209 625q41 0 68.5 26t27.5 66v1q0 40 -27 67t-65 26q-42 0 -68 -26t-26 -68t24.5 -67t65.5 -25zM211 854q61 0 100 -39q49 -49 49 -157v-2q0 -102 -45 -163t-118 -61q-69 0 -121 50l29 35q44 -42 94 -42q46 0 79 45.5t34 115.5q-43 -52 -109 -52q-55 0 -93 35.5
t-38 95.5q0 59 40 99t99 40z" />
    <glyph glyph-name="zero.inf" unicode="&#x2080;" 
d="M209 -147q-67 0 -107.5 58.5t-40.5 150.5v2q0 92 41 151.5t108 59.5t108.5 -58.5t41.5 -150.5v-2q0 -92 -42 -151.5t-109 -59.5zM209 232q-46 0 -73 -46.5t-27 -119.5v-3q0 -73 27.5 -120t73.5 -47t73.5 47t27.5 120v3q0 72 -28 119t-74 47z" />
    <glyph glyph-name="one.inf" unicode="&#x2081;" horiz-adv-x="342" 
d="M218 -137h-48v358l-91 -34l-12 42l112 43h39v-409z" />
    <glyph glyph-name="two.inf" unicode="&#x2082;" 
d="M64 -137v41l153 133q44 39 62.5 65.5t18.5 55.5q0 32 -23 53t-58 21q-63 0 -111 -72l-36 24q58 91 150 91q55 0 91 -32.5t36 -81.5q0 -41 -21.5 -72.5t-73.5 -76.5l-122 -104h221v-45h-287z" />
    <glyph glyph-name="three.inf" unicode="&#x2083;" 
d="M208 -147q-94 0 -151 74l33 32q51 -63 119 -63q37 0 62.5 22t25.5 57q0 37 -31 57.5t-80 20.5h-32l-9 30l134 137h-200v45h261v-39l-130 -133q60 -5 98 -34.5t38 -83.5t-40 -88t-98 -34z" />
    <glyph glyph-name="four.inf" unicode="&#x2084;" 
d="M312 -46v-93h-45v93h-198l-12 41l201 276h54v-276h56v-41h-56zM267 -5v216l-159 -216h159z" />
    <glyph glyph-name="five.inf" unicode="&#x2085;" 
d="M207 -147q-84 0 -147 68l32 34q54 -59 116 -59q44 0 71 25t27 62q0 38 -27.5 60t-70.5 22q-44 0 -91 -22l-32 19l14 203h238v-47h-198l-9 -126q39 17 84 17q60 0 101 -33.5t41 -89.5q0 -58 -43 -95.5t-106 -37.5z" />
    <glyph glyph-name="six.inf" unicode="&#x2086;" 
d="M209 -147q-61 0 -100 39q-49 49 -49 157v2q0 100 45 162t118 62q67 0 115 -48l-28 -35q-42 40 -89 40q-46 0 -79 -47t-34 -118q43 52 109 52q55 0 93 -35.5t38 -93.5t-40 -97.5t-99 -39.5zM207 -104q41 0 67.5 25.5t26.5 66.5t-24.5 65.5t-65.5 24.5t-68.5 -25.5
t-27.5 -64.5v-1q0 -39 27 -65.5t65 -25.5z" />
    <glyph glyph-name="seven.inf" unicode="&#x2087;" 
d="M170 -139h-55l181 357h-222v47h278v-36z" />
    <glyph glyph-name="eight.inf" unicode="&#x2088;" 
d="M210 -147q-64 0 -105.5 32.5t-41.5 84.5q0 68 76 101q-64 31 -64 93q0 48 40 79.5t97 31.5q55 0 95 -31.5t40 -79.5q0 -63 -64 -93q34 -14 55 -40t21 -59q0 -53 -42 -86t-107 -33zM211 234q-40 0 -65 -20t-25 -52t25.5 -53t64.5 -21t64.5 21t25.5 53t-25.5 52t-64.5 20z
M211 50q-45 0 -73.5 -22.5t-28.5 -56.5t28 -55.5t74 -21.5q45 0 73 21.5t28 55.5t-28 56.5t-73 22.5z" />
    <glyph glyph-name="nine.inf" unicode="&#x2089;" 
d="M209 46q41 0 68.5 26t27.5 66v1q0 40 -27 67t-65 26q-42 0 -68 -26t-26 -68t24.5 -67t65.5 -25zM211 275q61 0 100 -39q49 -49 49 -157v-2q0 -102 -45 -163t-118 -61q-69 0 -121 50l29 35q44 -42 94 -42q46 0 79 45.5t34 115.5q-43 -52 -109 -52q-55 0 -93 35.5t-38 95.5
q0 59 40 99t99 40z" />
    <glyph glyph-name="colonmonetary" unicode="&#x20a1;" horiz-adv-x="637" 
d="M268 78q48 -23 102 -23l100 596q-46 22 -100 22h-1zM125 360q0 -173 104 -257l95 565q-88 -18 -143.5 -98t-55.5 -202v-8zM495 810h49l-19 -120q28 -17 58 -42l-34 -52q-29 25 -39 31l-95 -568q68 12 137 76l36 -44q-84 -79 -181 -91l-20 -123h-49l20 121q-51 1 -98 18
l-22 -139h-50l27 162q-72 44 -113.5 127.5t-41.5 193.5v7q0 150 76 248.5t196 112.5l13 82h50l-14 -79q52 -1 97 -19z" />
    <glyph glyph-name="naira" unicode="&#x20a6;" horiz-adv-x="866" 
d="M221 652v-163h102l-101 163h-1zM423 440l93 -148h128v148h-221zM221 440v-148h225l-92 148h-133zM644 87v156h-98zM812 241h-103v-241h-84l-150 241h-253v-241h-65v241h-103v52h103v146h-103v52h103v237h91l147 -237h249v237h65v-237h103v-52h-103v-146h103v-52z" />
    <glyph glyph-name="rupee" unicode="&#x20a8;" horiz-adv-x="1129" 
d="M158 346h174q84 0 136 43.5t52 118.5v2q0 74 -49.5 115.5t-136.5 41.5h-176v-321zM92 0v728h246q114 0 181.5 -59t67.5 -156v-3q0 -82 -49 -137t-128 -74l203 -299h-81l-193 287h-181v-287h-66zM883 -10q-116 0 -209 75l35 49q87 -67 177 -67q50 0 84 25t34 66v2
q0 33 -27.5 55t-101.5 46q-95 30 -135.5 65t-40.5 91v2q0 64 49.5 105t124.5 41q95 0 183 -59l-31 -52q-79 54 -154 54q-48 0 -78.5 -24.5t-30.5 -60.5v-2q0 -34 29.5 -56t106.5 -47q92 -28 131 -62.5t39 -92.5v-2q0 -69 -53.5 -110t-131.5 -41z" />
    <glyph glyph-name="won" unicode="&#x20a9;" horiz-adv-x="1157" 
d="M576 654l-42 -144h88l-41 144h-5zM520 459l-48 -166h213l-48 166h-117zM706 439l41 -146h128l38 146h-207zM247 439l38 -146h128l41 146h-207zM811 66h5l46 176h-100zM345 66h5l49 176h-100zM1062 728l-69 -239h116v-51h-130l-42 -145h172v-51h-186l-70 -245h-80l-73 245
h-243l-72 -245h-81l-70 245h-186v51h171l-41 145h-130v51h115l-68 239h76l65 -239h232l70 241h85l68 -241h235l65 239h71z" />
    <glyph glyph-name="sheqel" unicode="&#x20aa;" horiz-adv-x="656" 
d="M372 369q0 56 -27.5 81t-85.5 25h-117v-475h-59v534h181q81 0 120 -36.5t39 -115.5v-197h-51v184zM251 145l-34 214h53l32 -196q8 -53 35 -78.5t79 -25.5h98v475h60v-534h-159q-73 0 -112.5 35.5t-51.5 109.5z" />
    <glyph glyph-name="Euro" unicode="&#x20ac;" horiz-adv-x="759" 
d="M695 597l-53 -38q-43 62 -88 90.5t-111 28.5q-73 0 -129 -52.5t-81 -139.5h280v-58h-292q-5 -35 -5 -63v-1q0 -28 3 -55h294v-59h-283q24 -91 83.5 -146t140.5 -54q61 0 106.5 32t86.5 94l50 -35q-98 -153 -245 -153q-109 0 -187.5 71.5t-105.5 190.5h-94v59h84
q-2 17 -2 54v1q0 35 4 64h-86v58h97q30 112 106 183.5t177 70.5q86 0 145 -37.5t105 -105.5z" />
    <glyph glyph-name="peso" unicode="&#x20b1;" horiz-adv-x="757" 
d="M145 0v467h-101v52h101v209h206q116 0 189.5 -56t80.5 -153h102v-52h-102q-9 -102 -89.5 -158.5t-194.5 -56.5h-122v-252h-70zM214 666v-149h338q-7 72 -62.5 110.5t-145.5 38.5h-130zM340 313q91 0 148.5 42.5t63.5 113.5h-338v-156h126z" />
    <glyph glyph-name="hryvnia" unicode="&#x20b4;" horiz-adv-x="669" 
d="M69 450l6 46l328 -40q46 37 64.5 64t17.5 58q0 47 -36.5 73.5t-97.5 26.5q-100 0 -189 -75l-39 50q101 87 232 87q96 0 150 -45.5t54 -115.5q0 -68 -73 -133l139 -16l-7 -46l-183 22l-110 -88l279 -33l-6 -46l-325 39q-52 -42 -71 -70t-18 -57q0 -50 38.5 -76t101.5 -26
q105 0 206 77l39 -51q-116 -87 -248 -87q-105 0 -158 44.5t-53 115.5q0 67 80 140l-142 17l7 46l185 -22l111 87z" />
    <glyph glyph-name="numero" unicode="&#x2116;" horiz-adv-x="1177" 
d="M924 298q-81 0 -132.5 61t-51.5 152v6q0 91 52.5 152.5t133.5 61.5t132.5 -61t51.5 -152v-6q0 -91 -52.5 -152.5t-133.5 -61.5zM925 349q56 0 92.5 47t36.5 115v6q0 69 -36.5 116t-92.5 47t-92 -47t-36 -115v-6q0 -69 36 -116t92 -47zM95 0v728h63l398 -597v597h64v-728
h-54l-407 611v-611h-64zM743 152v50h364v-50h-364z" />
    <glyph glyph-name="published" unicode="&#x2117;" horiz-adv-x="873" 
d="M436 -12q-158 0 -267 109.5t-109 264.5v2q0 155 110.5 265.5t267.5 110.5t266 -109.5t109 -264.5v-2q0 -155 -110 -265.5t-267 -110.5zM436 19q146 0 245 101t99 244v2q0 143 -98.5 243t-243.5 100q-146 0 -245.5 -101t-99.5 -244v-2q0 -143 98.5 -243t244.5 -100z
M311 180v384h149q68 0 108.5 -32.5t40.5 -90.5v-2q0 -61 -44.5 -94t-111.5 -33h-90v-132h-52zM363 359h91q47 0 74.5 21t27.5 57v3q0 37 -26.5 56.5t-73.5 19.5h-93v-157z" />
    <glyph glyph-name="servicemark" unicode="&#x2120;" horiz-adv-x="746" 
d="M371 408v320h44l119 -182l119 182h43v-320h-41v250l-119 -179h-5l-119 179v-250h-41zM176 402q-77 0 -137 52l26 31q51 -46 113 -46q32 0 52 15.5t20 38.5q0 22 -18 34.5t-66 23.5q-58 13 -85 33t-27 59t32 64.5t81 25.5q67 0 117 -40l-24 -30q-43 33 -94 33
q-32 0 -51 -14t-19 -36t18 -34.5t68 -24.5q56 -12 83 -33t27 -58q0 -42 -33 -68t-83 -26z" />
    <glyph glyph-name="trademark" unicode="&#x2122;" horiz-adv-x="728" 
d="M136 408v280h-104v40h249v-40h-103v-280h-42zM353 408v320h44l119 -182l119 182h43v-320h-41v250l-119 -179h-5l-119 179v-250h-41z" />
    <glyph glyph-name="Omega" unicode="&#x2126;" horiz-adv-x="913" 
d="M457 740q160 0 260 -99t100 -249v-1q0 -194 -196 -330l221 2v-63h-310v59q105 69 158.5 144t53.5 185v1q0 127 -80 208t-208 80q-128 0 -207.5 -80.5t-79.5 -207.5v-1q0 -106 54 -183.5t158 -145.5v-59h-310v63l220 -2q-96 69 -145.5 148.5t-49.5 182.5v1
q0 147 100.5 247.5t260.5 99.5z" />
    <glyph glyph-name="onethird" unicode="&#x2153;" horiz-adv-x="867" 
d="M217 326h-48v358l-91 -34l-12 42l112 43h39v-409zM125 0l257 372l238 356h51l-257 -372l-238 -356h-51zM663 -10q-94 0 -151 74l33 32q51 -63 119 -63q37 0 62.5 22t25.5 57q0 36 -31 57t-80 21h-32l-9 30l134 137h-200v45h261v-39l-130 -133q60 -5 98 -34.5t38 -83.5
t-40 -88t-98 -34z" />
    <glyph glyph-name="twothirds" unicode="&#x2154;" horiz-adv-x="945" 
d="M57 326v41l153 133q44 39 62.5 65.5t18.5 55.5q0 32 -23 53t-58 21q-63 0 -111 -72l-36 24q58 91 150 91q54 0 90.5 -33t36.5 -81q0 -41 -21.5 -72.5t-73.5 -76.5l-122 -104h221v-45h-287zM200 0l257 372l238 356h51l-257 -372l-238 -356h-51zM741 -10q-94 0 -151 74
l33 32q51 -63 119 -63q37 0 62.5 22t25.5 57q0 36 -31 57t-80 21h-32l-9 30l134 137h-200v45h261v-39l-130 -133q60 -5 98 -34.5t38 -83.5t-40 -88t-98 -34z" />
    <glyph glyph-name="onefifth" unicode="&#x2155;" horiz-adv-x="867" 
d="M217 326h-48v358l-91 -34l-12 42l112 43h39v-409zM130 0l257 372l238 356h51l-257 -372l-238 -356h-51zM662 -10q-84 0 -147 68l32 34q54 -59 116 -59q44 0 71 25t27 62q0 38 -27.5 60t-70.5 22q-44 0 -91 -22l-32 19l14 203h238v-47h-198l-9 -126q39 17 84 17
q60 0 101 -33.5t41 -89.5q0 -58 -43 -95.5t-106 -37.5z" />
    <glyph glyph-name="twofifths" unicode="&#x2156;" horiz-adv-x="945" 
d="M57 326v41l153 133q44 39 62.5 65.5t18.5 55.5q0 32 -23 53t-58 21q-63 0 -111 -72l-36 24q58 91 150 91q54 0 90.5 -33t36.5 -81q0 -41 -21.5 -72.5t-73.5 -76.5l-122 -104h221v-45h-287zM210 0l257 372l238 356h51l-257 -372l-238 -356h-51zM740 -10q-84 0 -147 68
l32 34q54 -59 116 -59q44 0 71 25t27 62q0 38 -27.5 60t-70.5 22q-44 0 -91 -22l-32 19l14 203h238v-47h-198l-9 -126q39 17 84 17q60 0 101 -33.5t41 -89.5q0 -58 -43 -95.5t-106 -37.5z" />
    <glyph glyph-name="threefifths" unicode="&#x2157;" horiz-adv-x="945" 
d="M195 0l257 372l238 356h51l-257 -372l-238 -356h-51zM201 316q-94 0 -151 74l33 32q49 -63 119 -63q37 0 62.5 22t25.5 57q0 36 -31 57t-80 21h-32l-9 30l134 137h-200v45h261v-39l-130 -133q60 -5 98 -34.5t38 -83.5t-40 -88t-98 -34zM740 -10q-84 0 -147 68l32 34
q54 -59 116 -59q44 0 71 25t27 62q0 38 -27.5 60t-70.5 22q-44 0 -91 -22l-32 19l14 203h238v-47h-198l-9 -126q39 17 84 17q60 0 101 -33.5t41 -89.5q0 -58 -43 -95.5t-106 -37.5z" />
    <glyph glyph-name="fourfifths" unicode="&#x2158;" horiz-adv-x="945" 
d="M305 417v-93h-45v93h-198l-12 41l201 276h54v-276h56v-41h-56zM210 0l257 372l238 356h51l-257 -372l-238 -356h-51zM260 458v216l-159 -216h159zM740 -10q-84 0 -147 68l32 34q54 -59 116 -59q44 0 71 25t27 62q0 38 -27.5 60t-70.5 22q-44 0 -91 -22l-32 19l14 203h238
v-47h-198l-9 -126q39 17 84 17q60 0 101 -33.5t41 -89.5q0 -58 -43 -95.5t-106 -37.5z" />
    <glyph glyph-name="onesixth" unicode="&#x2159;" horiz-adv-x="867" 
d="M217 326h-48v358l-91 -34l-12 42l112 43h39v-409zM138 0l257 372l238 356h51l-257 -372l-238 -356h-51zM664 -10q-61 0 -100 39q-49 49 -49 157v2q0 100 45 162t118 62q67 0 115 -48l-28 -35q-42 40 -89 40q-46 0 -79 -47t-34 -118q43 52 109 52q55 0 93 -35.5t38 -93.5
t-40 -97.5t-99 -39.5zM662 33q41 0 67.5 25.5t26.5 66.5t-24.5 65.5t-65.5 24.5t-68.5 -25.5t-27.5 -64.5v-1q0 -39 27 -65.5t65 -25.5z" />
    <glyph glyph-name="fivesixths" unicode="&#x215a;" horiz-adv-x="945" 
d="M200 0l257 372l238 356h51l-257 -372l-238 -356h-51zM200 316q-84 0 -147 68l32 34q54 -59 116 -59q44 0 71 25t27 62q0 38 -27.5 60t-70.5 22q-44 0 -91 -22l-32 19l14 203h238v-47h-198l-9 -126q39 17 84 17q60 0 101 -33.5t41 -89.5q0 -58 -43 -95.5t-106 -37.5z
M742 -10q-61 0 -100 39q-49 49 -49 157v2q0 100 45 162t118 62q67 0 115 -48l-28 -35q-42 40 -89 40q-46 0 -79 -47t-34 -118q43 52 109 52q55 0 93 -35.5t38 -93.5t-40 -97.5t-99 -39.5zM740 33q41 0 67.5 25.5t26.5 66.5t-24.5 65.5t-65.5 24.5t-68.5 -25.5t-27.5 -64.5
v-1q0 -39 27 -65.5t65 -25.5z" />
    <glyph glyph-name="oneeighth" unicode="&#x215b;" horiz-adv-x="867" 
d="M217 326h-48v358l-91 -34l-12 42l112 43h39v-409zM137 0l257 372l238 356h51l-257 -372l-238 -356h-51zM665 -10q-64 0 -105.5 32.5t-41.5 84.5q0 68 76 101q-64 31 -64 93q0 48 40 79.5t97 31.5q55 0 95 -31.5t40 -79.5q0 -63 -64 -93q34 -14 55 -40t21 -59
q0 -53 -42 -86t-107 -33zM666 371q-40 0 -65 -20t-25 -52t25.5 -53t64.5 -21t64.5 21t25.5 53t-25.5 52t-64.5 20zM666 187q-45 0 -73.5 -22.5t-28.5 -56.5t28 -55.5t74 -21.5q45 0 73 21.5t28 55.5t-28 56.5t-73 22.5z" />
    <glyph glyph-name="threeeighths" unicode="&#x215c;" horiz-adv-x="945" 
d="M200 0l257 372l238 356h51l-257 -372l-238 -356h-51zM201 316q-94 0 -151 74l33 32q49 -63 119 -63q37 0 62.5 22t25.5 57q0 36 -31 57t-80 21h-32l-9 30l134 137h-200v45h261v-39l-130 -133q60 -5 98 -34.5t38 -83.5t-40 -88t-98 -34zM743 -10q-64 0 -105.5 32.5
t-41.5 84.5q0 68 76 101q-64 31 -64 93q0 48 40 79.5t97 31.5q55 0 95 -31.5t40 -79.5q0 -63 -64 -93q34 -14 55 -40t21 -59q0 -53 -42 -86t-107 -33zM744 371q-40 0 -65 -20t-25 -52t25.5 -53t64.5 -21t64.5 21t25.5 53t-25.5 52t-64.5 20zM744 187q-45 0 -73.5 -22.5
t-28.5 -56.5t28 -55.5t74 -21.5q45 0 73 21.5t28 55.5t-28 56.5t-73 22.5z" />
    <glyph glyph-name="fiveeighths" unicode="&#x215d;" horiz-adv-x="945" 
d="M200 0l257 372l238 356h51l-257 -372l-238 -356h-51zM200 316q-84 0 -147 68l32 34q54 -59 116 -59q44 0 71 25t27 62q0 38 -27.5 60t-70.5 22q-44 0 -91 -22l-32 19l14 203h238v-47h-198l-9 -126q39 17 84 17q60 0 101 -33.5t41 -89.5q0 -58 -43 -95.5t-106 -37.5z
M743 -10q-64 0 -105.5 32.5t-41.5 84.5q0 68 76 101q-64 31 -64 93q0 48 40 79.5t97 31.5q55 0 95 -31.5t40 -79.5q0 -63 -64 -93q34 -14 55 -40t21 -59q0 -53 -42 -86t-107 -33zM744 371q-40 0 -65 -20t-25 -52t25.5 -53t64.5 -21t64.5 21t25.5 53t-25.5 52t-64.5 20z
M744 187q-45 0 -73.5 -22.5t-28.5 -56.5t28 -55.5t74 -21.5q45 0 73 21.5t28 55.5t-28 56.5t-73 22.5z" />
    <glyph glyph-name="seveneighths" unicode="&#x215e;" horiz-adv-x="945" 
d="M169 0l257 372l238 356h51l-257 -372l-238 -356h-51zM173 324h-55l181 357h-222v47h278v-36zM743 -10q-64 0 -105.5 32.5t-41.5 84.5q0 68 76 101q-64 31 -64 93q0 48 40 79.5t97 31.5q55 0 95 -31.5t40 -79.5q0 -63 -64 -93q34 -14 55 -40t21 -59q0 -53 -42 -86
t-107 -33zM744 371q-40 0 -65 -20t-25 -52t25.5 -53t64.5 -21t64.5 21t25.5 53t-25.5 52t-64.5 20zM744 187q-45 0 -73.5 -22.5t-28.5 -56.5t28 -55.5t74 -21.5q45 0 73 21.5t28 55.5t-28 56.5t-73 22.5z" />
    <glyph glyph-name="Delta" unicode="&#x2206;" horiz-adv-x="831" 
d="M62 0l-6 52l325 681h69l325 -681l-6 -52h-707zM414 655l-279 -591h557z" />
    <glyph glyph-name="minus" unicode="&#x2212;" horiz-adv-x="658" 
d="M582 333h-506v66h506v-66z" />
    <glyph glyph-name="Q.alt" horiz-adv-x="894" 
d="M756 -105l-142 131q-78 -38 -168 -38q-162 0 -265 110t-103 264v2q0 154 104 265t266 111t265 -110t103 -264v-2q0 -88 -36 -165.5t-101 -130.5l180 -170v-3h-103zM448 51q127 0 211 90t84 221v2q0 131 -85 222t-212 91t-211 -90t-84 -221v-2q0 -131 85 -222t212 -91z
" />
    <glyph glyph-name="a.alt" horiz-adv-x="699" 
d="M333 50q81 0 142.5 61t61.5 155v2q0 94 -61.5 155.5t-142.5 61.5q-84 0 -141 -59t-57 -157v-2q0 -96 58 -156.5t140 -60.5zM322 -12q-102 0 -179.5 76t-77.5 201v2q0 125 77.5 202.5t179.5 77.5q131 0 212 -121v108h67v-534h-67v113q-84 -125 -212 -125z" />
    <glyph glyph-name="uni039E.alt" horiz-adv-x="787" 
d="M718 64v-64h-649v64h290v271h-256v64h256v265h-285v64h638v-64h-284v-265h256v-64h-256v-271h290z" />
    <glyph glyph-name="uni0424.bgr" horiz-adv-x="969" 
d="M449 -104v103q-164 5 -267.5 108t-103.5 255v2q0 150 103.5 254t267.5 111v103h70v-103q165 -5 268.5 -108.5t103.5 -254.5v-2q0 -151 -104 -255t-268 -110v-103h-70zM150 364q0 -128 84.5 -212.5t215.5 -90.5v606q-132 -6 -216 -90.5t-84 -210.5v-2zM819 364
q0 126 -84.5 211t-215.5 91v-605q132 7 216 90.5t84 210.5v2z" />
    <glyph glyph-name="uni0432.bgr" horiz-adv-x="674" 
d="M88 259v246q0 122 68 191.5t185 69.5q109 0 173.5 -55.5t64.5 -144.5v-1q0 -72 -44 -119t-120 -63q196 -40 196 -192v-1q0 -85 -68.5 -144t-187.5 -58q-128 0 -197.5 67t-69.5 204zM154 505v-99h125q107 0 168.5 42t61.5 117q0 62 -45.5 101.5t-122.5 39.5
q-87 0 -137 -53.5t-50 -147.5zM280 351h-126v-92q0 -211 203 -211q85 0 134.5 41.5t49.5 105.5q0 74 -64.5 115t-196.5 41z" />
    <glyph glyph-name="uni0433.bgr" horiz-adv-x="538" 
d="M249 -10q-87 0 -135 37.5t-48 103.5v2q0 62 44 97.5t144 68.5q93 30 122 52t29 56v2q0 34 -27 55.5t-82 21.5q-91 0 -181 -57l-32 52q101 64 214 64q83 0 129 -38t46 -100v-2q0 -58 -43.5 -91.5t-148.5 -68.5q-82 -26 -114.5 -49t-32.5 -62v-2q0 -83 120 -83
q102 0 198 69l33 -50q-111 -78 -235 -78z" />
    <glyph glyph-name="uni0434.bgr" horiz-adv-x="699" 
d="M330 102q82 0 144.5 54t62.5 137v2q0 83 -62.5 136.5t-144.5 53.5t-138.5 -52.5t-56.5 -137.5v-2q0 -83 57.5 -137t137.5 -54zM333 -168q-134 0 -244 77l34 53q97 -71 211 -71q92 0 146 51t54 147v69q-85 -118 -215 -118q-101 0 -177.5 70.5t-76.5 181.5v2
q0 112 76.5 182.5t177.5 70.5q131 0 215 -114v101h67v-445q0 -118 -68 -186q-71 -71 -200 -71z" />
    <glyph glyph-name="uni0436.bgr" horiz-adv-x="906" 
d="M486 759v-459h97l202 234h83l-231 -263l238 -271h-83l-208 240h-98v-240h-66v240h-101l-206 -240h-83l238 270l-230 264h83l201 -234h98v459h66z" />
    <glyph glyph-name="uni0438.bgr" horiz-adv-x="649" 
d="M297 -12q-97 0 -153 59.5t-56 157.5v329h67v-314q0 -79 42 -125t116 -46q73 0 122 50t49 128v307h67v-534h-67v96q-63 -108 -187 -108z" />
    <glyph glyph-name="uni0439.bgr" horiz-adv-x="649" 
d="M319 617q-62 0 -102.5 33t-44.5 91h50q22 -66 97 -66t97 66h50q-4 -58 -44.5 -91t-102.5 -33zM297 -12q-97 0 -153 59.5t-56 157.5v329h67v-314q0 -79 42 -125t116 -46q73 0 122 50t49 128v307h67v-534h-67v96q-63 -108 -187 -108z" />
    <glyph glyph-name="uni043A.bgr" horiz-adv-x="599" 
d="M165 759v-459h107l209 234h84l-237 -261l243 -273h-86l-210 240h-110v-240h-67v759h67z" />
    <glyph glyph-name="uni043F.bgr" horiz-adv-x="649" 
d="M98 0v534h67v-95q63 108 187 108q97 0 153 -60t56 -157v-330h-67v314q0 79 -42 125t-116 46q-73 0 -122 -50t-49 -128v-307h-67z" />
    <glyph glyph-name="uni0442.bgr" horiz-adv-x="999" 
d="M98 0v534h67v-92q66 105 175 105q122 0 175 -111q70 111 190 111q93 0 147.5 -59.5t54.5 -159.5v-328h-67v314q0 81 -39 126t-108 45q-66 0 -111.5 -47.5t-45.5 -128.5v-309h-67v317q0 78 -39 123t-107 45q-67 0 -112.5 -51t-45.5 -127v-307h-67z" />
    <glyph glyph-name="uni0446.bgr" horiz-adv-x="663" 
d="M297 -12q-97 0 -153 59.5t-56 157.5v329h67v-314q0 -79 42 -125t116 -46q73 0 122 50t49 128v307h67v-473h64v-204h-63v143h-68v96q-63 -108 -187 -108z" />
    <glyph glyph-name="uni0448.bgr" horiz-adv-x="999" 
d="M901 534v-534h-67v92q-31 -48 -71.5 -76t-103.5 -28t-107 30.5t-68 79.5q-69 -110 -191 -110q-93 0 -147 59.5t-54 159.5v327h67v-314q0 -81 39 -126t108 -45q66 0 111.5 47.5t45.5 128.5v309h67v-317q0 -78 39 -123t107 -45q67 0 112.5 51.5t45.5 127.5v306h67z" />
    <glyph glyph-name="uni0449.bgr" horiz-adv-x="1013" 
d="M902 -143v143h-68v92q-31 -48 -71.5 -76t-103.5 -28t-107 30.5t-68 79.5q-69 -110 -191 -110q-93 0 -147 59.5t-54 159.5v327h67v-314q0 -81 39 -126t108 -45q66 0 111.5 47.5t45.5 128.5v309h67v-317q0 -78 39 -123t107 -45q67 0 112.5 51.5t45.5 127.5v306h67v-473h64
v-204h-63z" />
    <glyph glyph-name="uni044E.bgr" horiz-adv-x="906" 
d="M572 -12q-110 0 -185 72t-84 179h-138v-239h-67v759h67v-458h139q12 105 86.5 175.5t183.5 70.5q116 0 192.5 -81.5t76.5 -196.5v-2q0 -115 -77 -197t-194 -82zM574 49q87 0 143 63t56 153v2q0 92 -57.5 155.5t-143.5 63.5q-88 0 -144 -63t-56 -154v-2q0 -92 57.5 -155
t144.5 -63z" />
    <glyph glyph-name="aacute.alt" horiz-adv-x="699" 
d="M325 619l95 145l74 -35l-115 -110h-54zM333 50q81 0 142.5 61t61.5 155v2q0 94 -61.5 155.5t-142.5 61.5q-84 0 -141 -59t-57 -157v-2q0 -96 58 -156.5t140 -60.5zM322 -12q-102 0 -179.5 76t-77.5 201v2q0 125 77.5 202.5t179.5 77.5q131 0 212 -121v108h67v-534h-67
v113q-84 -125 -212 -125z" />
    <glyph glyph-name="abreve.alt" horiz-adv-x="699" 
d="M352 617q-62 0 -102.5 33t-44.5 91h50q22 -66 97 -66t97 66h50q-4 -58 -44.5 -91t-102.5 -33zM333 50q81 0 142.5 61t61.5 155v2q0 94 -61.5 155.5t-142.5 61.5q-84 0 -141 -59t-57 -157v-2q0 -96 58 -156.5t140 -60.5zM322 -12q-102 0 -179.5 76t-77.5 201v2
q0 125 77.5 202.5t179.5 77.5q131 0 212 -121v108h67v-534h-67v113q-84 -125 -212 -125z" />
    <glyph glyph-name="acircumflex.alt" horiz-adv-x="699" 
d="M216 619l107 132h58l108 -132h-60l-78 70l-78 -70h-57zM333 50q81 0 142.5 61t61.5 155v2q0 94 -61.5 155.5t-142.5 61.5q-84 0 -141 -59t-57 -157v-2q0 -96 58 -156.5t140 -60.5zM322 -12q-102 0 -179.5 76t-77.5 201v2q0 125 77.5 202.5t179.5 77.5q131 0 212 -121v108
h67v-534h-67v113q-84 -125 -212 -125z" />
    <glyph glyph-name="adieresis.alt" horiz-adv-x="699" 
d="M222 619v92h84v-92h-84zM398 619v92h84v-92h-84zM333 50q81 0 142.5 61t61.5 155v2q0 94 -61.5 155.5t-142.5 61.5q-84 0 -141 -59t-57 -157v-2q0 -96 58 -156.5t140 -60.5zM322 -12q-102 0 -179.5 76t-77.5 201v2q0 125 77.5 202.5t179.5 77.5q131 0 212 -121v108h67
v-534h-67v113q-84 -125 -212 -125z" />
    <glyph glyph-name="agrave.alt" horiz-adv-x="699" 
d="M326 619l-115 110l74 35l95 -145h-54zM333 50q81 0 142.5 61t61.5 155v2q0 94 -61.5 155.5t-142.5 61.5q-84 0 -141 -59t-57 -157v-2q0 -96 58 -156.5t140 -60.5zM322 -12q-102 0 -179.5 76t-77.5 201v2q0 125 77.5 202.5t179.5 77.5q131 0 212 -121v108h67v-534h-67v113
q-84 -125 -212 -125z" />
    <glyph glyph-name="amacron.alt" horiz-adv-x="699" 
d="M194 643v57h316v-57h-316zM333 50q81 0 142.5 61t61.5 155v2q0 94 -61.5 155.5t-142.5 61.5q-84 0 -141 -59t-57 -157v-2q0 -96 58 -156.5t140 -60.5zM322 -12q-102 0 -179.5 76t-77.5 201v2q0 125 77.5 202.5t179.5 77.5q131 0 212 -121v108h67v-534h-67v113
q-84 -125 -212 -125z" />
    <glyph glyph-name="aogonek.alt" horiz-adv-x="699" 
d="M616 -171h-7q-64 2 -98 24t-34 59q0 47 57 93v108q-84 -125 -212 -125q-102 0 -179.5 76t-77.5 201v2q0 125 77.5 202.5t179.5 77.5q131 0 212 -121v108h67v-534h-9q-29 -25 -41.5 -42t-12.5 -37q0 -43 78 -49v-43zM333 50q81 0 142.5 61t61.5 155v2q0 94 -61.5 155.5
t-142.5 61.5q-84 0 -141 -59t-57 -157v-2q0 -96 58 -156.5t140 -60.5z" />
    <glyph glyph-name="aring.alt" horiz-adv-x="699" 
d="M352 617q-46 0 -78.5 31t-32.5 75t32.5 75.5t78.5 31.5t78.5 -31.5t32.5 -75.5t-32.5 -75t-78.5 -31zM352 651q29 0 50.5 21.5t21.5 50.5q0 30 -21.5 51.5t-50.5 21.5t-50.5 -21.5t-21.5 -51.5q0 -29 21.5 -50.5t50.5 -21.5zM333 50q81 0 142.5 61t61.5 155v2
q0 94 -61.5 155.5t-142.5 61.5q-84 0 -141 -59t-57 -157v-2q0 -96 58 -156.5t140 -60.5zM322 -12q-102 0 -179.5 76t-77.5 201v2q0 125 77.5 202.5t179.5 77.5q131 0 212 -121v108h67v-534h-67v113q-84 -125 -212 -125z" />
    <glyph glyph-name="aring.alt2" horiz-adv-x="610" 
d="M233 615q0 -29 21.5 -50.5t50.5 -21.5t50.5 21.5t21.5 50.5t-21.5 50.5t-50.5 21.5t-50.5 -21.5t-21.5 -50.5zM268 45q79 0 134.5 43.5t55.5 109.5v56q-90 23 -169 23q-78 0 -121 -31.5t-43 -84.5v-3q0 -51 41.5 -82t101.5 -31zM259 -12q-81 0 -142 44.5t-61 122.5v2
q0 82 63 127.5t168 45.5q89 0 169 -23v21q0 75 -43.5 114.5t-122.5 39.5q-80 0 -165 -41l-21 56q76 33 128 41q-38 30 -38 77q0 44 32.5 75t78.5 31t78.5 -31t32.5 -75q0 -51 -43 -81q53 -13 94 -50q55 -57 55 -154v-330h-66v84q-71 -96 -197 -96z" />
    <glyph glyph-name="aringacute.alt" horiz-adv-x="699" 
d="M323 859l97 127l73 -35l-113 -92h-57zM352 617q-46 0 -78.5 31t-32.5 75t32.5 75.5t78.5 31.5t78.5 -31.5t32.5 -75.5t-32.5 -75t-78.5 -31zM352 651q29 0 50.5 21.5t21.5 50.5q0 30 -21.5 51.5t-50.5 21.5t-50.5 -21.5t-21.5 -51.5q0 -29 21.5 -50.5t50.5 -21.5zM333 50
q81 0 142.5 61t61.5 155v2q0 94 -61.5 155.5t-142.5 61.5q-84 0 -141 -59t-57 -157v-2q0 -96 58 -156.5t140 -60.5zM322 -12q-102 0 -179.5 76t-77.5 201v2q0 125 77.5 202.5t179.5 77.5q131 0 212 -121v108h67v-534h-67v113q-84 -125 -212 -125z" />
    <glyph glyph-name="aringacute.alt2" horiz-adv-x="610" 
d="M276 759l97 127l73 -35l-113 -92h-57zM233 615q0 -29 21.5 -50.5t50.5 -21.5t50.5 21.5t21.5 50.5t-21.5 50.5t-50.5 21.5t-50.5 -21.5t-21.5 -50.5zM268 45q79 0 134.5 43.5t55.5 109.5v56q-90 23 -169 23q-78 0 -121 -31.5t-43 -84.5v-3q0 -51 41.5 -82t101.5 -31z
M259 -12q-81 0 -142 44.5t-61 122.5v2q0 82 63 127.5t168 45.5q89 0 169 -23v21q0 75 -43.5 114.5t-122.5 39.5q-80 0 -165 -41l-21 56q76 33 128 41q-38 30 -38 77q0 44 32.5 75t78.5 31t78.5 -31t32.5 -75q0 -51 -43 -81q53 -13 94 -50q55 -57 55 -154v-330h-66v84
q-71 -96 -197 -96z" />
    <glyph glyph-name="atilde.alt" horiz-adv-x="699" 
d="M425 619q-21 0 -71 21q-48 21 -65 21q-19 0 -30.5 -11t-22.5 -41l-43 12q15 57 36.5 80.5t57.5 23.5q21 0 71 -21q48 -21 65 -21q19 0 30.5 11t22.5 40l43 -11q-15 -57 -36.5 -80.5t-57.5 -23.5zM333 50q81 0 142.5 61t61.5 155v2q0 94 -61.5 155.5t-142.5 61.5
q-84 0 -141 -59t-57 -157v-2q0 -96 58 -156.5t140 -60.5zM322 -12q-102 0 -179.5 76t-77.5 201v2q0 125 77.5 202.5t179.5 77.5q131 0 212 -121v108h67v-534h-67v113q-84 -125 -212 -125z" />
    <glyph glyph-name="i.dot" horiz-adv-x="277" 
d="M99 661v81h79v-81h-79zM105 0v534h67v-534h-67z" />
    <glyph glyph-name="uni0386.calt" horiz-adv-x="832" 
d="M237 261h355l-177 393zM48 0l335 733h66l335 -733h-76l-88 198h-411l-89 -198h-72z" />
    <glyph glyph-name="uni0388.calt" horiz-adv-x="707" 
d="M110 0v728h523v-64h-453v-265h406v-64h-406v-271h458v-64h-528z" />
    <glyph glyph-name="uni0389.calt" horiz-adv-x="800" 
d="M110 0v728h70v-330h440v330h70v-728h-70v334h-440v-334h-70z" />
    <glyph glyph-name="uni038A.calt" horiz-adv-x="305" 
d="M117 0v728h70v-728h-70z" />
    <glyph glyph-name="uni038C.calt" horiz-adv-x="894" 
d="M446 -12q-162 0 -265 110t-103 264v2q0 154 104 265t266 111t265 -110t103 -264v-2q0 -154 -104 -265t-266 -111zM448 51q127 0 211 90t84 221v2q0 131 -85 222t-212 91t-211 -90t-84 -221v-2q0 -131 85 -222t212 -91z" />
    <glyph glyph-name="uni038E.calt" horiz-adv-x="755" 
d="M342 0v288l-307 440h86l257 -376l259 376h82l-307 -439v-289h-70z" />
    <glyph glyph-name="uni038F.calt" horiz-adv-x="913" 
d="M457 740q160 0 260 -99t100 -249v-1q0 -194 -196 -330l221 2v-63h-310v59q105 69 158.5 144t53.5 185v1q0 127 -80 208t-208 80q-128 0 -207.5 -80.5t-79.5 -207.5v-1q0 -106 54 -183.5t158 -145.5v-59h-310v63l220 -2q-96 69 -145.5 148.5t-49.5 182.5v1
q0 147 100.5 247.5t260.5 99.5z" />
    <glyph glyph-name="uni0399.calt" horiz-adv-x="305" 
d="M14 794v87h88v-87h-88zM204 794v87h87v-87h-87zM117 0v728h70v-728h-70z" />
    <glyph glyph-name="uni03A5.calt" horiz-adv-x="755" 
d="M239 790v87h88v-87h-88zM429 790v87h87v-87h-87zM342 0v288l-307 440h86l257 -376l259 376h82l-307 -439v-289h-70z" />
    <glyph glyph-name="uni0431.srb" horiz-adv-x="666" 
d="M547 759v-60l-293 1q-60 0 -60 -40q0 -18 13.5 -31.5t48.5 -33.5l192 -108q156 -84 156 -236v-1q0 -108 -77 -185.5t-197 -76.5q-117 0 -193 74t-76 183v1q0 103 70.5 176t183.5 77l-89 52q-57 33 -78 58t-21 60q0 39 32.5 64.5t95.5 25.5h292zM332 48q89 0 145.5 58
t56.5 145v1q0 85 -57 142t-143 56q-89 0 -146 -59t-57 -146v-1q0 -84 56.5 -140.5t144.5 -55.5z" />
    <glyph glyph-name="three.alt" horiz-adv-x="636" 
d="M322 -12q-85 0 -155 36t-116 96l53 43q86 -112 220 -112q76 0 124.5 39.5t48.5 103.5v2q0 66 -53.5 103.5t-149.5 37.5h-74v60h75q81 0 132 38.5t51 103.5v2q0 60 -45.5 98t-119.5 38q-115 0 -194 -107l-52 35q92 135 248 135q102 0 168 -55t66 -138v-2q0 -124 -132 -172
q152 -48 152 -176v-2q0 -88 -69 -147.5t-178 -59.5z" />
    <glyph glyph-name="registered.alt" horiz-adv-x="873" 
d="M436 -12q-158 0 -267 109.5t-109 264.5v2q0 155 110.5 265.5t267.5 110.5t266 -109.5t109 -264.5v-2q0 -155 -110 -265.5t-267 -110.5zM436 19q146 0 245 101t99 244v2q0 143 -98.5 243t-243.5 100q-146 0 -245.5 -101t-99.5 -244v-2q0 -143 98.5 -243t244.5 -100z
M342 379h114q42 0 69 18.5t27 51.5v2q0 31 -24.5 49t-67.5 18h-118v-139zM290 183v383h172q76 0 113 -39q30 -28 30 -73v-2q0 -45 -27.5 -73.5t-73.5 -38.5l122 -157h-65l-115 149h-104v-149h-52z" />
    <glyph glyph-name="one.sup_alt" 
d="M364 442h-282v42h121v316l-107 -38l-11 43l127 46h39v-367h113v-42z" />
    <glyph glyph-name="one.inf_alt" 
d="M364 -137h-282v42h121v316l-107 -38l-11 43l127 46h39v-367h113v-42z" />
    <glyph glyph-name="zero.num" 
d="M209 316q-67 0 -107.5 58.5t-40.5 150.5v2q0 92 41 151.5t108 59.5t108.5 -58.5t41.5 -150.5v-2q0 -92 -42 -151.5t-109 -59.5zM209 695q-46 0 -73 -47t-27 -120v-3q0 -72 27.5 -119t73.5 -47t73.5 46.5t27.5 119.5v3q0 73 -28 120t-74 47z" />
    <glyph glyph-name="one.num" horiz-adv-x="342" 
d="M218 326h-48v358l-91 -34l-12 42l112 43h39v-409z" />
    <glyph glyph-name="one.num_alt" 
d="M364 326h-282v42h121v316l-107 -38l-11 43l127 46h39v-367h113v-42z" />
    <glyph glyph-name="two.num" 
d="M64 326v41l153 133q44 39 62.5 65.5t18.5 55.5q0 32 -23 53t-58 21q-63 0 -111 -72l-36 24q58 91 150 91q54 0 90.5 -33t36.5 -81q0 -41 -21.5 -72.5t-73.5 -76.5l-122 -104h221v-45h-287z" />
    <glyph glyph-name="three.num" 
d="M208 316q-94 0 -151 74l33 32q49 -63 119 -63q37 0 62.5 22t25.5 57q0 36 -31 57t-80 21h-32l-9 30l134 137h-200v45h261v-39l-130 -133q60 -5 98 -34.5t38 -83.5t-40 -88t-98 -34z" />
    <glyph glyph-name="four.num" 
d="M312 417v-93h-45v93h-198l-12 41l201 276h54v-276h56v-41h-56zM267 458v216l-159 -216h159z" />
    <glyph glyph-name="five.num" 
d="M207 316q-84 0 -147 68l32 34q54 -59 116 -59q44 0 71 25t27 62q0 38 -27.5 60t-70.5 22q-44 0 -91 -22l-32 19l14 203h238v-47h-198l-9 -126q39 17 84 17q60 0 101 -33.5t41 -89.5q0 -58 -43 -95.5t-106 -37.5z" />
    <glyph glyph-name="six.num" 
d="M209 316q-61 0 -100 39q-49 49 -49 157v2q0 100 45 162t118 62q67 0 115 -48l-28 -35q-42 40 -89 40q-46 0 -79 -47t-34 -118q43 52 109 52q55 0 93 -35.5t38 -93.5t-40 -97.5t-99 -39.5zM207 359q41 0 67.5 25.5t26.5 65.5q0 41 -24.5 65.5t-65.5 24.5q-42 0 -69 -25.5
t-27 -64.5v-1q0 -38 27 -64.5t65 -25.5z" />
    <glyph glyph-name="seven.num" 
d="M170 324h-55l181 357h-222v47h278v-36z" />
    <glyph glyph-name="eight.num" 
d="M210 316q-64 0 -105.5 32.5t-41.5 84.5q0 68 76 101q-64 29 -64 93q0 48 40 79.5t97 31.5q55 0 95 -31.5t40 -79.5q0 -63 -64 -93q34 -14 55 -40t21 -59q0 -53 -42 -86t-107 -33zM211 697q-40 0 -65 -20t-25 -52t25.5 -53t64.5 -21t64.5 21t25.5 53t-25.5 52t-64.5 20z
M211 513q-45 0 -73.5 -22.5t-28.5 -56.5t28 -55.5t74 -21.5q45 0 73 21.5t28 55.5t-28 56.5t-73 22.5z" />
    <glyph glyph-name="nine.num" 
d="M209 509q41 0 68.5 26t27.5 66v1q0 40 -27 67t-65 26q-42 0 -68 -26t-26 -68t24.5 -67t65.5 -25zM211 738q61 0 100 -39q49 -49 49 -157v-2q0 -102 -45 -163t-118 -61q-69 0 -121 50l29 35q44 -42 94 -42q46 0 79 45.5t34 115.5q-43 -52 -109 -52q-55 0 -93 35.5
t-38 95.5q0 59 40 99t99 40z" />
    <glyph glyph-name="zero.den" 
d="M209 -10q-67 0 -107.5 58.5t-40.5 150.5v2q0 92 41 151.5t108 59.5t108.5 -58.5t41.5 -150.5v-2q0 -92 -42 -151.5t-109 -59.5zM209 369q-46 0 -73 -46.5t-27 -119.5v-3q0 -73 27.5 -120t73.5 -47t73.5 47t27.5 120v3q0 72 -28 119t-74 47z" />
    <glyph glyph-name="one.den" horiz-adv-x="342" 
d="M218 0h-48v358l-91 -34l-12 42l112 43h39v-409z" />
    <glyph glyph-name="one.den_alt" 
d="M364 0h-282v42h121v316l-107 -38l-11 43l127 46h39v-367h113v-42z" />
    <glyph glyph-name="two.den" 
d="M64 0v41l153 133q44 39 62.5 65.5t18.5 55.5q0 32 -23 53t-58 21q-63 0 -111 -72l-36 24q58 91 150 91q55 0 91 -32.5t36 -81.5q0 -41 -21.5 -72.5t-73.5 -76.5l-122 -104h221v-45h-287z" />
    <glyph glyph-name="three.den" 
d="M208 -10q-94 0 -151 74l33 32q51 -63 119 -63q37 0 62.5 22t25.5 57q0 36 -31 57t-80 21h-32l-9 30l134 137h-200v45h261v-39l-130 -133q60 -5 98 -34.5t38 -83.5t-40 -88t-98 -34z" />
    <glyph glyph-name="four.den" 
d="M312 91v-93h-45v93h-198l-12 41l201 276h54v-276h56v-41h-56zM267 132v216l-159 -216h159z" />
    <glyph glyph-name="five.den" 
d="M207 -10q-84 0 -147 68l32 34q54 -59 116 -59q44 0 71 25t27 62q0 38 -27.5 60t-70.5 22q-44 0 -91 -22l-32 19l14 203h238v-47h-198l-9 -126q39 17 84 17q60 0 101 -33.5t41 -89.5q0 -58 -43 -95.5t-106 -37.5z" />
    <glyph glyph-name="six.den" 
d="M209 -10q-61 0 -100 39q-49 49 -49 157v2q0 100 45 162t118 62q67 0 115 -48l-28 -35q-42 40 -89 40q-46 0 -79 -47t-34 -118q43 52 109 52q55 0 93 -35.5t38 -93.5t-40 -97.5t-99 -39.5zM207 33q41 0 67.5 25.5t26.5 66.5t-24.5 65.5t-65.5 24.5t-68.5 -25.5
t-27.5 -64.5v-1q0 -39 27 -65.5t65 -25.5z" />
    <glyph glyph-name="seven.den" 
d="M170 -2h-55l181 357h-222v47h278v-36z" />
    <glyph glyph-name="eight.den" 
d="M210 -10q-64 0 -105.5 32.5t-41.5 84.5q0 68 76 101q-64 31 -64 93q0 48 40 79.5t97 31.5q55 0 95 -31.5t40 -79.5q0 -63 -64 -93q34 -14 55 -40t21 -59q0 -53 -42 -86t-107 -33zM211 371q-40 0 -65 -20t-25 -52t25.5 -53t64.5 -21t64.5 21t25.5 53t-25.5 52t-64.5 20z
M211 187q-45 0 -73.5 -22.5t-28.5 -56.5t28 -55.5t74 -21.5q45 0 73 21.5t28 55.5t-28 56.5t-73 22.5z" />
    <glyph glyph-name="nine.den" 
d="M209 183q41 0 68.5 26t27.5 66v1q0 40 -27 67t-65 26q-42 0 -68 -26t-26 -68t24.5 -67t65.5 -25zM211 412q61 0 100 -39q49 -49 49 -157v-2q0 -102 -45 -163t-118 -61q-69 0 -121 50l29 35q44 -42 94 -42q46 0 79 45.5t34 115.5q-43 -52 -109 -52q-55 0 -93 35.5
t-38 95.5q0 59 40 99t99 40z" />
    <glyph glyph-name="onehalf.alt" horiz-adv-x="945" 
d="M362 326h-282v42h121v316l-107 -38l-11 43l127 46h39v-367h113v-42zM221 0l257 372l238 356h51l-257 -372l-238 -356h-51zM597 0v41l153 133q44 39 62.5 65.5t18.5 55.5q0 32 -23 53t-58 21q-63 0 -111 -72l-36 24q58 91 150 91q55 0 91 -32.5t36 -81.5
q0 -41 -21.5 -72.5t-73.5 -76.5l-122 -104h221v-45h-287z" />
    <glyph glyph-name="onethird.alt" horiz-adv-x="945" 
d="M362 326h-282v42h121v316l-107 -38l-11 43l127 46h39v-367h113v-42zM210 0l257 372l238 356h51l-257 -372l-238 -356h-51zM741 -10q-94 0 -151 74l33 32q51 -63 119 -63q37 0 62.5 22t25.5 57q0 36 -31 57t-80 21h-32l-9 30l134 137h-200v45h261v-39l-130 -133
q60 -5 98 -34.5t38 -83.5t-40 -88t-98 -34z" />
    <glyph glyph-name="onequarter.alt" horiz-adv-x="945" 
d="M362 326h-282v42h121v316l-107 -38l-11 43l127 46h39v-367h113v-42zM226 0l257 372l238 356h51l-257 -372l-238 -356h-51zM835 91v-93h-45v93h-198l-12 41l201 276h54v-276h56v-41h-56zM790 132v216l-159 -216h159z" />
    <glyph glyph-name="onefifth.alt" horiz-adv-x="945" 
d="M362 326h-282v42h121v316l-107 -38l-11 43l127 46h39v-367h113v-42zM216 0l257 372l238 356h51l-257 -372l-238 -356h-51zM740 -10q-84 0 -147 68l32 34q54 -59 116 -59q44 0 71 25t27 62q0 38 -27.5 60t-70.5 22q-44 0 -91 -22l-32 19l14 203h238v-47h-198l-9 -126
q39 17 84 17q60 0 101 -33.5t41 -89.5q0 -58 -43 -95.5t-106 -37.5z" />
    <glyph glyph-name="onesixth.alt" horiz-adv-x="945" 
d="M362 326h-282v42h121v316l-107 -38l-11 43l127 46h39v-367h113v-42zM216 0l257 372l238 356h51l-257 -372l-238 -356h-51zM742 -10q-61 0 -100 39q-49 49 -49 157v2q0 100 45 162t118 62q67 0 115 -48l-28 -35q-42 40 -89 40q-46 0 -79 -47t-34 -118q43 52 109 52
q55 0 93 -35.5t38 -93.5t-40 -97.5t-99 -39.5zM740 33q41 0 67.5 25.5t26.5 66.5t-24.5 65.5t-65.5 24.5t-68.5 -25.5t-27.5 -64.5v-1q0 -39 27 -65.5t65 -25.5z" />
    <glyph glyph-name="oneeighth.alt" horiz-adv-x="945" 
d="M362 326h-282v42h121v316l-107 -38l-11 43l127 46h39v-367h113v-42zM216 0l257 372l238 356h51l-257 -372l-238 -356h-51zM743 -10q-64 0 -105.5 32.5t-41.5 84.5q0 68 76 101q-64 31 -64 93q0 48 40 79.5t97 31.5q55 0 95 -31.5t40 -79.5q0 -63 -64 -93q34 -14 55 -40
t21 -59q0 -53 -42 -86t-107 -33zM744 371q-40 0 -65 -20t-25 -52t25.5 -53t64.5 -21t64.5 21t25.5 53t-25.5 52t-64.5 20zM744 187q-45 0 -73.5 -22.5t-28.5 -56.5t28 -55.5t74 -21.5q45 0 73 21.5t28 55.5t-28 56.5t-73 22.5z" />
    <glyph glyph-name="zero.tab" horiz-adv-x="630" 
d="M314 -12q-113 0 -184 100t-71 271v8q0 171 72 272t185 101q112 0 183.5 -100t71.5 -271v-8q0 -171 -72.5 -272t-184.5 -101zM315 679q-82 0 -134 -82.5t-52 -227.5v-8q0 -145 52 -228.5t134 -83.5t134 82.5t52 227.5v8q0 145 -52 228.5t-134 83.5z" />
    <glyph glyph-name="one.tab" horiz-adv-x="630" 
d="M587 0h-492v62h222v597l-198 -68l-18 58l232 84h51v-671h203v-62z" />
    <glyph glyph-name="two.tab" horiz-adv-x="630" 
d="M558 0h-501v53l266 240q87 79 121.5 130.5t34.5 106.5q0 65 -45.5 105.5t-110.5 40.5q-64 0 -111 -33t-91 -101l-52 36q53 81 112 120.5t147 39.5q96 0 159 -57.5t63 -144.5v-2q0 -72 -39 -130.5t-135 -145.5l-215 -193h397v-65z" />
    <glyph glyph-name="three.tab" horiz-adv-x="630" 
d="M310 -12q-158 0 -255 124l49 46q89 -108 208 -108q72 0 123.5 43t51.5 113v2q0 67 -52.5 103.5t-141.5 36.5h-60l-21 45l248 271h-373v64h459v-60l-242 -262q110 -1 182 -51t72 -144v-2q0 -98 -73 -159.5t-175 -61.5z" />
    <glyph glyph-name="three.tab_alt" horiz-adv-x="630" 
d="M311 -12q-81 0 -149.5 35.5t-111.5 95.5l52 40q80 -111 212 -111q80 0 130.5 40.5t50.5 106.5q0 68 -54 105t-151 37h-72v60h79q82 0 133 38.5t51 105.5q0 62 -45 100.5t-121 38.5q-119 0 -200 -108l-50 34q94 134 252 134q103 0 168.5 -54.5t65.5 -139.5
q0 -67 -38.5 -110.5t-96.5 -65.5q148 -46 148 -176q0 -88 -71 -147t-182 -59z" />
    <glyph glyph-name="four.tab" horiz-adv-x="630" 
d="M423 0v172h-365l-17 60l365 500h81v-502h105v-58h-105v-172h-64zM423 229v426l-312 -426h312z" />
    <glyph glyph-name="five.tab" horiz-adv-x="630" 
d="M311 -12q-145 0 -254 114l47 48q96 -101 209 -101q81 0 132.5 48t51.5 122v2q0 72 -50.5 117t-132.5 45q-80 0 -164 -42l-48 31l24 356h409v-65h-350l-19 -253q75 35 155 35q106 0 176.5 -61t70.5 -160v-2q0 -103 -73.5 -168.5t-183.5 -65.5z" />
    <glyph glyph-name="six.tab" horiz-adv-x="630" 
d="M337 460q98 0 165.5 -62t67.5 -165v-2q0 -105 -70.5 -174t-172.5 -69q-106 0 -175 67q-45 46 -66.5 109.5t-21.5 174.5v4q0 177 78 287t213 110q102 0 188 -75l-39 -53q-72 67 -153 67q-69 0 -119.5 -46t-74.5 -117.5t-24 -157.5v-12q68 114 204 114zM325 47
q80 0 128.5 52t48.5 130v1q0 77 -48.5 124.5t-123.5 46.5q-84 0 -134 -50.5t-50 -123.5v-1q0 -78 52 -129t127 -50z" />
    <glyph glyph-name="seven.tab" horiz-adv-x="630" 
d="M487 663h-409v65h487v-52l-328 -676h-77z" />
    <glyph glyph-name="eight.tab" horiz-adv-x="630" 
d="M315 -11q-112 0 -185.5 57.5t-73.5 146.5v4q0 62 40.5 109t107.5 71q-125 56 -125 169v3q0 83 70 136.5t166 53.5t166 -53.5t70 -136.5v-3q0 -113 -125 -169q67 -24 107.5 -71t40.5 -109v-3q0 -91 -73.5 -148t-185.5 -57zM315 401q70 0 118.5 40.5t48.5 101.5v2
q0 58 -47.5 96.5t-119.5 38.5t-119.5 -38.5t-47.5 -96.5v-2q0 -61 48.5 -101.5t118.5 -40.5zM315 48q86 0 138 42t52 104v3q0 63 -55 105t-135 42t-135 -42t-55 -105v-3q0 -62 52 -104t138 -42z" />
    <glyph glyph-name="nine.tab" horiz-adv-x="630" 
d="M305 681q-80 0 -128.5 -53t-48.5 -132v-1q0 -78 48 -126.5t123 -47.5q84 0 134.5 51.5t50.5 125.5v1q0 79 -52 131t-127 51zM292 262q-98 0 -165 62.5t-67 167.5v2q0 107 70 176.5t173 69.5q106 0 175 -67q45 -46 66.5 -109.5t21.5 -174.5v-4q0 -177 -78 -287t-213 -110
q-107 0 -198 80l39 53q83 -72 163 -72q102 0 160 96t58 226v5q-68 -114 -205 -114z" />
    <glyph glyph-name="dollar.tab" horiz-adv-x="630" 
d="M150 541q0 -49 33.5 -83.5t119.5 -55.5l34 268q-10 1 -29 1q-71 0 -115 -35.5t-43 -93.5v-1zM502 191q0 53 -35 86t-122 53l-34 -273h20q77 0 124.5 38t46.5 95v1zM407 810l-11 -90q81 -17 153 -72l-35 -53q-63 51 -129 67l-33 -271q112 -25 163.5 -72t51.5 -125v-1
q0 -84 -67.5 -139.5t-172.5 -54.5q-13 0 -19 1l-16 -123h-56l16 128q-110 20 -196 98l37 50q81 -73 169 -90l34 277q-109 25 -160 73.5t-51 125.5v1q0 83 64.5 136.5t162.5 52.5q5 0 14.5 -0.5t14.5 -0.5l10 82h56z" />
    <glyph glyph-name="sterling.tab" horiz-adv-x="630" 
d="M152 375v121q0 117 64 182q60 60 157 60q119 0 197 -96l-48 -46q-64 80 -149 80q-67 0 -107 -42q-47 -47 -47 -136v-123h278v-59h-278v-255h354v-61h-504v37l83 21v258h-84v59h84z" />
    <glyph glyph-name="Euro.tab" horiz-adv-x="630" 
d="M45 428v53h85q24 115 92 187t167 72q116 0 192 -101l-46 -43q-63 85 -148 85q-71 0 -121 -55t-69 -145h245v-53h-254q-3 -28 -3 -60v-6q0 -38 2 -55h255v-53h-246q19 -94 68 -150.5t121 -56.5q50 0 85.5 21.5t70.5 66.5l43 -38q-81 -109 -201 -109q-97 0 -165.5 72
t-89.5 194h-83v53h76q-2 17 -2 52v10q0 29 3 59h-77z" />
    <glyph glyph-name="yen.tab" horiz-adv-x="630" 
d="M96 171h187v109h-187v52h170l-240 396h78l212 -365l213 365h75l-243 -396h173v-52h-187v-109h187v-52h-187v-119h-64v119h-187v52z" />
    <glyph glyph-name="cent.tab" horiz-adv-x="630" 
d="M131 364q0 -73 36 -127t97 -76l85 429h-7q-91 0 -151 -64.5t-60 -159.5v-2zM437 734l-20 -96q82 -20 146 -91l-43 -44q-58 63 -118 79l-87 -432q8 -1 23 -1q104 0 187 90l42 -38q-98 -110 -233 -110q-19 0 -28 1l-20 -98h-60l23 110q-83 26 -133.5 97t-50.5 163v2
q0 115 80 198t198 83q11 0 17 -1l18 88h59z" />
    <glyph glyph-name="numbersign.tab" horiz-adv-x="630" 
d="M237 484l-34 -236h190l33 236h-189zM38 249h110l32 234h-108v59h117l26 186h57l-27 -186h189l26 186h57l-26 -186h101v-59h-110l-33 -234h109v-59h-117l-27 -190h-56l26 190h-188l-26 -190h-57l26 190h-101v59z" />
    <glyph glyph-name="paragraph.tab" horiz-adv-x="630" 
d="M435 0v281h-76q-124 0 -202.5 59t-78.5 162v1q0 104 78.5 165t207.5 60h142v-728h-71z" />
    <glyph glyph-name="section.tab" horiz-adv-x="630" 
d="M243 460q-52 1 -83.5 -20.5t-31.5 -52.5v-1q0 -31 31.5 -54t106.5 -43q82 -21 121 -21q52 -1 83.5 20.5t31.5 52.5v1q0 32 -31.5 54.5t-106.5 42.5q-82 21 -121 21zM328 -10q-65 0 -123.5 23.5t-99.5 64.5l41 48q81 -79 186 -79q49 0 76 20.5t27 51.5v1q0 34 -35 59
t-114 46q-125 34 -174 68t-49 88v1q0 45 39 76.5t104 37.5q-79 44 -79 109v1q0 58 49.5 95.5t125.5 36.5q65 0 123.5 -23.5t99.5 -64.5l-41 -48q-81 79 -186 79q-49 0 -76 -20.5t-27 -51.5v-1q0 -34 35 -59t114 -46q125 -34 174 -68t49 -88v-1q0 -45 -39 -76.5t-104 -37.5
q79 -44 79 -109v-1q0 -58 -49.5 -95.5t-125.5 -36.5z" />
    <glyph glyph-name="degree.tab" horiz-adv-x="630" 
d="M314 323q-86 0 -147.5 60.5t-61.5 145.5v1q0 84 63 145.5t148 60.5q86 0 147.5 -61t61.5 -146v-1q0 -84 -62.5 -145t-148.5 -60zM316 374q66 0 109 44.5t43 110.5v1q0 65 -44.5 110.5t-109.5 44.5q-66 0 -109 -45t-43 -111v-1q0 -64 44.5 -109.5t109.5 -44.5z" />
    <glyph glyph-name="percent.tab" horiz-adv-x="630" 
d="M163 736q54 0 88 -49.5t34 -125.5v-5q0 -76 -34 -126.5t-88 -50.5q-55 0 -89 49.5t-34 125.5v5q0 76 34 126.5t89 50.5zM484 728h49l-201 -373l-186 -355h-49l201 373zM163 691q-35 0 -54 -36.5t-19 -91.5v-10q0 -56 19 -92.5t54 -36.5q34 0 53 36.5t19 92.5v10
q0 55 -19 91.5t-53 36.5zM467 349q55 0 89 -49.5t34 -125.5v-5q0 -76 -34 -126.5t-89 -50.5q-54 0 -88 49.5t-34 125.5v5q0 76 34 126.5t88 50.5zM467 304q-34 0 -53 -36.5t-19 -92.5v-10q0 -55 19 -91.5t53 -36.5q35 0 54 36.5t19 91.5v10q0 56 -19 92.5t-54 36.5z" />
    <glyph glyph-name="quotedbl.tab" horiz-adv-x="630" 
d="M139 454l63 274h85v-5l-110 -269h-38zM363 454l63 274h85v-5l-110 -269h-38z" />
    <glyph glyph-name="quotesingle.tab" horiz-adv-x="315" 
d="M94 454l63 274h85v-5l-109 -269h-39z" />
    <glyph glyph-name="period.tab" horiz-adv-x="315" 
d="M109 0v110h98v-110h-98z" />
    <glyph glyph-name="comma.tab" horiz-adv-x="315" 
d="M98 -120l-13 32q37 16 52 36.5t13 51.5h-41v110h98v-96q0 -55 -27 -86.5t-82 -47.5z" />
    <glyph glyph-name="colon.tab" horiz-adv-x="315" 
d="M109 426v108h98v-108h-98zM109 0v109h98v-109h-98z" />
    <glyph glyph-name="semicolon.tab" horiz-adv-x="315" 
d="M109 426v108h98v-108h-98zM98 -120l-13 32q37 16 52 36.5t13 51.5h-41v109h98v-95q0 -55 -27 -86.5t-82 -47.5z" />
    <glyph glyph-name="twodotleader.tab" horiz-adv-x="630" 
d="M112 0v103h94v-103h-94zM424 0v103h94v-103h-94z" />
    <glyph glyph-name="periodcentered.tab" horiz-adv-x="315" 
d="M109 257v109h98v-109h-98z" />
    <glyph glyph-name="slash.tab" horiz-adv-x="630" 
d="M603 830l-527 -963h-64l527 963h64z" />
    <glyph glyph-name="bar.tab" horiz-adv-x="315" 
d="M129 -133v963h58v-963h-58z" />
    <glyph glyph-name="underscore.tab" horiz-adv-x="630" 
d="M1 -166v57h628v-57h-628z" />
    <glyph glyph-name="plus.tab" horiz-adv-x="630" 
d="M558 335h-210v-216h-66v216h-210v63l210 -1v216h66v-216l210 1v-63z" />
    <glyph glyph-name="minus.tab" horiz-adv-x="630" 
d="M558 333h-486v66h486v-66z" />
    <glyph glyph-name="divide.tab" horiz-adv-x="630" 
d="M267 519v101h96v-101h-96zM558 335h-486v62h486v-62zM267 112v101h96v-101h-96z" />
    <glyph glyph-name="equal.tab" horiz-adv-x="630" 
d="M540 451h-450v65h450v-65zM540 217h-450v64h450v-64z" />
    <glyph glyph-name="multiply.tab" horiz-adv-x="630" 
d="M497 138l-183 185l-183 -185l-44 44l185 183l-185 183l46 46l183 -185l183 185l44 -44l-185 -183l185 -183z" />
    <glyph glyph-name="less.tab" horiz-adv-x="630" 
d="M530 97l-458 242v55l458 241v-67l-387 -201l387 -202v-68z" />
    <glyph glyph-name="greater.tab" horiz-adv-x="630" 
d="M558 339l-458 -242v67l387 201l-387 203v67l458 -241v-55z" />
    <glyph glyph-name="plusminus.tab" horiz-adv-x="630" 
d="M558 376h-210v-207h-66v207h-210v63l210 -1v207h66v-207l210 1v-63zM558 0h-486v62h486v-62z" />
    <glyph glyph-name="R_p" horiz-adv-x="1242" 
d="M158 346h174q84 0 136 43.5t52 118.5v2q0 74 -49.5 115.5t-136.5 41.5h-176v-321zM954 47q72 0 120.5 59t48.5 159v8q0 98 -49.5 158t-119.5 60t-123.5 -61t-53.5 -156v-9q0 -96 53.5 -157t123.5 -61zM92 0v728h246q114 0 181.5 -59t67.5 -156v-3q0 -82 -49 -137
t-128 -74l203 -299h-81l-193 287h-181v-287h-66zM716 -166v704h64v-109q70 120 185 120q90 0 157 -74.5t67 -200.5v-9q0 -125 -67.5 -200.5t-156.5 -75.5q-115 0 -185 116v-271h-64z" />
    <glyph glyph-name="hcoslug" horiz-adv-x="694" 
d="M644 700v-800h-594v800h594zM247 428q0 13 7.5 21t19.5 8q13 0 21 -10.5t8 -27.5q0 -22 -18 -50q-15 14 -21 20.5t-11.5 17t-5.5 21.5zM312 342q30 20 42 34q29 -29 -1 -80q-33 38 -41 46zM261 219q-22 0 -37 15.5t-15 38.5q0 24 16 40q34 -32 74 -82q-15 -12 -38 -12z
M382 264q20 26 46 42q15 -25 43 -25q21 0 35.5 15.5t14.5 38.5t-14.5 37.5t-35.5 14.5q-35 0 -60 -38q-3 39 -49 37q9 15 9 34q0 29 -25.5 51.5t-69.5 22.5q-48 0 -78.5 -25.5t-30.5 -59.5q0 -37 31 -69q-82 -28 -82 -91q0 -39 32 -66t77 -27q63 0 104 45q44 -45 85 -45
q33 0 56 25.5t24 68.5l-7 2q-17 -29 -43 -29q-27 0 -62 41zM286 124l-12 -2v-9h-7v-7h7v-20q0 -13 12 -13q11 0 14 13l-5 2q-1 -7 -5 -7t-4 5v20h13v7h-13v11zM174 94q0 -21 21 -21q9 0 15 6t6 15q0 20 -21 20t-21 -20zM203 94q0 -16 -8 -16t-8 16q0 15 8 15t8 -15zM219 81
v-7h22v7h-4v15q0 10 7 10q6 0 6 -7v-18h-4v-7h22v7h-6v19q0 14 -12 14q-9 0 -14 -11v10h-17v-7h6v-25h-6zM379 93q0 -13 -7 -13q-8 0 -8 13t8 13q7 0 7 -13zM125 81v-7h30v7h-10v16h4q5 0 6 -8h7v23h-7q-1 -8 -6 -8h-4v18h12q9 0 11 -13h8v20h-51v-7h7v-41h-7zM302 88v-14h7
l1 4q7 -5 13 -5q14 0 14 13q0 9 -12 12t-12 6q0 4 5 4t10 -7h7v13h-6l-2 -5q-3 5 -11 5q-14 0 -14 -12q0 -9 12 -12.5t12 -6.5q0 -4 -5 -4q-6 0 -12 9h-7zM352 125v-52h6l4 8q5 -8 14 -8q16 0 16 21q0 20 -15 20q-10 0 -13 -9v27h-18v-7h6zM405 65q3 2 1.5 6t-6.5 4
q-7 0 -7 -7q0 -9 11 -9q12 0 18 16l13 31h5v7h-17v-7h5l-8 -20l-9 20h6v7h-25v-7h5q12 -23 16 -33q-2 -8 -8 -8zM294 39v3q0 12 6 12l3 -1q-1 -1 -1 -3q0 -6 6 -6v-5h-14zM464 33h-18v-7h6q-2 -5 -6 -9q-2 2 -5.5 6t-6.5 7q11 5 11 12q0 12 -14 12q-17 0 -17 -14q0 -6 6 -12
q-13 -4 -13 -15q0 -14 18 -14q9 0 15 6q5 -6 12 -6q10 0 13 12l-5 1q-1 -5 -4 -5t-6 5q6 8 9 14h5v7zM469 27q0 -28 29 -28q22 0 24 23h-8q-2 -16 -14 -16q-16 0 -16 22t14 22q10 0 15 -16h8v22h-8l-1 -6q-7 7 -16 7q-11 0 -19 -8.5t-8 -21.5zM431 33q-6 6 -6 10q0 5 5 5
q6 0 6 -6t-5 -9zM340 18h26q2 22 -19 22q-8 0 -14 -6t-6 -15q0 -20 21 -20q14 0 18 14h-7q-1 -7 -9 -7q-10 0 -10 12zM525 20q0 -21 21 -21q9 0 15 6t6 15q0 20 -21 20t-21 -20zM189 20q0 -21 21 -21q9 0 15 6t6 15q0 20 -21 20t-21 -20zM247 18h26q2 22 -19 22q-8 0 -14 -6
t-6 -15q0 -20 21 -20q15 0 18 14h-7q-1 -7 -9 -7q-10 0 -10 12zM340 23q0 12 7 12t7 -12h-14zM554 20q0 -16 -8 -16t-8 16q0 15 8 15t8 -15zM218 20q0 -16 -8 -16t-8 16q0 15 8 15t8 -15zM247 23q0 12 7 12t7 -12h-14zM368 7v-7h26v7h-8v16q4 9 7 9v-1q0 -6 6 -6q7 0 7 7
q0 8 -8 8t-12 -11v10h-18v-7h6v-25h-6zM276 7v-7h23v7h-5v25h14v-25h-5v-7h23v7h-6v52l-10 -2q-4 2 -9 2q-19 0 -19 -19v-1h-7v-7h7v-25h-6zM124 7v-7h29v7h-8v18h22v-18h-8v-7h29v7h-8v41h8v7h-29v-7h8v-16h-22v16h8v7h-29v-7h8v-41h-8zM437 9q-5 -3 -8 -3q-10 0 -10 10
q0 5 4 9q4 -4 14 -16zM583 6q0 7 -7 7t-7 -7t7 -7t7 7z" />
    <glyph glyph-name="space.tab" horiz-adv-x="315" 
 />
    <glyph glyph-name="NUL" horiz-adv-x="0" 
 />
    <glyph glyph-name="caron.alt" horiz-adv-x="530" 
d="M223 606l16 164h71v-3l-52 -161h-35z" />
    <glyph glyph-name="descendercyrillic" horiz-adv-x="530" 
d="M207 14h62q70 -50 70 -99q0 -38 -33.5 -62t-92.5 -24q-20 0 -36 2v42h23q36 -1 57 12t21 37q0 20 -15 39.5t-56 52.5z" />
    <glyph glyph-name="acute.cap" horiz-adv-x="530" 
d="M196 794l101 129l73 -34l-116 -95h-58z" />
    <glyph glyph-name="hungarumlaut.cap" horiz-adv-x="530" 
d="M257 794l101 129l72 -34l-115 -95h-58zM104 794l101 129l72 -34l-116 -95h-57z" />
    <glyph glyph-name="grave.cap" horiz-adv-x="530" 
d="M334 794h-58l-116 95l73 34z" />
    <glyph glyph-name="circumflex.cap" horiz-adv-x="530" 
d="M122 794l111 118h64l111 -118h-67l-77 63l-77 -63h-65z" />
    <glyph glyph-name="caron.cap" horiz-adv-x="530" 
d="M408 912l-111 -118h-64l-111 118h67l77 -63l77 63h65z" />
    <glyph glyph-name="breve.cap" horiz-adv-x="530" 
d="M265 792q-62 0 -102.5 30t-44.5 82h55q19 -54 92 -54t92 54h55q-4 -52 -44.5 -82t-102.5 -30z" />
    <glyph glyph-name="tilde.cap" horiz-adv-x="530" 
d="M336 794q-23 0 -77 22q-42 18 -59 18q-19 0 -30 -11t-23 -38l-46 12q16 53 37.5 76.5t54.5 23.5q25 0 77 -23q45 -17 59 -17q19 0 30 10.5t23 37.5l46 -13q-16 -52 -37.5 -75t-54.5 -23z" />
    <glyph glyph-name="macron.cap" horiz-adv-x="530" 
d="M98 818v60h334v-60h-334z" />
    <glyph glyph-name="dieresis.cap" horiz-adv-x="530" 
d="M126 794v87h88v-87h-88zM316 794v87h87v-87h-87z" />
    <glyph glyph-name="dotaccent.cap" horiz-adv-x="530" 
d="M220 794v87h90v-87h-90z" />
    <glyph glyph-name="ring.cap" horiz-adv-x="530" 
d="M265 792q-47 0 -80 29t-33 72t33 72t80 29t80 -29t33 -72t-33 -72t-80 -29zM265 829q30 0 50 18t20 46t-20 46.5t-50 18.5t-50 -18.5t-20 -46.5t20 -46t50 -18z" />
    <glyph glyph-name="uni0384.cap" horiz-adv-x="530" 
d="M108 548l18 180h78l-57 -180h-39z" />
    <glyph glyph-name="commaaccent.rot" horiz-adv-x="530" 
d="M301 789l7 -29q-34 -6 -48.5 -20.5t-12.5 -39.5h37v-81h-85v70q0 87 102 100z" />
    <glyph glyph-name="acute.altlc" horiz-adv-x="530" 
d="M200 859l97 127l73 -35l-113 -92h-57z" />
    <glyph glyph-name="acute.altuc" horiz-adv-x="530" 
d="M198 913l102 117l71 -33l-115 -84h-58z" />
    <glyph glyph-name="caron.alt.cap" horiz-adv-x="530" 
d="M223 606l16 164h71v-3l-52 -161h-35z" />
    <glyph glyph-name="cedilla.cap" horiz-adv-x="530" 
d="M235 -158l-68 31l94 139h55z" />
    <glyph glyph-name="commaaccent.cap" horiz-adv-x="530" 
d="M206 -244l-7 28q65 13 61 61h-38v80h86v-70q0 -87 -102 -99z" />
    <glyph glyph-name="ogonek.cap" horiz-adv-x="530" 
d="M344 -128v-43h-7q-64 2 -98 24t-34 59q0 48 71 105l47 -15q-31 -25 -44 -43t-13 -38q0 -43 78 -49z" />
    <glyph glyph-name="uni0385.cap" horiz-adv-x="530" 
d="M221 619l40 173l75 -18l-68 -155h-47zM101 619v91h81v-91h-81zM348 619v91h81v-91h-81z" />
    </font>
</defs>
</svg>
