<?xml version="1.0" standalone="no"?>
<!DOCTYPE svg PUBLIC "-//W3C//DTD SVG 1.1//EN" "http://www.w3.org/Graphics/SVG/1.1/DTD/svg11.dtd" >
<svg xmlns="http://www.w3.org/2000/svg" xmlns:xlink="http://www.w3.org/1999/xlink" version="1.1">
<metadata>
Created by FontForge 20161003 at Tue Nov 29 10:17:26 2016
 By www-data
Copyright (C) 2010, 2014 Hoefler &#38; Co. http://www.typography.com/
</metadata>
<defs>
<font id="GothamSSmMedium" horiz-adv-x="528" >
  <font-face 
    font-family="GothamSSmMedium"
    font-weight="350"
    font-stretch="normal"
    units-per-em="1000"
    panose-1="0 0 0 0 0 0 0 0 0 0"
    ascent="800"
    descent="-200"
    x-height="548"
    cap-height="728"
    bbox="-227 -282 1229 1046"
    underline-thickness="50"
    underline-position="-150"
    unicode-range="U+0020-FB04"
  />
<missing-glyph horiz-adv-x="500" 
d="M0 -200v1000h500v-1000h-500zM71 750l179 -390l179 390h-358zM450 676l-172 -376l172 -376v752zM50 -76l172 376l-172 376v-752zM250 240l-179 -390h358z" />
    <glyph glyph-name="f_f" unicode="ff" horiz-adv-x="788" 
d="M502 0v444h-69v101h69v41q0 92 46 136q43 43 122 43q57 0 101 -14v-102q-42 13 -75 13q-74 0 -74 -86v-32h147v-100h-146v-444h-121zM112 0v444h-69v101h69v41q0 92 46 136q43 43 122 43q57 0 101 -14v-102q-42 13 -75 13q-74 0 -74 -86v-32h147v-100h-146v-444h-121z
" />
    <glyph glyph-name="fi" unicode="fi" horiz-adv-x="693" 
d="M476 636v116h131v-116h-131zM112 0v444h-69v101h69v41q0 92 46 136q43 43 122 43q57 0 101 -14v-102q-42 13 -75 13q-74 0 -74 -86v-32h147v-100h-146v-444h-121zM481 0v548h121v-548h-121z" />
    <glyph glyph-name="fl" unicode="fl" horiz-adv-x="693" 
d="M481 0v759h121v-759h-121zM112 0v444h-69v101h69v41q0 92 46 136q43 43 122 43q57 0 101 -14v-102q-42 13 -75 13q-74 0 -74 -86v-32h147v-100h-146v-444h-121z" />
    <glyph glyph-name="f_f_i" unicode="ffi" horiz-adv-x="1083" 
d="M866 636v116h131v-116h-131zM502 0v444h-69v101h69v41q0 92 46 136q43 43 122 43q57 0 101 -14v-102q-42 13 -75 13q-74 0 -74 -86v-32h147v-100h-146v-444h-121zM112 0v444h-69v101h69v41q0 92 46 136q43 43 122 43q57 0 101 -14v-102q-42 13 -75 13q-74 0 -74 -86v-32
h147v-100h-146v-444h-121zM871 0v548h121v-548h-121z" />
    <glyph glyph-name="f_f_l" unicode="ffl" horiz-adv-x="1083" 
d="M871 0v759h121v-759h-121zM502 0v444h-69v101h69v41q0 92 46 136q43 43 122 43q57 0 101 -14v-102q-42 13 -75 13q-74 0 -74 -86v-32h147v-100h-146v-444h-121zM112 0v444h-69v101h69v41q0 92 46 136q43 43 122 43q57 0 101 -14v-102q-42 13 -75 13q-74 0 -74 -86v-32
h147v-100h-146v-444h-121z" />
    <glyph glyph-name=".notdef" horiz-adv-x="500" 
d="M0 -200v1000h500v-1000h-500zM71 750l179 -390l179 390h-358zM450 676l-172 -376l172 -376v752zM50 -76l172 376l-172 376v-752zM250 240l-179 -390h358z" />
    <glyph glyph-name=".null" horiz-adv-x="0" 
 />
    <glyph glyph-name="nonmarkingreturn" horiz-adv-x="333" 
 />
    <glyph glyph-name="space" unicode=" " horiz-adv-x="320" 
 />
    <glyph glyph-name="exclam" unicode="!" horiz-adv-x="319" 
d="M126 228l-37 461v39h141v-39l-37 -461h-67zM93 0v139h133v-139h-133z" />
    <glyph glyph-name="quotedbl" unicode="&#x22;" horiz-adv-x="509" 
d="M67 420l25 308h137v-5l-99 -303h-63zM292 420l25 308h137v-5l-99 -303h-63z" />
    <glyph glyph-name="numbersign" unicode="#" horiz-adv-x="736" 
d="M296 462l-33 -192h177l33 192h-177zM652 273v-104h-125l-29 -169h-106l28 169h-173l-29 -169h-106l29 169h-96v104h113l32 186h-106v104h124l28 165h107l-28 -165h173l29 165h106l-28 -165h95v-104h-113l-32 -186h107z" />
    <glyph glyph-name="dollar" unicode="$" horiz-adv-x="675" 
d="M200 536q0 -37 22 -59.5t83 -41.5v192q-50 -5 -78 -29.5t-27 -60.5v-1zM493 196q0 37 -23.5 60.5t-84.5 41.5v-197q52 5 80 29.5t28 63.5v2zM585 646l-57 -93q-74 54 -143 68v-206q119 -29 172.5 -79t52.5 -133v-2q0 -84 -60.5 -138t-160.5 -63v-102h-88v104
q-136 15 -245 104l64 91q93 -77 185 -92v212q-117 30 -169.5 78t-52.5 133v2q0 83 60 136t158 61v61h88v-63q106 -13 196 -79z" />
    <glyph glyph-name="percent" unicode="%" horiz-adv-x="889" 
d="M224 364q-74 0 -122 53.5t-48 130.5v2q0 77 48.5 131.5t123.5 54.5t122.5 -53.5t47.5 -130.5v-2q0 -77 -48.5 -131.5t-123.5 -54.5zM414 386l247 342h100l-287 -387l-246 -341h-100zM224 659q-36 0 -58 -31t-22 -76v-2q0 -45 23.5 -77t58.5 -32q36 0 58 31t22 76v2
q0 46 -23 77.5t-59 31.5zM663 -8q-75 0 -122.5 53.5t-47.5 130.5v2q0 78 48 132t124 54q75 0 122.5 -53.5t47.5 -130.5v-2q0 -78 -48 -132t-124 -54zM665 69q36 0 58 31t22 76v2q0 45 -23.5 77t-58.5 32q-36 0 -58 -31t-22 -76v-2q0 -46 23 -77.5t59 -31.5z" />
    <glyph glyph-name="ampersand" unicode="&#x26;" horiz-adv-x="732" 
d="M606 -15l-99 101q-103 -96 -225 -96q-103 0 -170 57t-67 150v2q0 138 158 204q-62 78 -62 153v2q0 76 57 129t150 53q84 0 138 -50t54 -124v-2q0 -129 -162 -189l130 -132q39 59 79 143l93 -49q-54 -106 -100 -168l117 -118zM313 441q117 41 117 116v2q0 37 -23.5 60.5
t-61.5 23.5q-40 0 -65 -25t-25 -64v-2q0 -28 13 -52t45 -59zM294 91q73 0 143 67l-166 170q-102 -42 -102 -124v-2q0 -49 35 -80t90 -31z" />
    <glyph glyph-name="quotesingle" unicode="'" horiz-adv-x="285" 
d="M67 420l25 308h139v-5l-100 -303h-64z" />
    <glyph glyph-name="parenleft" unicode="(" horiz-adv-x="465" 
d="M358 -147q-288 158 -288 445v1q0 288 288 445l53 -81q-113 -75 -166.5 -162t-53.5 -203v-1q0 -114 53.5 -201.5t166.5 -161.5z" />
    <glyph glyph-name="parenright" unicode=")" horiz-adv-x="465" 
d="M108 -147l-53 81q113 76 166.5 162.5t53.5 201.5v1q0 115 -53.5 202t-166.5 162l53 81q288 -159 288 -446v-1q0 -286 -288 -444z" />
    <glyph glyph-name="asterisk" unicode="*" horiz-adv-x="455" 
d="M192 399l14 128l-104 -77l-36 63l118 52l-118 52l36 62l104 -76l-14 127h71l-14 -127l104 76l36 -62l-118 -52l118 -52l-36 -63l-104 77l14 -128h-71z" />
    <glyph glyph-name="plus" unicode="+" horiz-adv-x="666" 
d="M276 111v200h-201v110h201v200h114v-200h202v-110h-202v-200h-114z" />
    <glyph glyph-name="comma" unicode="," horiz-adv-x="285" 
d="M54 -148l-13 51q93 19 87 97h-52v139h133v-118q0 -82 -38.5 -122t-116.5 -47z" />
    <glyph glyph-name="hyphen" unicode="-" horiz-adv-x="432" 
d="M63 258v119h306v-119h-306z" />
    <glyph glyph-name="period" unicode="." horiz-adv-x="285" 
d="M76 0v139h133v-139h-133z" />
    <glyph glyph-name="slash" unicode="/" horiz-adv-x="548" 
d="M-21 -133l471 963h105l-471 -963h-105z" />
    <glyph glyph-name="zero" unicode="0" horiz-adv-x="760" 
d="M379 -12q-141 0 -228 107.5t-87 266.5v2q0 159 88.5 267.5t228.5 108.5t227.5 -107.5t87.5 -266.5v-2q0 -159 -88.5 -267.5t-228.5 -108.5zM381 99q85 0 136.5 75.5t51.5 187.5v2q0 112 -53 188.5t-137 76.5t-136 -75.5t-52 -187.5v-2q0 -112 52.5 -188.5t137.5 -76.5z
" />
    <glyph glyph-name="one" unicode="1" horiz-adv-x="415" 
d="M189 0v608l-131 -37l-27 100l194 62h86v-733h-122z" />
    <glyph glyph-name="two" unicode="2" horiz-adv-x="644" 
d="M55 0v97l252 215q78 67 108 109.5t30 90.5q0 53 -34.5 84.5t-86.5 31.5q-50 0 -88.5 -26t-82.5 -84l-87 68q56 78 115.5 115t151.5 37q106 0 172 -59.5t66 -156.5v-2q0 -80 -41 -137.5t-147 -144.5l-155 -130h351v-108h-524z" />
    <glyph glyph-name="three" unicode="3" horiz-adv-x="650" 
d="M327 -12q-173 0 -278 127l87 80q81 -97 193 -97q56 0 93 31.5t37 82.5v2q0 55 -46.5 85t-125.5 30h-57l-21 77l201 215h-320v107h479v-92l-206 -213q95 -11 156.5 -60.5t61.5 -143.5v-2q0 -101 -71 -165t-183 -64z" />
    <glyph glyph-name="four" unicode="4" horiz-adv-x="715" 
d="M435 0v164h-369l-24 88l406 481h105v-468h105v-101h-105v-164h-118zM188 265h247v298z" />
    <glyph glyph-name="five" unicode="5" horiz-adv-x="654" 
d="M320 -12q-152 0 -266 112l76 88q95 -89 189 -89q67 0 107.5 35.5t40.5 94.5v2q0 57 -42.5 91t-111.5 34q-64 0 -136 -34l-75 49l21 357h434v-109h-328l-12 -178q59 22 119 22q111 0 182 -59t71 -169v-2q0 -111 -74.5 -178t-194.5 -67z" />
    <glyph glyph-name="six" unicode="6" horiz-adv-x="689" 
d="M354 -12q-126 0 -202 76q-44 44 -66 108.5t-22 169.5v2q0 174 81 285t230 111q120 0 222 -81l-67 -95q-42 33 -78 49t-82 16q-61 0 -103 -39.5t-59 -91.5t-18 -111h1q74 79 178 78q109 0 181.5 -61.5t72.5 -166.5v-2q0 -108 -76.5 -177.5t-192.5 -69.5zM351 94
q68 0 108.5 38t40.5 97v2q0 57 -42 94t-109 37q-68 0 -110 -38.5t-42 -93.5v-2q0 -58 43 -96t111 -38z" />
    <glyph glyph-name="seven" unicode="7" horiz-adv-x="640" 
d="M118 0l327 620h-370v108h509v-92l-328 -636h-138z" />
    <glyph glyph-name="eight" unicode="8" horiz-adv-x="663" 
d="M332 -10q-121 0 -199.5 57.5t-78.5 150.5v2q0 123 133 177q-108 58 -108 163v2q0 84 72.5 140t180.5 56t180 -55.5t72 -140.5v-2q0 -106 -108 -163q133 -58 133 -174v-2q0 -96 -78 -153.5t-199 -57.5zM332 419q58 0 95.5 30.5t37.5 78.5v3q0 44 -37.5 74t-95.5 30
q-59 0 -96.5 -30t-37.5 -74v-2q0 -48 38 -79t96 -31zM332 93q71 0 113.5 32t42.5 80v2q0 50 -44.5 81.5t-111.5 31.5q-68 0 -112.5 -31.5t-44.5 -81.5v-2q0 -48 42.5 -80t114.5 -32z" />
    <glyph glyph-name="nine" unicode="9" horiz-adv-x="689" 
d="M341 360q68 0 110 39t42 96v2q0 59 -43 98t-113 39q-68 0 -108 -39.5t-40 -99.5v-2q0 -59 42 -96t110 -37zM318 99q61 0 104 39t60 91t18 108h-1q-71 -81 -176 -80q-116 0 -186.5 63t-70.5 167v2q0 108 75.5 179.5t194.5 71.5q124 0 201 -77q88 -86 88 -278v-2
q0 -177 -83 -286t-227 -109q-128 0 -232 87l66 94q83 -70 169 -70z" />
    <glyph glyph-name="colon" unicode=":" horiz-adv-x="295" 
d="M81 409v139h133v-139h-133zM81 0v139h133v-139h-133z" />
    <glyph glyph-name="semicolon" unicode=";" horiz-adv-x="295" 
d="M81 409v139h133v-139h-133zM59 -148l-13 51q93 19 87 97h-52v139h133v-118q0 -82 -38 -122t-117 -47z" />
    <glyph glyph-name="less" unicode="&#x3c;" horiz-adv-x="666" 
d="M569 81l-496 231v108l496 231v-115l-375 -169l375 -170v-116z" />
    <glyph glyph-name="equal" unicode="=" horiz-adv-x="666" 
d="M84 439v112h499v-112h-499zM84 181v112h499v-112h-499z" />
    <glyph glyph-name="greater" unicode="&#x3e;" horiz-adv-x="666" 
d="M97 81v115l376 169l-376 170v116l496 -231v-108z" />
    <glyph glyph-name="question" unicode="?" horiz-adv-x="570" 
d="M221 228l-21 168l5 5q194 7 194 120v2q0 46 -33 74.5t-89 28.5q-94 0 -172 -84l-75 79q101 116 250 116q109 0 175.5 -57.5t66.5 -153.5v-2q0 -92 -57.5 -143t-152.5 -67l-11 -86h-80zM192 0v139h134v-139h-134z" />
    <glyph glyph-name="at" unicode="@" horiz-adv-x="1027" 
d="M523 -168q-130 0 -237 61t-167 165t-60 227q0 188 133 321.5t323 133.5q93 0 177.5 -34t144.5 -90.5t95.5 -131.5t35.5 -155q0 -125 -58 -191.5t-143 -66.5q-110 0 -153 74q-70 -74 -162 -74q-80 0 -134 54t-54 141q0 108 72 184t164 76q95 0 148 -78l12 63l97 -15
l-45 -259q-5 -32 -5 -47q0 -34 21.5 -54.5t60.5 -20.5q59 0 98.5 56t39.5 158q0 147 -120 260t-292 113q-176 0 -295.5 -122t-119.5 -295q0 -175 120 -295t303 -120q137 0 257 70l19 -30q-129 -78 -276 -78zM479 157q54 0 94 42q52 52 52 126q0 50 -31.5 82t-79.5 32
q-56 0 -97 -43q-50 -48 -50 -124q0 -54 31 -84.5t81 -30.5z" />
    <glyph glyph-name="A" unicode="A" horiz-adv-x="830" 
d="M283 287h260l-130 300zM36 0l322 733h114l321 -733h-129l-76 177h-350l-76 -177h-126z" />
    <glyph glyph-name="B" unicode="B" horiz-adv-x="759" 
d="M99 0v728h325q125 0 189 -64q49 -49 49 -121v-2q0 -109 -105 -163q70 -24 108 -65.5t38 -111.5v-2q0 -95 -72.5 -147t-196.5 -52h-335zM540 522v2q0 45 -34.5 70t-97.5 25h-189v-200h180q65 0 103 26.5t38 76.5zM580 214q0 48 -39 74.5t-115 26.5h-207v-206h216
q68 0 106.5 26.5t38.5 76.5v2z" />
    <glyph glyph-name="C" unicode="C" horiz-adv-x="777" 
d="M436 -12q-158 0 -264 108t-106 266v2q0 157 106.5 266.5t268.5 109.5q94 0 160.5 -29t124.5 -84l-80 -91q-96 91 -206 91q-105 0 -175 -75.5t-70 -185.5v-2q0 -111 70 -187t175 -76q65 0 113 23t99 72l79 -80q-62 -64 -130.5 -96t-164.5 -32z" />
    <glyph glyph-name="D" unicode="D" horiz-adv-x="821" 
d="M99 0v728h269q170 0 278.5 -103.5t108.5 -258.5v-2q0 -156 -108.5 -260t-278.5 -104h-269zM368 617h-146v-506h146q116 0 187 70.5t71 180.5v2q0 110 -71.5 181.5t-186.5 71.5z" />
    <glyph glyph-name="E" unicode="E" horiz-adv-x="705" 
d="M99 0v728h538v-110h-416v-196h369v-110h-369v-202h421v-110h-543z" />
    <glyph glyph-name="F" unicode="F" horiz-adv-x="690" 
d="M99 0v728h539v-112h-416v-205h370v-112h-370v-299h-123z" />
    <glyph glyph-name="G" unicode="G" horiz-adv-x="823" 
d="M443 -12q-169 0 -273 106t-104 268v2q0 155 106.5 265.5t267.5 110.5q91 0 156 -24t124 -74l-78 -93q-47 39 -93.5 58.5t-112.5 19.5q-102 0 -171.5 -76.5t-69.5 -184.5v-2q0 -115 70 -190t182 -75q105 0 180 57v141h-190v108h309v-304q-131 -113 -303 -113z" />
    <glyph glyph-name="H" unicode="H" horiz-adv-x="798" 
d="M99 0v728h123v-305h355v305h123v-728h-123v309h-355v-309h-123z" />
    <glyph glyph-name="I" unicode="I" horiz-adv-x="335" 
d="M106 0v728h123v-728h-123z" />
    <glyph glyph-name="J" unicode="J" horiz-adv-x="589" 
d="M259 -10q-146 0 -232 118l81 83q34 -44 69 -66t80 -22q55 0 87 37.5t32 109.5v478h126v-481q0 -125 -68 -193q-64 -64 -175 -64z" />
    <glyph glyph-name="K" unicode="K" horiz-adv-x="762" 
d="M99 0v728h123v-374l353 374h153l-304 -313l317 -415h-150l-251 330l-118 -121v-209h-123z" />
    <glyph glyph-name="L" unicode="L" horiz-adv-x="650" 
d="M99 0v728h123v-616h385v-112h-508z" />
    <glyph glyph-name="M" unicode="M" horiz-adv-x="911" 
d="M99 0v728h130l226 -351l227 351h130v-728h-122v530l-234 -349h-4l-233 347v-528h-120z" />
    <glyph glyph-name="N" unicode="N" horiz-adv-x="830" 
d="M99 0v728h113l398 -513v513h121v-728h-103l-408 527v-527h-121z" />
    <glyph glyph-name="O" unicode="O" horiz-adv-x="892" 
d="M445 -12q-164 0 -271.5 109t-107.5 265v2q0 156 108.5 266t272.5 110t271.5 -109t107.5 -265v-2q0 -156 -108.5 -266t-272.5 -110zM447 101q109 0 179.5 75.5t70.5 185.5v2q0 110 -71.5 186.5t-180.5 76.5t-179.5 -75.5t-70.5 -185.5v-2q0 -110 71.5 -186.5t180.5 -76.5z
" />
    <glyph glyph-name="P" unicode="P" horiz-adv-x="703" 
d="M99 0v728h285q126 0 201 -66t75 -175v-3q0 -118 -82.5 -182.5t-207.5 -64.5h-148v-237h-123zM222 347h152q73 0 117.5 37.5t44.5 96.5v2q0 64 -43.5 99t-118.5 35h-152v-270z" />
    <glyph glyph-name="Q" unicode="Q" horiz-adv-x="892" 
d="M835 66l-79 -88l-88 79q-99 -69 -223 -69q-164 0 -271.5 109t-107.5 265v2q0 156 108.5 266t272.5 110t271.5 -109t107.5 -265v-2q0 -124 -75 -226zM447 101q71 0 130 35l-127 109l80 90l129 -117q38 65 38 144v2q0 110 -71.5 186.5t-180.5 76.5t-179.5 -75.5
t-70.5 -185.5v-2q0 -110 71.5 -186.5t180.5 -76.5z" />
    <glyph glyph-name="R" unicode="R" horiz-adv-x="760" 
d="M222 366h191q70 0 112 34t42 91v2q0 59 -41 91.5t-114 32.5h-190v-251zM99 0v728h323q135 0 210 -73q59 -59 59 -156v-2q0 -86 -47.5 -141.5t-128.5 -77.5l200 -278h-146l-182 257h-165v-257h-123z" />
    <glyph glyph-name="S" unicode="S" horiz-adv-x="674" 
d="M353 -10q-174 0 -303 116l74 88q109 -95 232 -95q61 0 97 26t36 69v2q0 42 -34 66.5t-133 47.5q-127 30 -185 76.5t-58 140.5v2q0 92 69.5 150.5t177.5 58.5q152 0 264 -91l-67 -93q-97 75 -199 75q-56 0 -89.5 -25t-33.5 -64v-2q0 -44 36 -69t141 -49q121 -29 177 -77.5
t56 -134.5v-2q0 -100 -71.5 -158t-186.5 -58z" />
    <glyph glyph-name="T" unicode="T" horiz-adv-x="678" 
d="M278 0v615h-233v113h588v-113h-232v-615h-123z" />
    <glyph glyph-name="U" unicode="U" horiz-adv-x="796" 
d="M396 -11q-144 0 -226.5 82.5t-82.5 237.5v419h123v-415q0 -102 50 -156.5t139 -54.5q88 0 137 52.5t49 153.5v420h123v-414q0 -159 -83.5 -242t-228.5 -83z" />
    <glyph glyph-name="V" unicode="V" horiz-adv-x="788" 
d="M340 -5l-304 733h136l224 -568l224 568h132l-304 -733h-108z" />
    <glyph glyph-name="W" unicode="W" horiz-adv-x="1168" 
d="M297 -5l-255 733h133l178 -547l181 549h104l181 -549l178 547h128l-254 -733h-106l-181 531l-182 -531h-105z" />
    <glyph glyph-name="X" unicode="X" horiz-adv-x="766" 
d="M571 728h141l-256 -356l266 -372h-144l-197 282l-197 -282h-140l265 370l-255 358h144l186 -267z" />
    <glyph glyph-name="Y" unicode="Y" horiz-adv-x="753" 
d="M315 0v287l-291 441h145l208 -327l211 327h141l-291 -438v-290h-123z" />
    <glyph glyph-name="Z" unicode="Z" horiz-adv-x="737" 
d="M71 0v90l435 530h-420v108h581v-90l-435 -530h435v-108h-596z" />
    <glyph glyph-name="bracketleft" unicode="[" horiz-adv-x="479" 
d="M96 -135v863h318v-94h-203v-675h203v-94h-318z" />
    <glyph glyph-name="backslash" unicode="\" horiz-adv-x="548" 
d="M465 -133l-472 963h105l472 -963h-105z" />
    <glyph glyph-name="bracketright" unicode="]" horiz-adv-x="479" 
d="M65 -135v94h203v675h-203v94h318v-863h-318z" />
    <glyph glyph-name="asciicircum" unicode="^" 
d="M63 513l158 216h86l158 -216h-94l-108 140l-108 -140h-92z" />
    <glyph glyph-name="underscore" unicode="_" horiz-adv-x="632" 
d="M2 -166v94h628v-94h-628z" />
    <glyph glyph-name="grave" unicode="`" 
d="M262 619l-126 118l110 50l107 -168h-91z" />
    <glyph glyph-name="a" unicode="a" horiz-adv-x="617" 
d="M275 77q65 0 108 33.5t43 86.5v40q-61 22 -129 22q-62 0 -97 -25t-35 -69v-2q0 -40 31.5 -63t78.5 -23zM243 -11q-82 0 -139 45t-57 124v2q0 86 61.5 131t165.5 45q79 0 150 -23v14q0 60 -35.5 91.5t-103.5 31.5q-77 0 -158 -34l-32 94q100 45 206 45q120 0 181 -61
q58 -57 58 -168v-326h-117v70q-67 -81 -180 -81z" />
    <glyph glyph-name="b" unicode="b" horiz-adv-x="705" 
d="M394 -11q-115 0 -190 98v-87h-120v759h120v-305q73 105 190 105q103 0 179 -77t76 -207v-2q0 -130 -76 -207t-179 -77zM366 93q68 0 114.5 49.5t46.5 130.5v2q0 80 -47 130t-114 50t-115.5 -50.5t-48.5 -129.5v-2q0 -79 48.5 -129.5t115.5 -50.5z" />
    <glyph glyph-name="c" unicode="c" horiz-adv-x="602" 
d="M337 -12q-121 0 -202 82.5t-81 200.5v2q0 119 81.5 202.5t202.5 83.5q132 0 219 -95l-76 -81q-68 71 -144 71q-70 0 -116.5 -52.5t-46.5 -126.5v-2q0 -76 48 -128t121 -52q76 0 145 69l73 -71q-46 -50 -98 -76.5t-126 -26.5z" />
    <glyph glyph-name="d" unicode="d" horiz-adv-x="705" 
d="M339 93q67 0 115.5 50.5t48.5 129.5v2q0 79 -48.5 129.5t-115.5 50.5q-68 0 -114.5 -49.5t-46.5 -130.5v-2q0 -80 47 -130t114 -50zM311 -11q-103 0 -179 77t-76 207v2q0 130 75.5 207t179.5 77q115 0 189 -98v298h121v-759h-121v94q-73 -105 -189 -105z" />
    <glyph glyph-name="e" unicode="e" horiz-adv-x="635" 
d="M334 -12q-120 0 -200 79.5t-80 204.5v2q0 119 76 202t191 83q124 0 192.5 -84.5t68.5 -209.5q0 -22 -1 -34h-406q10 -68 53.5 -106t107.5 -38q85 0 151 66l72 -63q-87 -102 -225 -102zM173 311h290q-7 66 -44 107.5t-99 41.5q-59 0 -98.5 -41t-48.5 -108z" />
    <glyph glyph-name="f" unicode="f" horiz-adv-x="398" 
d="M112 0v444h-69v101h69v41q0 92 46 136q43 43 122 43q57 0 101 -14v-102q-42 13 -75 13q-74 0 -74 -86v-32h147v-100h-146v-444h-121z" />
    <glyph glyph-name="g" unicode="g" horiz-adv-x="705" 
d="M337 146q68 0 117 43.5t49 110.5v2q0 68 -48.5 111.5t-117.5 43.5q-68 0 -113.5 -43t-45.5 -111v-2q0 -68 46 -111.5t113 -43.5zM328 -168q-135 0 -246 66l46 91q92 -59 197 -59q85 0 130.5 43.5t45.5 127.5v44q-79 -101 -195 -101q-102 0 -176 70t-74 186v2
q0 116 74.5 186.5t175.5 70.5q115 0 194 -95v84h121v-437q0 -136 -70 -206q-73 -73 -223 -73z" />
    <glyph glyph-name="h" unicode="h" horiz-adv-x="652" 
d="M84 0v759h120v-297q67 97 174 97q92 0 144.5 -57t52.5 -154v-348h-121v312q0 65 -31.5 101t-89.5 36t-93.5 -37.5t-35.5 -101.5v-310h-120z" />
    <glyph glyph-name="i" unicode="i" horiz-adv-x="303" 
d="M86 636v116h131v-116h-131zM91 0v548h121v-548h-121z" />
    <glyph glyph-name="j" unicode="j" horiz-adv-x="303" 
d="M86 636v116h131v-116h-131zM56 -170q-30 0 -60 6v96q20 -3 36 -3q59 0 59 68v551h121v-558q0 -160 -156 -160z" />
    <glyph glyph-name="k" unicode="k" horiz-adv-x="612" 
d="M84 0v759h120v-462l236 251h146l-219 -225l227 -323h-142l-166 239l-82 -84v-155h-120z" />
    <glyph glyph-name="l" unicode="l" horiz-adv-x="303" 
d="M91 0v759h121v-759h-121z" />
    <glyph glyph-name="m" unicode="m" horiz-adv-x="996" 
d="M84 0v548h120v-85q69 96 169 96q117 0 165 -97q74 97 186 97q90 0 141.5 -55.5t51.5 -155.5v-348h-120v312q0 66 -30 101.5t-85 35.5q-54 0 -87.5 -36.5t-33.5 -102.5v-310h-121v314q0 65 -30 100t-84 35q-55 0 -88.5 -38t-33.5 -102v-309h-120z" />
    <glyph glyph-name="n" unicode="n" horiz-adv-x="652" 
d="M84 0v548h120v-86q67 97 174 97q92 0 144.5 -57t52.5 -154v-348h-121v312q0 65 -31.5 101t-89.5 36t-93.5 -37.5t-35.5 -101.5v-310h-120z" />
    <glyph glyph-name="o" unicode="o" horiz-adv-x="690" 
d="M344 -12q-124 0 -207 82.5t-83 200.5v2q0 119 84 202.5t208 83.5t207 -82.5t83 -201.5v-2q0 -118 -83.5 -201.5t-208.5 -83.5zM346 93q75 0 122.5 51.5t47.5 126.5v2q0 75 -49 128t-123 53q-75 0 -122.5 -52t-47.5 -127v-2q0 -75 49 -127.5t123 -52.5z" />
    <glyph glyph-name="p" unicode="p" horiz-adv-x="705" 
d="M366 93q68 0 114.5 49.5t46.5 130.5v2q0 80 -47 130t-114 50t-115.5 -50.5t-48.5 -129.5v-2q0 -79 48.5 -129.5t115.5 -50.5zM84 -166v714h120v-94q73 105 190 105q103 0 179 -77t76 -207v-2q0 -130 -76 -207t-179 -77q-115 0 -190 98v-253h-120z" />
    <glyph glyph-name="q" unicode="q" horiz-adv-x="705" 
d="M500 -166v260q-73 -105 -189 -105q-103 0 -179 77t-76 207v2q0 130 75.5 207t179.5 77q115 0 189 -98v87h121v-714h-121zM339 93q67 0 115.5 50.5t48.5 129.5v2q0 79 -48.5 129.5t-115.5 50.5q-68 0 -114.5 -49.5t-46.5 -130.5v-2q0 -80 47 -130t114 -50z" />
    <glyph glyph-name="r" unicode="r" horiz-adv-x="436" 
d="M84 0v548h120v-126q28 66 78 102.5t120 33.5v-127h-7q-86 0 -138.5 -57t-52.5 -164v-210h-120z" />
    <glyph glyph-name="s" unicode="s" 
d="M271 -10q-130 0 -232 81l55 82q93 -68 181 -68q41 0 64.5 17t23.5 46v2q0 35 -59 58q-14 5 -65 21q-30 9 -49.5 16t-45 20.5t-40.5 29t-26 40t-11 54.5v2q0 76 54.5 121t138.5 45q108 0 201 -62l-48 -86q-86 52 -155 52q-37 0 -58.5 -16t-21.5 -41v-2q0 -39 114 -76
q7 -3 11 -4q37 -12 61.5 -22.5t52.5 -28.5t42.5 -45.5t14.5 -62.5v-2q0 -82 -56.5 -126.5t-146.5 -44.5z" />
    <glyph glyph-name="t" unicode="t" horiz-adv-x="434" 
d="M268 -9q-157 0 -157 159v294h-71v104h71v152h120v-152h150v-104h-150v-275q0 -71 70 -71q38 0 78 19v-99q-49 -27 -111 -27z" />
    <glyph glyph-name="u" unicode="u" horiz-adv-x="652" 
d="M275 -11q-93 0 -145.5 57t-52.5 154v348h121v-312q0 -65 32 -101t89 -36q58 0 93.5 37.5t35.5 101.5v310h120v-548h-120v86q-67 -97 -173 -97z" />
    <glyph glyph-name="v" unicode="v" horiz-adv-x="625" 
d="M258 -4l-226 552h130l151 -408l153 408h127l-226 -552h-109z" />
    <glyph glyph-name="w" unicode="w" horiz-adv-x="903" 
d="M218 -4l-180 552h124l114 -383l125 385h102l125 -385l116 383h121l-181 -552h-107l-125 381l-127 -381h-107z" />
    <glyph glyph-name="x" unicode="x" horiz-adv-x="610" 
d="M176 548l130 -187l131 187h129l-195 -267l203 -281h-132l-139 198l-138 -198h-129l202 279l-194 269h132z" />
    <glyph glyph-name="y" unicode="y" horiz-adv-x="628" 
d="M321 135l146 413h126l-219 -563q-33 -85 -74 -120t-107 -35q-67 0 -128 33l41 91q39 -22 75 -22q28 0 46.5 15t35.5 53l-231 548h129z" />
    <glyph glyph-name="z" unicode="z" horiz-adv-x="590" 
d="M59 0v83l321 366h-310v99h464v-83l-321 -366h321v-99h-475z" />
    <glyph glyph-name="braceleft" unicode="{" horiz-adv-x="514" 
d="M437 -147q-135 24 -185 73t-50 135q0 8 1 37.5t1 38.5q0 61 -27 88t-91 27h-27v93h27q64 0 91 26.5t27 88.5q0 9 -1 38.5t-1 37.5q0 86 50 135t185 73l20 -80q-91 -25 -117.5 -54t-26.5 -91q0 -10 1 -38.5t1 -39.5q0 -59 -27 -92.5t-81 -50.5q55 -17 81.5 -50.5
t26.5 -92.5q0 -11 -1 -39t-1 -38q0 -62 26.5 -91t117.5 -54z" />
    <glyph glyph-name="bar" unicode="|" horiz-adv-x="349" 
d="M126 -133v963h97v-963h-97z" />
    <glyph glyph-name="braceright" unicode="}" horiz-adv-x="514" 
d="M77 -147l-20 80q91 25 117.5 54t26.5 91q0 10 -1.5 38t-1.5 39q0 59 27.5 92.5t81.5 50.5q-55 18 -82 51t-27 92q0 11 1.5 39.5t1.5 38.5q0 62 -26.5 91t-117.5 54l20 80q135 -24 185 -73t50 -135q0 -8 -1 -37.5t-1 -38.5q0 -62 27 -88.5t91 -26.5h27v-93h-27
q-64 0 -91 -27t-27 -88q0 -9 1 -38.5t1 -37.5q0 -86 -50 -135t-185 -73z" />
    <glyph glyph-name="asciitilde" unicode="~" horiz-adv-x="520" 
d="M339 250q-33 0 -85 22q-51 19 -63 19q-21 0 -33 -11.5t-24 -39.5l-67 20q17 65 43 96t71 31q29 0 86 -22q44 -19 62 -19q22 0 33.5 11.5t23.5 39.5l67 -20q-17 -65 -43 -96t-71 -31z" />
    <glyph glyph-name="uni00A0" unicode="&#xa0;" horiz-adv-x="320" 
 />
    <glyph glyph-name="exclamdown" unicode="&#xa1;" horiz-adv-x="319" 
d="M93 589v139h133v-139h-133zM89 0v39l37 462h67l37 -462v-39h-141z" />
    <glyph glyph-name="cent" unicode="&#xa2;" horiz-adv-x="612" 
d="M177 369q0 -54 24 -97t66 -65l69 343h-1q-67 -1 -113 -53t-45 -126v-2zM456 734l-18 -93q70 -21 124 -81l-74 -79q-36 38 -75 54l-68 -346h1q80 0 147 69l70 -70q-93 -105 -225 -105h-10l-17 -89h-88l20 105q-82 30 -133.5 103t-51.5 165v2q0 118 82 202t202 84h9l16 79
h89z" />
    <glyph glyph-name="sterling" unicode="&#xa3;" horiz-adv-x="678" 
d="M70 0v77l83 25v190h-83v103h83v98q0 117 64 181t174 64q143 0 229 -116l-94 -75q-31 40 -61.5 59t-72.5 19q-48 0 -79 -31q-36 -36 -36 -104v-95h262v-103h-262v-185h341v-107h-548z" />
    <glyph glyph-name="yen" unicode="&#xa5;" horiz-adv-x="721" 
d="M100 275v89h167l-242 364h143l194 -311l196 311h138l-243 -364h169v-89h-202v-78h202v-89h-202v-108h-118v108h-202v89h202v78h-202z" />
    <glyph glyph-name="section" unicode="&#xa7;" horiz-adv-x="665" 
d="M407 287q37 0 61 16.5t24 42.5v2q0 23 -29 40.5t-97 34.5q-72 18 -108 18q-37 0 -60.5 -16.5t-23.5 -42.5v-2q0 -23 28.5 -40.5t96.5 -34.5q72 -18 108 -18zM486 242q60 -36 60 -100v-2q0 -69 -54 -109.5t-149 -40.5q-147 0 -240 98l70 69q77 -75 170 -75q42 0 64 14.5
t22 38.5v2q0 24 -30.5 41t-110.5 35q-121 27 -172 61.5t-51 89.5v2q0 92 114 120q-60 37 -60 100v2q0 69 54.5 109.5t148.5 40.5q147 0 240 -98l-69 -69q-78 75 -170 75q-42 0 -64.5 -14.5t-22.5 -38.5v-2q0 -23 29 -39.5t112 -36.5q122 -27 172.5 -61t50.5 -90v-2
q0 -92 -114 -120z" />
    <glyph glyph-name="dieresis" unicode="&#xa8;" 
d="M102 619v120h124v-120h-124zM302 619v120h124v-120h-124z" />
    <glyph glyph-name="copyright" unicode="&#xa9;" horiz-adv-x="871" 
d="M435 -12q-158 0 -267 109.5t-109 264.5v2q0 155 110.5 265.5t267.5 110.5t266 -109.5t109 -264.5v-2q0 -155 -110 -265.5t-267 -110.5zM435 25q143 0 240.5 99t97.5 240v2q0 140 -97 238.5t-239 98.5q-144 0 -241.5 -99t-97.5 -240v-2q0 -141 97 -239t240 -98zM440 166
q-85 0 -142.5 58.5t-57.5 142.5v3q0 84 58 143.5t144 59.5q89 0 154 -62l-48 -55q-51 48 -106 48q-53 0 -89 -39t-36 -94v-2q0 -55 36 -94.5t89 -39.5q55 0 109 49l48 -48q-67 -70 -159 -70z" />
    <glyph glyph-name="ordfeminine" unicode="&#xaa;" horiz-adv-x="414" 
d="M188 472q34 0 57 18t23 45v20q-35 11 -67 11t-50.5 -13t-18.5 -35v-2q0 -20 15.5 -32t40.5 -12zM171 419q-45 0 -76.5 25t-31.5 69v2q0 47 34 72t91 25q41 0 79 -12v5q0 65 -73 65q-39 0 -87 -20l-19 55q57 26 115 26q66 0 100 -34q32 -32 32 -92v-179h-68v36
q-36 -43 -96 -43zM60 294v59h279v-59h-279z" />
    <glyph glyph-name="guillemotleft" unicode="&#xab;" horiz-adv-x="631" 
d="M229 44l-179 226v8l179 226l85 -44l-131 -185l131 -186zM487 44l-179 226v8l179 226l85 -44l-131 -185l131 -186z" />
    <glyph glyph-name="registered" unicode="&#xae;" horiz-adv-x="408" 
d="M204 374q-76 0 -128.5 53.5t-52.5 127.5v1q0 75 53 128.5t128 53.5q76 0 128.5 -53t52.5 -128v-1q0 -74 -53 -128t-128 -54zM204 394q68 0 114 47.5t46 114.5v1q0 67 -46 114.5t-114 47.5q-67 0 -113.5 -48t-46.5 -115v-1q0 -67 46 -114t114 -47zM174 562h40q33 0 33 27
v1q0 12 -9 19t-24 6h-40v-53zM129 466v188h88q34 0 55 -16t21 -46v-1q0 -45 -42 -57l48 -68h-53l-41 60h-31v-60h-45z" />
    <glyph glyph-name="macron" unicode="&#xaf;" 
d="M89 632v88h350v-88h-350z" />
    <glyph glyph-name="degree" unicode="&#xb0;" horiz-adv-x="496" 
d="M248 399q-68 0 -120 50t-52 116v3q0 66 52 116t120 50t120 -50t52 -116v-3q0 -66 -52 -116t-120 -50zM248 465q42 0 70.5 29.5t28.5 70.5v3q0 41 -28.5 70.5t-70.5 29.5t-70.5 -29.5t-28.5 -70.5v-3q0 -41 28.5 -70.5t70.5 -29.5z" />
    <glyph glyph-name="plusminus" unicode="&#xb1;" horiz-adv-x="666" 
d="M585 387h-197v-193h-110l1 193h-197v106h197l-1 193h110v-193h197v-106zM585 0h-503v103h503v-103z" />
    <glyph glyph-name="two.sup" unicode="&#xb2;" horiz-adv-x="420" 
d="M59 439v63l145 121q41 34 57.5 56.5t16.5 48.5t-19 42t-47 16q-52 0 -97 -62l-53 41q31 44 67 66.5t88 22.5q61 0 99 -33.5t38 -86.5q0 -41 -20 -72t-69 -72l-106 -86h198v-65h-298z" />
    <glyph glyph-name="three.sup" unicode="&#xb3;" horiz-adv-x="420" 
d="M207 429q-93 0 -158 67l45 53q52 -54 114 -54q29 0 50.5 17.5t21.5 44.5q0 29 -25 45t-65 16h-42l-12 46l119 113h-180v66h272v-57l-121 -113q57 -4 92.5 -33t35.5 -81q0 -58 -41 -94t-106 -36z" />
    <glyph glyph-name="acute" unicode="&#xb4;" 
d="M175 619l107 168l110 -50l-126 -118h-91z" />
    <glyph glyph-name="mu" unicode="&#xb5;" horiz-adv-x="702" 
d="M675 98v-96q-32 -9 -70 -9q-104 0 -131 79q-52 -80 -140 -80q-47 0 -86 22.5t-59 65.5h-2q15 -86 15 -127v-119h-118v714h120v-312q0 -64 34.5 -102.5t91.5 -38.5t92.5 38.5t35.5 102.5v312h120v-394q3 -60 62 -60q23 0 35 4z" />
    <glyph glyph-name="paragraph" unicode="&#xb6;" horiz-adv-x="582" 
d="M363 0v256h-18q-132 0 -215 61.5t-83 173.5v2q0 109 77.5 172t203.5 63h159v-728h-124z" />
    <glyph glyph-name="periodcentered" unicode="&#xb7;" horiz-adv-x="285" 
d="M76 248v139h133v-139h-133z" />
    <glyph glyph-name="cedilla" unicode="&#xb8;" 
d="M249 -171l-106 45l97 143h90z" />
    <glyph glyph-name="one.sup" unicode="&#xb9;" horiz-adv-x="342" 
d="M232 439h-73v333l-83 -31l-20 61l120 47h56v-410z" />
    <glyph glyph-name="ordmasculine" unicode="&#xba;" horiz-adv-x="414" 
d="M206 419q-67 0 -111.5 45t-44.5 110v2q0 65 45.5 111t112.5 46t111 -45t44 -110v-2q0 -66 -45 -111.5t-112 -45.5zM208 482q37 0 60.5 26.5t23.5 65.5v2q0 39 -24 66.5t-62 27.5q-37 0 -61 -27t-24 -65v-2q0 -39 24.5 -66.5t62.5 -27.5zM57 294v59h300v-59h-300z" />
    <glyph glyph-name="guillemotright" unicode="&#xbb;" horiz-adv-x="631" 
d="M145 44l-86 44l131 185l-131 186l86 45l178 -226v-8zM403 44l-85 44l130 185l-130 186l85 45l178 -226v-8z" />
    <glyph glyph-name="onequarter" unicode="&#xbc;" horiz-adv-x="867" 
d="M232 324h-73v333l-83 -31l-20 61l120 47h56v-410zM137 0l261 378l233 350h72l-261 -378l-233 -350h-72zM766 86v-88h-68v88h-196l-10 68l198 255h76v-264h55v-59h-55zM699 145v181l-140 -181h140z" />
    <glyph glyph-name="onehalf" unicode="&#xbd;" horiz-adv-x="867" 
d="M232 324h-73v333l-83 -31l-20 61l120 47h56v-410zM127 0l261 378l233 350h72l-261 -378l-233 -350h-72zM513 0v63l145 121q41 34 57.5 56.5t16.5 48.5t-19 42t-47 16q-52 0 -97 -62l-53 41q31 44 67 66.5t88 22.5q61 0 99 -33.5t38 -86.5q0 -41 -20 -72t-69 -72l-106 -86
h198v-65h-298z" />
    <glyph glyph-name="threequarters" unicode="&#xbe;" horiz-adv-x="945" 
d="M210 0l261 378l233 350h72l-261 -378l-233 -350h-72zM209 313q-92 0 -158 68l45 53q52 -54 114 -54q30 0 51 17t21 45q0 29 -25 45t-65 16h-42l-12 46l119 113h-180v66h272v-58l-121 -112q56 -4 92 -33t36 -81q0 -58 -41 -94.5t-106 -36.5zM844 86v-88h-68v88h-196
l-10 68l198 255h76v-264h55v-59h-55zM777 145v181l-140 -181h140z" />
    <glyph glyph-name="questiondown" unicode="&#xbf;" horiz-adv-x="570" 
d="M245 589v139h133v-139h-133zM291 -9q-110 0 -176.5 57.5t-66.5 153.5v2q0 92 57.5 143t152.5 67l11 87h81l20 -169l-5 -5q-194 -7 -194 -120v-2q0 -46 33 -74.5t89 -28.5q94 0 172 84l75 -79q-101 -116 -249 -116z" />
    <glyph glyph-name="Agrave" unicode="&#xc0;" horiz-adv-x="830" 
d="M464 799h-95l-131 100l110 49zM283 287h260l-130 300zM36 0l322 733h114l321 -733h-129l-76 177h-350l-76 -177h-126z" />
    <glyph glyph-name="Aacute" unicode="&#xc1;" horiz-adv-x="830" 
d="M366 799l115 149l110 -49l-131 -100h-94zM283 287h260l-130 300zM36 0l322 733h114l321 -733h-129l-76 177h-350l-76 -177h-126z" />
    <glyph glyph-name="Acircumflex" unicode="&#xc2;" horiz-adv-x="830" 
d="M234 796l124 138h114l124 -138h-102l-80 60l-80 -60h-100zM283 287h260l-130 300zM36 0l322 733h114l321 -733h-129l-76 177h-350l-76 -177h-126z" />
    <glyph glyph-name="Atilde" unicode="&#xc3;" horiz-adv-x="830" 
d="M500 799q-30 0 -91 23q-43 17 -60 17q-21 0 -33.5 -11.5t-24.5 -38.5l-68 20q18 64 44.5 95t70.5 31q33 0 91 -24q43 -17 60 -17q21 0 33 11.5t24 38.5l68 -20q-17 -63 -43.5 -94t-70.5 -31zM283 287h260l-130 300zM36 0l322 733h114l321 -733h-129l-76 177h-350
l-76 -177h-126z" />
    <glyph glyph-name="Adieresis" unicode="&#xc4;" horiz-adv-x="830" 
d="M246 799v113h126v-113h-126zM458 799v113h125v-113h-125zM283 287h260l-130 300zM36 0l322 733h114l321 -733h-129l-76 177h-350l-76 -177h-126z" />
    <glyph glyph-name="Aring" unicode="&#xc5;" horiz-adv-x="830" 
d="M415 715q29 0 48 17.5t19 43.5t-19 43t-48 17q-30 0 -49 -17t-19 -43t19 -43.5t49 -17.5zM283 287h260l-130 300zM36 0l302 690q-46 31 -46 86q0 47 36 78t87 31q50 0 86 -31t36 -78q0 -53 -46 -86l302 -690h-129l-76 177h-350l-76 -177h-126z" />
    <glyph glyph-name="AE" unicode="&#xc6;" horiz-adv-x="1095" 
d="M302 287h209v334h-22zM17 0l410 728h600v-110h-394v-196h347v-110h-347v-202h399v-110h-521v177h-268l-99 -177h-127z" />
    <glyph glyph-name="Ccedilla" unicode="&#xc7;" horiz-adv-x="777" 
d="M390 -171l-106 45l81 121q-131 23 -215 125.5t-84 241.5v2q0 157 106.5 266.5t268.5 109.5q94 0 160.5 -29t124.5 -84l-80 -91q-96 91 -206 91q-105 0 -175 -75.5t-70 -185.5v-2q0 -111 70 -187t175 -76q65 0 113 23t99 72l79 -80q-58 -60 -121.5 -91.5t-150.5 -35.5z
" />
    <glyph glyph-name="Egrave" unicode="&#xc8;" horiz-adv-x="705" 
d="M419 789h-95l-131 100l110 49zM99 0v728h538v-110h-416v-196h369v-110h-369v-202h421v-110h-543z" />
    <glyph glyph-name="Eacute" unicode="&#xc9;" horiz-adv-x="705" 
d="M321 789l115 149l110 -49l-131 -100h-94zM99 0v728h538v-110h-416v-196h369v-110h-369v-202h421v-110h-543z" />
    <glyph glyph-name="Ecircumflex" unicode="&#xca;" horiz-adv-x="705" 
d="M189 789l124 138h114l124 -138h-102l-80 60l-80 -60h-100zM99 0v728h538v-110h-416v-196h369v-110h-369v-202h421v-110h-543z" />
    <glyph glyph-name="Edieresis" unicode="&#xcb;" horiz-adv-x="705" 
d="M201 789v113h126v-113h-126zM413 789v113h125v-113h-125zM99 0v728h538v-110h-416v-196h369v-110h-369v-202h421v-110h-543z" />
    <glyph glyph-name="Igrave" unicode="&#xcc;" horiz-adv-x="335" 
d="M217 789h-95l-131 100l110 49zM106 0v728h123v-728h-123z" />
    <glyph glyph-name="Iacute" unicode="&#xcd;" horiz-adv-x="335" 
d="M118 789l115 149l110 -49l-131 -100h-94zM106 0v728h123v-728h-123z" />
    <glyph glyph-name="Icircumflex" unicode="&#xce;" horiz-adv-x="335" 
d="M-14 789l124 138h114l124 -138h-102l-80 60l-80 -60h-100zM106 0v728h123v-728h-123z" />
    <glyph glyph-name="Idieresis" unicode="&#xcf;" horiz-adv-x="335" 
d="M-1 789v113h126v-113h-126zM211 789v113h125v-113h-125zM106 0v728h123v-728h-123z" />
    <glyph glyph-name="Eth" unicode="&#xd0;" horiz-adv-x="852" 
d="M130 0v322h-78v89h78v317h269q170 0 278.5 -103.5t108.5 -258.5v-2q0 -156 -108.5 -260t-278.5 -104h-269zM439 322h-186v-211h146q116 0 187.5 70.5t71.5 180.5v2q0 110 -72 181.5t-187 71.5h-146v-206h186v-89z" />
    <glyph glyph-name="Ntilde" unicode="&#xd1;" horiz-adv-x="830" 
d="M500 787q-30 0 -91 23q-43 17 -60 17q-21 0 -33.5 -11.5t-24.5 -38.5l-68 20q18 64 44.5 95t70.5 31q33 0 91 -24q43 -17 60 -17q21 0 33 11.5t24 38.5l68 -20q-17 -63 -43.5 -94t-70.5 -31zM99 0v728h113l398 -513v513h121v-728h-103l-408 527v-527h-121z" />
    <glyph glyph-name="Ograve" unicode="&#xd2;" horiz-adv-x="892" 
d="M495 799h-95l-131 100l110 49zM445 -12q-164 0 -271.5 109t-107.5 265v2q0 156 108.5 266t272.5 110t271.5 -109t107.5 -265v-2q0 -156 -108.5 -266t-272.5 -110zM447 101q109 0 179.5 75.5t70.5 185.5v2q0 110 -71.5 186.5t-180.5 76.5t-179.5 -75.5t-70.5 -185.5v-2
q0 -110 71.5 -186.5t180.5 -76.5z" />
    <glyph glyph-name="Oacute" unicode="&#xd3;" horiz-adv-x="892" 
d="M397 799l115 149l110 -49l-131 -100h-94zM445 -12q-164 0 -271.5 109t-107.5 265v2q0 156 108.5 266t272.5 110t271.5 -109t107.5 -265v-2q0 -156 -108.5 -266t-272.5 -110zM447 101q109 0 179.5 75.5t70.5 185.5v2q0 110 -71.5 186.5t-180.5 76.5t-179.5 -75.5
t-70.5 -185.5v-2q0 -110 71.5 -186.5t180.5 -76.5z" />
    <glyph glyph-name="Ocircumflex" unicode="&#xd4;" horiz-adv-x="892" 
d="M265 799l124 138h114l124 -138h-102l-80 60l-80 -60h-100zM445 -12q-164 0 -271.5 109t-107.5 265v2q0 156 108.5 266t272.5 110t271.5 -109t107.5 -265v-2q0 -156 -108.5 -266t-272.5 -110zM447 101q109 0 179.5 75.5t70.5 185.5v2q0 110 -71.5 186.5t-180.5 76.5
t-179.5 -75.5t-70.5 -185.5v-2q0 -110 71.5 -186.5t180.5 -76.5z" />
    <glyph glyph-name="Otilde" unicode="&#xd5;" horiz-adv-x="892" 
d="M531 799q-30 0 -91 23q-43 17 -60 17q-21 0 -33.5 -11.5t-24.5 -38.5l-68 20q18 64 44.5 95t70.5 31q33 0 91 -24q43 -17 60 -17q21 0 33 11.5t24 38.5l68 -20q-17 -63 -43.5 -94t-70.5 -31zM445 -12q-164 0 -271.5 109t-107.5 265v2q0 156 108.5 266t272.5 110
t271.5 -109t107.5 -265v-2q0 -156 -108.5 -266t-272.5 -110zM447 101q109 0 179.5 75.5t70.5 185.5v2q0 110 -71.5 186.5t-180.5 76.5t-179.5 -75.5t-70.5 -185.5v-2q0 -110 71.5 -186.5t180.5 -76.5z" />
    <glyph glyph-name="Odieresis" unicode="&#xd6;" horiz-adv-x="892" 
d="M277 799v113h126v-113h-126zM489 799v113h125v-113h-125zM445 -12q-164 0 -271.5 109t-107.5 265v2q0 156 108.5 266t272.5 110t271.5 -109t107.5 -265v-2q0 -156 -108.5 -266t-272.5 -110zM447 101q109 0 179.5 75.5t70.5 185.5v2q0 110 -71.5 186.5t-180.5 76.5
t-179.5 -75.5t-70.5 -185.5v-2q0 -110 71.5 -186.5t180.5 -76.5z" />
    <glyph glyph-name="multiply" unicode="&#xd7;" horiz-adv-x="666" 
d="M503 119l-171 174l-171 -174l-75 75l174 171l-174 171l78 77l170 -174l171 174l75 -75l-174 -171l174 -171z" />
    <glyph glyph-name="Oslash" unicode="&#xd8;" horiz-adv-x="892" 
d="M713 733h121l-103 -116q95 -106 95 -251v-2q0 -156 -108.5 -266t-272.5 -110q-121 0 -215 62l-51 -55h-121l102 116q-94 103 -94 251v2q0 156 108.5 266t272.5 110q121 0 215 -63zM193 365q0 -92 50 -162l342 385q-65 42 -140 42q-109 0 -180.5 -76.5t-71.5 -187.5v-1z
M447 98q109 0 181 77t72 187v1q0 90 -51 162l-342 -385q61 -42 140 -42z" />
    <glyph glyph-name="Ugrave" unicode="&#xd9;" horiz-adv-x="796" 
d="M447 787h-95l-131 100l110 49zM396 -11q-144 0 -226.5 82.5t-82.5 237.5v419h123v-415q0 -102 50 -156.5t139 -54.5q88 0 137 52.5t49 153.5v420h123v-414q0 -159 -83.5 -242t-228.5 -83z" />
    <glyph glyph-name="Uacute" unicode="&#xda;" horiz-adv-x="796" 
d="M349 787l115 149l110 -49l-131 -100h-94zM396 -11q-144 0 -226.5 82.5t-82.5 237.5v419h123v-415q0 -102 50 -156.5t139 -54.5q88 0 137 52.5t49 153.5v420h123v-414q0 -159 -83.5 -242t-228.5 -83z" />
    <glyph glyph-name="Ucircumflex" unicode="&#xdb;" horiz-adv-x="796" 
d="M217 787l124 138h114l124 -138h-102l-80 60l-80 -60h-100zM396 -11q-144 0 -226.5 82.5t-82.5 237.5v419h123v-415q0 -102 50 -156.5t139 -54.5q88 0 137 52.5t49 153.5v420h123v-414q0 -159 -83.5 -242t-228.5 -83z" />
    <glyph glyph-name="Udieresis" unicode="&#xdc;" horiz-adv-x="796" 
d="M229 787v113h126v-113h-126zM441 787v113h125v-113h-125zM396 -11q-144 0 -226.5 82.5t-82.5 237.5v419h123v-415q0 -102 50 -156.5t139 -54.5q88 0 137 52.5t49 153.5v420h123v-414q0 -159 -83.5 -242t-228.5 -83z" />
    <glyph glyph-name="Yacute" unicode="&#xdd;" horiz-adv-x="753" 
d="M327 787l115 149l110 -49l-131 -100h-94zM315 0v287l-291 441h145l208 -327l211 327h141l-291 -438v-290h-123z" />
    <glyph glyph-name="Thorn" unicode="&#xde;" horiz-adv-x="708" 
d="M99 0v728h123v-115h162q126 0 201 -66t75 -176v-2q0 -118 -82.5 -183t-207.5 -65h-148v-121h-123zM222 232h152q73 0 117.5 37.5t44.5 96.5v2q0 64 -43.5 98.5t-118.5 34.5h-152v-269z" />
    <glyph glyph-name="germandbls" unicode="&#xdf;" horiz-adv-x="653" 
d="M311 -2v93q79 2 122 31.5t43 83.5v2q0 50 -44.5 81t-120.5 40v83q122 57 122 147v2q0 46 -29.5 74t-79.5 28q-53 0 -86.5 -37.5t-33.5 -99.5v-526h-120v522q0 113 66.5 178.5t179.5 65.5q103 0 163 -55t60 -139v-2q0 -117 -118 -180q162 -51 162 -185v-2q0 -99 -77 -154
t-209 -51z" />
    <glyph glyph-name="agrave" unicode="&#xe0;" horiz-adv-x="617" 
d="M267 619l-126 118l110 50l107 -168h-91zM275 77q65 0 108 33.5t43 86.5v40q-61 22 -129 22q-62 0 -97 -25t-35 -69v-2q0 -40 31.5 -63t78.5 -23zM243 -11q-82 0 -139 45t-57 124v2q0 86 61.5 131t165.5 45q79 0 150 -23v14q0 60 -35.5 91.5t-103.5 31.5q-77 0 -158 -34
l-32 94q100 45 206 45q120 0 181 -61q58 -57 58 -168v-326h-117v70q-67 -81 -180 -81z" />
    <glyph glyph-name="aacute" unicode="&#xe1;" horiz-adv-x="617" 
d="M262 619l107 168l110 -50l-126 -118h-91zM275 77q65 0 108 33.5t43 86.5v40q-61 22 -129 22q-62 0 -97 -25t-35 -69v-2q0 -40 31.5 -63t78.5 -23zM243 -11q-82 0 -139 45t-57 124v2q0 86 61.5 131t165.5 45q79 0 150 -23v14q0 60 -35.5 91.5t-103.5 31.5q-77 0 -158 -34
l-32 94q100 45 206 45q120 0 181 -61q58 -57 58 -168v-326h-117v70q-67 -81 -180 -81z" />
    <glyph glyph-name="acircumflex" unicode="&#xe2;" horiz-adv-x="617" 
d="M135 619l119 150h112l120 -150h-97l-80 69l-80 -69h-94zM275 77q65 0 108 33.5t43 86.5v40q-61 22 -129 22q-62 0 -97 -25t-35 -69v-2q0 -40 31.5 -63t78.5 -23zM243 -11q-82 0 -139 45t-57 124v2q0 86 61.5 131t165.5 45q79 0 150 -23v14q0 60 -35.5 91.5t-103.5 31.5
q-77 0 -158 -34l-32 94q100 45 206 45q120 0 181 -61q58 -57 58 -168v-326h-117v70q-67 -81 -180 -81z" />
    <glyph glyph-name="atilde" unicode="&#xe3;" horiz-adv-x="617" 
d="M393 619q-33 0 -85 22q-46 19 -63 19q-21 0 -33 -11.5t-24 -39.5l-67 20q17 65 43 96t71 31q33 0 85 -22q46 -19 63 -19q21 0 33 11.5t24 39.5l67 -20q-17 -65 -43 -96t-71 -31zM275 77q65 0 108 33.5t43 86.5v40q-61 22 -129 22q-62 0 -97 -25t-35 -69v-2
q0 -40 31.5 -63t78.5 -23zM243 -11q-82 0 -139 45t-57 124v2q0 86 61.5 131t165.5 45q79 0 150 -23v14q0 60 -35.5 91.5t-103.5 31.5q-77 0 -158 -34l-32 94q100 45 206 45q120 0 181 -61q58 -57 58 -168v-326h-117v70q-67 -81 -180 -81z" />
    <glyph glyph-name="adieresis" unicode="&#xe4;" horiz-adv-x="617" 
d="M148 619v120h124v-120h-124zM348 619v120h124v-120h-124zM275 77q65 0 108 33.5t43 86.5v40q-61 22 -129 22q-62 0 -97 -25t-35 -69v-2q0 -40 31.5 -63t78.5 -23zM243 -11q-82 0 -139 45t-57 124v2q0 86 61.5 131t165.5 45q79 0 150 -23v14q0 60 -35.5 91.5t-103.5 31.5
q-77 0 -158 -34l-32 94q100 45 206 45q120 0 181 -61q58 -57 58 -168v-326h-117v70q-67 -81 -180 -81z" />
    <glyph glyph-name="aring" unicode="&#xe5;" horiz-adv-x="617" 
d="M310 617q-50 0 -85 33.5t-35 81.5t35 82t85 34t85 -34t35 -82t-35 -81.5t-85 -33.5zM310 662q28 0 49 21t21 49t-21 49t-49 21t-49 -21t-21 -49t21 -49t49 -21zM275 77q65 0 108 33.5t43 86.5v40q-61 22 -129 22q-62 0 -97 -25t-35 -69v-2q0 -40 31.5 -63t78.5 -23z
M243 -11q-82 0 -139 45t-57 124v2q0 86 61.5 131t165.5 45q79 0 150 -23v14q0 60 -35.5 91.5t-103.5 31.5q-77 0 -158 -34l-32 94q100 45 206 45q120 0 181 -61q58 -57 58 -168v-326h-117v70q-67 -81 -180 -81z" />
    <glyph glyph-name="ae" unicode="&#xe6;" horiz-adv-x="998" 
d="M536 311h290q-6 66 -43.5 107.5t-99.5 41.5q-59 0 -98.5 -41t-48.5 -108zM253 -11q-88 0 -147 45t-59 124v2q0 86 61 131t164 45q76 0 147 -23v14q0 60 -35 91.5t-101 31.5q-75 0 -156 -34l-32 94q100 45 204 45q143 0 193 -93q71 97 195 97q122 0 190.5 -84.5
t68.5 -209.5q0 -10 -2 -34h-406q10 -68 54 -106t107 -38q84 0 152 66l71 -63q-87 -102 -225 -102q-134 0 -213 95q-106 -94 -231 -94zM273 78q89 0 167 73q-17 41 -21 87q-63 21 -123 21q-62 0 -96.5 -25t-34.5 -69v-2q0 -39 31 -62t77 -23z" />
    <glyph glyph-name="ccedilla" unicode="&#xe7;" horiz-adv-x="602" 
d="M290 -171l-106 45l83 123q-94 22 -153.5 98.5t-59.5 175.5v2q0 119 81.5 202.5t202.5 83.5q132 0 219 -95l-76 -81q-68 71 -144 71q-70 0 -116.5 -52.5t-46.5 -126.5v-2q0 -76 48 -128t121 -52q76 0 145 69l73 -71q-87 -96 -203 -102z" />
    <glyph glyph-name="egrave" unicode="&#xe8;" horiz-adv-x="635" 
d="M276 619l-126 118l110 50l107 -168h-91zM334 -12q-120 0 -200 79.5t-80 204.5v2q0 119 76 202t191 83q124 0 192.5 -84.5t68.5 -209.5q0 -22 -1 -34h-406q10 -68 53.5 -106t107.5 -38q85 0 151 66l72 -63q-87 -102 -225 -102zM173 311h290q-7 66 -44 107.5t-99 41.5
q-59 0 -98.5 -41t-48.5 -108z" />
    <glyph glyph-name="eacute" unicode="&#xe9;" horiz-adv-x="635" 
d="M272 619l107 168l110 -50l-126 -118h-91zM334 -12q-120 0 -200 79.5t-80 204.5v2q0 119 76 202t191 83q124 0 192.5 -84.5t68.5 -209.5q0 -22 -1 -34h-406q10 -68 53.5 -106t107.5 -38q85 0 151 66l72 -63q-87 -102 -225 -102zM173 311h290q-7 66 -44 107.5t-99 41.5
q-59 0 -98.5 -41t-48.5 -108z" />
    <glyph glyph-name="ecircumflex" unicode="&#xea;" horiz-adv-x="635" 
d="M144 619l119 150h112l120 -150h-97l-80 69l-80 -69h-94zM334 -12q-120 0 -200 79.5t-80 204.5v2q0 119 76 202t191 83q124 0 192.5 -84.5t68.5 -209.5q0 -22 -1 -34h-406q10 -68 53.5 -106t107.5 -38q85 0 151 66l72 -63q-87 -102 -225 -102zM173 311h290
q-7 66 -44 107.5t-99 41.5q-59 0 -98.5 -41t-48.5 -108z" />
    <glyph glyph-name="edieresis" unicode="&#xeb;" horiz-adv-x="635" 
d="M157 619v120h124v-120h-124zM357 619v120h124v-120h-124zM334 -12q-120 0 -200 79.5t-80 204.5v2q0 119 76 202t191 83q124 0 192.5 -84.5t68.5 -209.5q0 -22 -1 -34h-406q10 -68 53.5 -106t107.5 -38q85 0 151 66l72 -63q-87 -102 -225 -102zM173 311h290
q-7 66 -44 107.5t-99 41.5q-59 0 -98.5 -41t-48.5 -108z" />
    <glyph glyph-name="igrave" unicode="&#xec;" horiz-adv-x="303" 
d="M108 619l-126 118l110 50l107 -168h-91zM91 0v548h121v-548h-121z" />
    <glyph glyph-name="iacute" unicode="&#xed;" horiz-adv-x="303" 
d="M103 619l107 168l110 -50l-126 -118h-91zM91 0v548h121v-548h-121z" />
    <glyph glyph-name="icircumflex" unicode="&#xee;" horiz-adv-x="303" 
d="M-24 619l119 150h112l120 -150h-97l-80 69l-80 -69h-94zM91 0v548h121v-548h-121z" />
    <glyph glyph-name="idieresis" unicode="&#xef;" horiz-adv-x="303" 
d="M-11 619v120h124v-120h-124zM189 619v120h124v-120h-124zM91 0v548h121v-548h-121z" />
    <glyph glyph-name="eth" unicode="&#xf0;" horiz-adv-x="690" 
d="M541 695l-84 -27q178 -180 178 -368v-2q0 -133 -80 -221.5t-213 -88.5q-123 0 -205.5 83.5t-82.5 205.5v2q0 114 73.5 191t176.5 77q80 0 156 -55q-36 63 -115 140l-124 -40l-26 67l89 28q-41 34 -92 72h164l42 -35l118 38zM346 93q75 0 122 50.5t47 126.5v2
q0 74 -49 124.5t-125 50.5t-121.5 -49.5t-45.5 -124.5v-2q0 -74 49 -126t123 -52z" />
    <glyph glyph-name="ntilde" unicode="&#xf1;" horiz-adv-x="652" 
d="M412 619q-33 0 -85 22q-46 19 -63 19q-21 0 -33 -11.5t-24 -39.5l-67 20q17 65 43 96t71 31q33 0 85 -22q46 -19 63 -19q21 0 33 11.5t24 39.5l67 -20q-17 -65 -43 -96t-71 -31zM84 0v548h120v-86q67 97 174 97q92 0 144.5 -57t52.5 -154v-348h-121v312q0 65 -31.5 101
t-89.5 36t-93.5 -37.5t-35.5 -101.5v-310h-120z" />
    <glyph glyph-name="ograve" unicode="&#xf2;" horiz-adv-x="690" 
d="M302 619l-126 118l110 50l107 -168h-91zM344 -12q-124 0 -207 82.5t-83 200.5v2q0 119 84 202.5t208 83.5t207 -82.5t83 -201.5v-2q0 -118 -83.5 -201.5t-208.5 -83.5zM346 93q75 0 122.5 51.5t47.5 126.5v2q0 75 -49 128t-123 53q-75 0 -122.5 -52t-47.5 -127v-2
q0 -75 49 -127.5t123 -52.5z" />
    <glyph glyph-name="oacute" unicode="&#xf3;" horiz-adv-x="690" 
d="M297 619l107 168l110 -50l-126 -118h-91zM344 -12q-124 0 -207 82.5t-83 200.5v2q0 119 84 202.5t208 83.5t207 -82.5t83 -201.5v-2q0 -118 -83.5 -201.5t-208.5 -83.5zM346 93q75 0 122.5 51.5t47.5 126.5v2q0 75 -49 128t-123 53q-75 0 -122.5 -52t-47.5 -127v-2
q0 -75 49 -127.5t123 -52.5z" />
    <glyph glyph-name="ocircumflex" unicode="&#xf4;" horiz-adv-x="690" 
d="M170 619l119 150h112l120 -150h-97l-80 69l-80 -69h-94zM344 -12q-124 0 -207 82.5t-83 200.5v2q0 119 84 202.5t208 83.5t207 -82.5t83 -201.5v-2q0 -118 -83.5 -201.5t-208.5 -83.5zM346 93q75 0 122.5 51.5t47.5 126.5v2q0 75 -49 128t-123 53q-75 0 -122.5 -52
t-47.5 -127v-2q0 -75 49 -127.5t123 -52.5z" />
    <glyph glyph-name="otilde" unicode="&#xf5;" horiz-adv-x="690" 
d="M428 619q-33 0 -85 22q-46 19 -63 19q-21 0 -33 -11.5t-24 -39.5l-67 20q17 65 43 96t71 31q33 0 85 -22q46 -19 63 -19q21 0 33 11.5t24 39.5l67 -20q-17 -65 -43 -96t-71 -31zM344 -12q-124 0 -207 82.5t-83 200.5v2q0 119 84 202.5t208 83.5t207 -82.5t83 -201.5v-2
q0 -118 -83.5 -201.5t-208.5 -83.5zM346 93q75 0 122.5 51.5t47.5 126.5v2q0 75 -49 128t-123 53q-75 0 -122.5 -52t-47.5 -127v-2q0 -75 49 -127.5t123 -52.5z" />
    <glyph glyph-name="odieresis" unicode="&#xf6;" horiz-adv-x="690" 
d="M183 619v120h124v-120h-124zM383 619v120h124v-120h-124zM344 -12q-124 0 -207 82.5t-83 200.5v2q0 119 84 202.5t208 83.5t207 -82.5t83 -201.5v-2q0 -118 -83.5 -201.5t-208.5 -83.5zM346 93q75 0 122.5 51.5t47.5 126.5v2q0 75 -49 128t-123 53q-75 0 -122.5 -52
t-47.5 -127v-2q0 -75 49 -127.5t123 -52.5z" />
    <glyph glyph-name="divide" unicode="&#xf7;" horiz-adv-x="666" 
d="M266 517v129h134v-129h-134zM592 314h-517v104h517v-104zM266 86v130h134v-130h-134z" />
    <glyph glyph-name="oslash" unicode="&#xf8;" horiz-adv-x="690" 
d="M541 554h111l-84 -94q68 -77 68 -185v-2q0 -118 -83.5 -201.5t-208.5 -83.5q-89 0 -160 44l-35 -37h-111l83 92q-67 78 -67 184v2q0 119 84 202.5t208 83.5q87 0 159 -45zM171 274q0 -57 28 -102l235 259q-42 26 -90 26q-77 0 -125 -53t-48 -129v-1zM346 90
q77 0 125 52.5t48 128.5v2q0 56 -29 102l-234 -261q42 -24 90 -24z" />
    <glyph glyph-name="ugrave" unicode="&#xf9;" horiz-adv-x="652" 
d="M279 619l-126 118l110 50l107 -168h-91zM275 -11q-93 0 -145.5 57t-52.5 154v348h121v-312q0 -65 32 -101t89 -36q58 0 93.5 37.5t35.5 101.5v310h120v-548h-120v86q-67 -97 -173 -97z" />
    <glyph glyph-name="uacute" unicode="&#xfa;" horiz-adv-x="652" 
d="M275 619l107 168l110 -50l-126 -118h-91zM275 -11q-93 0 -145.5 57t-52.5 154v348h121v-312q0 -65 32 -101t89 -36q58 0 93.5 37.5t35.5 101.5v310h120v-548h-120v86q-67 -97 -173 -97z" />
    <glyph glyph-name="ucircumflex" unicode="&#xfb;" horiz-adv-x="652" 
d="M147 619l119 150h112l120 -150h-97l-80 69l-80 -69h-94zM275 -11q-93 0 -145.5 57t-52.5 154v348h121v-312q0 -65 32 -101t89 -36q58 0 93.5 37.5t35.5 101.5v310h120v-548h-120v86q-67 -97 -173 -97z" />
    <glyph glyph-name="udieresis" unicode="&#xfc;" horiz-adv-x="652" 
d="M160 619v120h124v-120h-124zM360 619v120h124v-120h-124zM275 -11q-93 0 -145.5 57t-52.5 154v348h121v-312q0 -65 32 -101t89 -36q58 0 93.5 37.5t35.5 101.5v310h120v-548h-120v86q-67 -97 -173 -97z" />
    <glyph glyph-name="yacute" unicode="&#xfd;" horiz-adv-x="628" 
d="M267 619l107 168l110 -50l-126 -118h-91zM321 135l146 413h126l-219 -563q-33 -85 -74 -120t-107 -35q-67 0 -128 33l41 91q39 -22 75 -22q28 0 46.5 15t35.5 53l-231 548h129z" />
    <glyph glyph-name="thorn" unicode="&#xfe;" horiz-adv-x="705" 
d="M366 93q68 0 114.5 49.5t46.5 130.5v2q0 80 -47 130t-114 50t-115.5 -50.5t-48.5 -129.5v-2q0 -79 48.5 -129.5t115.5 -50.5zM84 -166v925h120v-305q73 105 190 105q103 0 179 -77t76 -207v-2q0 -130 -76 -207t-179 -77q-115 0 -190 98v-253h-120z" />
    <glyph glyph-name="ydieresis" unicode="&#xff;" horiz-adv-x="628" 
d="M153 619v120h124v-120h-124zM353 619v120h124v-120h-124zM321 135l146 413h126l-219 -563q-33 -85 -74 -120t-107 -35q-67 0 -128 33l41 91q39 -22 75 -22q28 0 46.5 15t35.5 53l-231 548h129z" />
    <glyph glyph-name="Amacron" unicode="&#x100;" horiz-adv-x="830" 
d="M230 812v90h370v-90h-370zM283 287h260l-130 300zM36 0l322 733h114l321 -733h-129l-76 177h-350l-76 -177h-126z" />
    <glyph glyph-name="amacron" unicode="&#x101;" horiz-adv-x="617" 
d="M135 632v88h350v-88h-350zM275 77q65 0 108 33.5t43 86.5v40q-61 22 -129 22q-62 0 -97 -25t-35 -69v-2q0 -40 31.5 -63t78.5 -23zM243 -11q-82 0 -139 45t-57 124v2q0 86 61.5 131t165.5 45q79 0 150 -23v14q0 60 -35.5 91.5t-103.5 31.5q-77 0 -158 -34l-32 94
q100 45 206 45q120 0 181 -61q58 -57 58 -168v-326h-117v70q-67 -81 -180 -81z" />
    <glyph glyph-name="Abreve" unicode="&#x102;" horiz-adv-x="830" 
d="M415 797q-75 0 -123 36t-54 101h86q20 -52 91 -52t91 52h86q-6 -65 -54 -101t-123 -36zM283 287h260l-130 300zM36 0l322 733h114l321 -733h-129l-76 177h-350l-76 -177h-126z" />
    <glyph glyph-name="abreve" unicode="&#x103;" horiz-adv-x="617" 
d="M310 617q-75 0 -122.5 39t-52.5 109h83q20 -64 92 -64t92 64h84q-6 -70 -53.5 -109t-122.5 -39zM275 77q65 0 108 33.5t43 86.5v40q-61 22 -129 22q-62 0 -97 -25t-35 -69v-2q0 -40 31.5 -63t78.5 -23zM243 -11q-82 0 -139 45t-57 124v2q0 86 61.5 131t165.5 45
q79 0 150 -23v14q0 60 -35.5 91.5t-103.5 31.5q-77 0 -158 -34l-32 94q100 45 206 45q120 0 181 -61q58 -57 58 -168v-326h-117v70q-67 -81 -180 -81z" />
    <glyph glyph-name="Aogonek" unicode="&#x104;" horiz-adv-x="830" 
d="M802 -112v-59q-22 -2 -31 -2q-65 1 -100.5 25t-35.5 63q0 41 42 85h-13l-76 177h-350l-76 -177h-126l322 733h114l321 -733h-30q-36 -35 -36 -67q0 -45 75 -45zM283 287h260l-130 300z" />
    <glyph glyph-name="aogonek" unicode="&#x105;" horiz-adv-x="617" 
d="M549 -112v-59q-22 -2 -31 -2q-65 1 -100.5 25t-35.5 63q0 41 42 85h-1v70q-67 -81 -180 -81q-82 0 -139 45t-57 124v2q0 86 61.5 131t165.5 45q79 0 150 -23v14q0 60 -35.5 91.5t-103.5 31.5q-77 0 -158 -34l-32 94q100 45 206 45q120 0 181 -61q58 -57 58 -168v-326h-30
q-36 -35 -36 -67q0 -45 75 -45zM275 77q65 0 108 33.5t43 86.5v40q-61 22 -129 22q-62 0 -97 -25t-35 -69v-2q0 -40 31.5 -63t78.5 -23z" />
    <glyph glyph-name="Cacute" unicode="&#x106;" horiz-adv-x="777" 
d="M381 799l115 149l110 -49l-131 -100h-94zM436 -12q-158 0 -264 108t-106 266v2q0 157 106.5 266.5t268.5 109.5q94 0 160.5 -29t124.5 -84l-80 -91q-96 91 -206 91q-105 0 -175 -75.5t-70 -185.5v-2q0 -111 70 -187t175 -76q65 0 113 23t99 72l79 -80q-62 -64 -130.5 -96
t-164.5 -32z" />
    <glyph glyph-name="cacute" unicode="&#x107;" horiz-adv-x="602" 
d="M284 619l107 168l110 -50l-126 -118h-91zM337 -12q-121 0 -202 82.5t-81 200.5v2q0 119 81.5 202.5t202.5 83.5q132 0 219 -95l-76 -81q-68 71 -144 71q-70 0 -116.5 -52.5t-46.5 -126.5v-2q0 -76 48 -128t121 -52q76 0 145 69l73 -71q-46 -50 -98 -76.5t-126 -26.5z" />
    <glyph glyph-name="Cdotaccent" unicode="&#x10a;" horiz-adv-x="777" 
d="M365 799v113h130v-113h-130zM436 -12q-158 0 -264 108t-106 266v2q0 157 106.5 266.5t268.5 109.5q94 0 160.5 -29t124.5 -84l-80 -91q-96 91 -206 91q-105 0 -175 -75.5t-70 -185.5v-2q0 -111 70 -187t175 -76q65 0 113 23t99 72l79 -80q-62 -64 -130.5 -96t-164.5 -32z
" />
    <glyph glyph-name="cdotaccent" unicode="&#x10b;" horiz-adv-x="602" 
d="M268 619v121h128v-121h-128zM337 -12q-121 0 -202 82.5t-81 200.5v2q0 119 81.5 202.5t202.5 83.5q132 0 219 -95l-76 -81q-68 71 -144 71q-70 0 -116.5 -52.5t-46.5 -126.5v-2q0 -76 48 -128t121 -52q76 0 145 69l73 -71q-46 -50 -98 -76.5t-126 -26.5z" />
    <glyph glyph-name="Ccaron" unicode="&#x10c;" horiz-adv-x="777" 
d="M611 937l-124 -138h-114l-124 138h102l80 -60l80 60h100zM436 -12q-158 0 -264 108t-106 266v2q0 157 106.5 266.5t268.5 109.5q94 0 160.5 -29t124.5 -84l-80 -91q-96 91 -206 91q-105 0 -175 -75.5t-70 -185.5v-2q0 -111 70 -187t175 -76q65 0 113 23t99 72l79 -80
q-62 -64 -130.5 -96t-164.5 -32z" />
    <glyph glyph-name="ccaron" unicode="&#x10d;" horiz-adv-x="602" 
d="M508 769l-120 -150h-112l-119 150h96l80 -69l80 69h95zM337 -12q-121 0 -202 82.5t-81 200.5v2q0 119 81.5 202.5t202.5 83.5q132 0 219 -95l-76 -81q-68 71 -144 71q-70 0 -116.5 -52.5t-46.5 -126.5v-2q0 -76 48 -128t121 -52q76 0 145 69l73 -71q-46 -50 -98 -76.5
t-126 -26.5z" />
    <glyph glyph-name="Dcaron" unicode="&#x10e;" horiz-adv-x="821" 
d="M577 927l-124 -138h-114l-124 138h102l80 -60l80 60h100zM99 0v728h269q170 0 278.5 -103.5t108.5 -258.5v-2q0 -156 -108.5 -260t-278.5 -104h-269zM368 617h-146v-506h146q116 0 187 70.5t71 180.5v2q0 110 -71.5 181.5t-186.5 71.5z" />
    <glyph glyph-name="dcaron" unicode="&#x10f;" horiz-adv-x="705" 
d="M680 565l13 195h96v-4l-58 -191h-51zM339 93q67 0 115.5 50.5t48.5 129.5v2q0 79 -48.5 129.5t-115.5 50.5q-68 0 -114.5 -49.5t-46.5 -130.5v-2q0 -80 47 -130t114 -50zM311 -11q-103 0 -179 77t-76 207v2q0 130 75.5 207t179.5 77q115 0 189 -98v298h121v-759h-121v94
q-73 -105 -189 -105z" />
    <glyph glyph-name="Dcroat" unicode="&#x110;" horiz-adv-x="852" 
d="M130 0v322h-78v89h78v317h269q170 0 278.5 -103.5t108.5 -258.5v-2q0 -156 -108.5 -260t-278.5 -104h-269zM439 322h-186v-211h146q116 0 187.5 70.5t71.5 180.5v2q0 110 -72 181.5t-187 71.5h-146v-206h186v-89z" />
    <glyph glyph-name="dcroat" unicode="&#x111;" horiz-adv-x="705" 
d="M339 93q67 0 115.5 50.5t48.5 129.5v2q0 79 -48.5 129.5t-115.5 50.5q-68 0 -114.5 -49.5t-46.5 -130.5v-2q0 -80 47 -130t114 -50zM328 626v74h172v59h121v-59h71v-74h-71v-626h-121v94q-73 -105 -189 -105q-103 0 -179 77t-76 207v2q0 130 75.5 207t179.5 77
q115 0 189 -98v165h-172z" />
    <glyph glyph-name="Emacron" unicode="&#x112;" horiz-adv-x="705" 
d="M185 802v90h370v-90h-370zM99 0v728h538v-110h-416v-196h369v-110h-369v-202h421v-110h-543z" />
    <glyph glyph-name="emacron" unicode="&#x113;" horiz-adv-x="635" 
d="M144 632v88h350v-88h-350zM334 -12q-120 0 -200 79.5t-80 204.5v2q0 119 76 202t191 83q124 0 192.5 -84.5t68.5 -209.5q0 -22 -1 -34h-406q10 -68 53.5 -106t107.5 -38q85 0 151 66l72 -63q-87 -102 -225 -102zM173 311h290q-7 66 -44 107.5t-99 41.5q-59 0 -98.5 -41
t-48.5 -108z" />
    <glyph glyph-name="Ebreve" unicode="&#x114;" horiz-adv-x="705" 
d="M370 787q-75 0 -123 36t-54 101h86q20 -52 91 -52t91 52h86q-6 -65 -54 -101t-123 -36zM99 0v728h538v-110h-416v-196h369v-110h-369v-202h421v-110h-543z" />
    <glyph glyph-name="ebreve" unicode="&#x115;" horiz-adv-x="635" 
d="M319 617q-75 0 -122.5 39t-52.5 109h83q20 -64 92 -64t92 64h84q-6 -70 -53.5 -109t-122.5 -39zM334 -12q-120 0 -200 79.5t-80 204.5v2q0 119 76 202t191 83q124 0 192.5 -84.5t68.5 -209.5q0 -22 -1 -34h-406q10 -68 53.5 -106t107.5 -38q85 0 151 66l72 -63
q-87 -102 -225 -102zM173 311h290q-7 66 -44 107.5t-99 41.5q-59 0 -98.5 -41t-48.5 -108z" />
    <glyph glyph-name="Edotaccent" unicode="&#x116;" horiz-adv-x="705" 
d="M305 789v113h130v-113h-130zM99 0v728h538v-110h-416v-196h369v-110h-369v-202h421v-110h-543z" />
    <glyph glyph-name="edotaccent" unicode="&#x117;" horiz-adv-x="635" 
d="M255 619v121h128v-121h-128zM334 -12q-120 0 -200 79.5t-80 204.5v2q0 119 76 202t191 83q124 0 192.5 -84.5t68.5 -209.5q0 -22 -1 -34h-406q10 -68 53.5 -106t107.5 -38q85 0 151 66l72 -63q-87 -102 -225 -102zM173 311h290q-7 66 -44 107.5t-99 41.5q-59 0 -98.5 -41
t-48.5 -108z" />
    <glyph glyph-name="Eogonek" unicode="&#x118;" horiz-adv-x="705" 
d="M99 0v728h538v-110h-416v-196h369v-110h-369v-202h421v-110h-39q-36 -35 -36 -67q0 -45 75 -45v-59q-22 -2 -31 -2q-65 1 -100.5 25t-35.5 63q0 41 42 85h-418z" />
    <glyph glyph-name="eogonek" unicode="&#x119;" horiz-adv-x="635" 
d="M487 153l72 -63q-23 -25 -60 -59q-60 -53 -60 -92q0 -49 76 -51v-59q-22 -2 -31 -2q-65 1 -100.5 24.5t-35.5 61.5q0 36 35 79q-19 -4 -49 -4q-120 0 -200 79.5t-80 204.5v2q0 119 76 202t191 83q124 0 192.5 -84.5t68.5 -209.5q0 -22 -1 -34h-406q10 -68 53.5 -106
t107.5 -38q85 0 151 66zM173 311h290q-7 66 -44 107.5t-99 41.5q-59 0 -98.5 -41t-48.5 -108z" />
    <glyph glyph-name="Ecaron" unicode="&#x11a;" horiz-adv-x="705" 
d="M551 927l-124 -138h-114l-124 138h102l80 -60l80 60h100zM99 0v728h538v-110h-416v-196h369v-110h-369v-202h421v-110h-543z" />
    <glyph glyph-name="ecaron" unicode="&#x11b;" horiz-adv-x="635" 
d="M495 769l-120 -150h-112l-119 150h96l80 -69l80 69h95zM334 -12q-120 0 -200 79.5t-80 204.5v2q0 119 76 202t191 83q124 0 192.5 -84.5t68.5 -209.5q0 -22 -1 -34h-406q10 -68 53.5 -106t107.5 -38q85 0 151 66l72 -63q-87 -102 -225 -102zM173 311h290q-7 66 -44 107.5
t-99 41.5q-59 0 -98.5 -41t-48.5 -108z" />
    <glyph glyph-name="Gbreve" unicode="&#x11e;" horiz-adv-x="823" 
d="M432 797q-75 0 -123 36t-54 101h86q20 -52 91 -52t91 52h86q-6 -65 -54 -101t-123 -36zM443 -12q-169 0 -273 106t-104 268v2q0 155 106.5 265.5t267.5 110.5q91 0 156 -24t124 -74l-78 -93q-47 39 -93.5 58.5t-112.5 19.5q-102 0 -171.5 -76.5t-69.5 -184.5v-2
q0 -115 70 -190t182 -75q105 0 180 57v141h-190v108h309v-304q-131 -113 -303 -113z" />
    <glyph glyph-name="gbreve" unicode="&#x11f;" horiz-adv-x="705" 
d="M358 617q-75 0 -122.5 39t-52.5 109h83q20 -64 92 -64t92 64h84q-6 -70 -53.5 -109t-122.5 -39zM337 146q68 0 117 43.5t49 110.5v2q0 68 -48.5 111.5t-117.5 43.5q-68 0 -113.5 -43t-45.5 -111v-2q0 -68 46 -111.5t113 -43.5zM328 -168q-135 0 -246 66l46 91
q92 -59 197 -59q85 0 130.5 43.5t45.5 127.5v44q-79 -101 -195 -101q-102 0 -176 70t-74 186v2q0 116 74.5 186.5t175.5 70.5q115 0 194 -95v84h121v-437q0 -136 -70 -206q-73 -73 -223 -73z" />
    <glyph glyph-name="Gdotaccent" unicode="&#x120;" horiz-adv-x="823" 
d="M367 799v113h130v-113h-130zM443 -12q-169 0 -273 106t-104 268v2q0 155 106.5 265.5t267.5 110.5q91 0 156 -24t124 -74l-78 -93q-47 39 -93.5 58.5t-112.5 19.5q-102 0 -171.5 -76.5t-69.5 -184.5v-2q0 -115 70 -190t182 -75q105 0 180 57v141h-190v108h309v-304
q-131 -113 -303 -113z" />
    <glyph glyph-name="gdotaccent" unicode="&#x121;" horiz-adv-x="705" 
d="M294 619v121h128v-121h-128zM337 146q68 0 117 43.5t49 110.5v2q0 68 -48.5 111.5t-117.5 43.5q-68 0 -113.5 -43t-45.5 -111v-2q0 -68 46 -111.5t113 -43.5zM328 -168q-135 0 -246 66l46 91q92 -59 197 -59q85 0 130.5 43.5t45.5 127.5v44q-79 -101 -195 -101
q-102 0 -176 70t-74 186v2q0 116 74.5 186.5t175.5 70.5q115 0 194 -95v84h121v-437q0 -136 -70 -206q-73 -73 -223 -73z" />
    <glyph glyph-name="Gcommaaccent" unicode="&#x122;" horiz-adv-x="823" 
d="M443 -12q-169 0 -273 106t-104 268v2q0 155 106.5 265.5t267.5 110.5q91 0 156 -24t124 -74l-78 -93q-47 39 -93.5 58.5t-112.5 19.5q-102 0 -171.5 -76.5t-69.5 -184.5v-2q0 -115 70 -190t182 -75q105 0 180 57v141h-190v108h309v-304q-131 -113 -303 -113zM363 -282
l-8 40q77 9 72 69h-55v103h120v-88q0 -118 -129 -124z" />
    <glyph glyph-name="gcommaaccent" unicode="&#x123;" horiz-adv-x="705" 
d="M425 831l8 -40q-77 -9 -72 -69h55v-103h-120v88q0 118 129 124zM337 146q68 0 117 43.5t49 110.5v2q0 68 -48.5 111.5t-117.5 43.5q-68 0 -113.5 -43t-45.5 -111v-2q0 -68 46 -111.5t113 -43.5zM328 -168q-135 0 -246 66l46 91q92 -59 197 -59q85 0 130.5 43.5
t45.5 127.5v44q-79 -101 -195 -101q-102 0 -176 70t-74 186v2q0 116 74.5 186.5t175.5 70.5q115 0 194 -95v84h121v-437q0 -136 -70 -206q-73 -73 -223 -73z" />
    <glyph glyph-name="Hbar" unicode="&#x126;" horiz-adv-x="820" 
d="M233 421h355v112h-355v-112zM35 531v88h75v109h123v-109h355v109h123v-109h74v-88h-74v-531h-123v308h-355v-308h-123v531h-75z" />
    <glyph glyph-name="hbar" unicode="&#x127;" horiz-adv-x="652" 
d="M377 626h-173v-164q67 97 174 97q92 0 144.5 -57t52.5 -154v-348h-121v312q0 65 -31.5 101t-89.5 36t-93.5 -37.5t-35.5 -101.5v-310h-120v626h-72v74h72v59h120v-59h173v-74z" />
    <glyph glyph-name="Imacron" unicode="&#x12a;" horiz-adv-x="335" 
d="M-18 802v90h370v-90h-370zM106 0v728h123v-728h-123z" />
    <glyph glyph-name="imacron" unicode="&#x12b;" horiz-adv-x="303" 
d="M-24 632v88h350v-88h-350zM91 0v548h121v-548h-121z" />
    <glyph glyph-name="Ibreve" unicode="&#x12c;" horiz-adv-x="335" 
d="M167 787q-75 0 -123 36t-54 101h86q20 -52 91 -52t91 52h86q-6 -65 -54 -101t-123 -36zM106 0v728h123v-728h-123z" />
    <glyph glyph-name="ibreve" unicode="&#x12d;" horiz-adv-x="303" 
d="M151 617q-75 0 -122.5 39t-52.5 109h83q20 -64 92 -64t92 64h84q-6 -70 -53.5 -109t-122.5 -39zM91 0v548h121v-548h-121z" />
    <glyph glyph-name="Iogonek" unicode="&#x12e;" horiz-adv-x="335" 
d="M106 0v728h123v-728h-22q-36 -35 -36 -67q0 -45 75 -45v-59q-22 -2 -31 -2q-65 1 -100.5 25t-35.5 63q0 41 42 85h-15z" />
    <glyph glyph-name="iogonek" unicode="&#x12f;" horiz-adv-x="303" 
d="M86 636v116h131v-116h-131zM91 0v548h121v-548h-21q-36 -35 -36 -67q0 -45 75 -45v-59q-22 -2 -31 -2q-65 1 -100.5 25t-35.5 63q0 41 42 85h-14z" />
    <glyph glyph-name="Idotaccent" unicode="&#x130;" horiz-adv-x="335" 
d="M102 789v113h130v-113h-130zM106 0v728h123v-728h-123z" />
    <glyph glyph-name="dotlessi" unicode="&#x131;" horiz-adv-x="303" 
d="M91 0v548h121v-548h-121z" />
    <glyph glyph-name="Kcommaaccent" unicode="&#x136;" horiz-adv-x="762" 
d="M99 0v728h123v-374l353 374h153l-304 -313l317 -415h-150l-251 330l-118 -121v-209h-123zM314 -274l-8 40q76 9 72 69h-55v103h120v-88q0 -118 -129 -124z" />
    <glyph glyph-name="kcommaaccent" unicode="&#x137;" horiz-adv-x="612" 
d="M84 0v759h120v-462l236 251h146l-219 -225l227 -323h-142l-166 239l-82 -84v-155h-120zM250 -279l-8 40q76 9 72 69h-55v103h120v-88q0 -118 -129 -124z" />
    <glyph glyph-name="Lacute" unicode="&#x139;" horiz-adv-x="650" 
d="M128 789l115 149l110 -49l-131 -100h-94zM99 0v728h123v-616h385v-112h-508z" />
    <glyph glyph-name="lacute" unicode="&#x13a;" horiz-adv-x="303" 
d="M105 808l115 149l110 -49l-131 -100h-94zM91 0v759h121v-759h-121z" />
    <glyph glyph-name="Lcommaaccent" unicode="&#x13b;" horiz-adv-x="650" 
d="M99 0v728h123v-616h385v-112h-508zM282 -279l-8 40q76 9 72 69h-55v103h120v-88q0 -118 -129 -124z" />
    <glyph glyph-name="lcommaaccent" unicode="&#x13c;" horiz-adv-x="303" 
d="M91 0v759h121v-759h-121zM82 -279l-8 40q76 9 72 69h-55v103h120v-88q0 -118 -129 -124z" />
    <glyph glyph-name="Lcaron" unicode="&#x13d;" horiz-adv-x="650" 
d="M305 533l13 195h96v-4l-58 -191h-51zM99 0v728h123v-616h385v-112h-508z" />
    <glyph glyph-name="lcaron" unicode="&#x13e;" horiz-adv-x="303" 
d="M271 565l13 195h96v-4l-58 -191h-51zM91 0v759h121v-759h-121z" />
    <glyph glyph-name="Ldot" unicode="&#x13f;" horiz-adv-x="650" 
d="M99 0v728h123v-616h385v-112h-508zM434 330v121h124v-121h-124z" />
    <glyph glyph-name="ldot" unicode="&#x140;" horiz-adv-x="385" 
d="M91 0v759h121v-759h-121zM287 332v114h107v-114h-107z" />
    <glyph glyph-name="Lslash" unicode="&#x141;" horiz-adv-x="681" 
d="M421 403l-170 -77v-214h387v-112h-508v272l-78 -35v116l78 35v340h121v-285l170 77v-117z" />
    <glyph glyph-name="lslash" unicode="&#x142;" horiz-adv-x="365" 
d="M321 399l-79 -41v-358h-119v297l-79 -40v116l79 40v346h119v-285l79 41v-116z" />
    <glyph glyph-name="Nacute" unicode="&#x143;" horiz-adv-x="830" 
d="M366 787l115 149l110 -49l-131 -100h-94zM99 0v728h113l398 -513v513h121v-728h-103l-408 527v-527h-121z" />
    <glyph glyph-name="nacute" unicode="&#x144;" horiz-adv-x="652" 
d="M281 619l107 168l110 -50l-126 -118h-91zM84 0v548h120v-86q67 97 174 97q92 0 144.5 -57t52.5 -154v-348h-121v312q0 65 -31.5 101t-89.5 36t-93.5 -37.5t-35.5 -101.5v-310h-120z" />
    <glyph glyph-name="Ncommaaccent" unicode="&#x145;" horiz-adv-x="830" 
d="M99 0v728h113l398 -513v513h121v-728h-103l-408 527v-527h-121zM345 -274l-8 40q77 9 72 69h-55v103h120v-88q0 -118 -129 -124z" />
    <glyph glyph-name="ncommaaccent" unicode="&#x146;" horiz-adv-x="652" 
d="M84 0v548h120v-86q67 97 174 97q92 0 144.5 -57t52.5 -154v-348h-121v312q0 65 -31.5 101t-89.5 36t-93.5 -37.5t-35.5 -101.5v-310h-120zM259 -279l-8 40q77 9 72 69h-55v103h120v-88q0 -118 -129 -124z" />
    <glyph glyph-name="Ncaron" unicode="&#x147;" horiz-adv-x="830" 
d="M596 925l-124 -138h-114l-124 138h102l80 -60l80 60h100zM99 0v728h113l398 -513v513h121v-728h-103l-408 527v-527h-121z" />
    <glyph glyph-name="ncaron" unicode="&#x148;" horiz-adv-x="652" 
d="M505 769l-120 -150h-112l-119 150h96l80 -69l80 69h95zM84 0v548h120v-86q67 97 174 97q92 0 144.5 -57t52.5 -154v-348h-121v312q0 65 -31.5 101t-89.5 36t-93.5 -37.5t-35.5 -101.5v-310h-120z" />
    <glyph glyph-name="Omacron" unicode="&#x14c;" horiz-adv-x="892" 
d="M261 812v90h370v-90h-370zM445 -12q-164 0 -271.5 109t-107.5 265v2q0 156 108.5 266t272.5 110t271.5 -109t107.5 -265v-2q0 -156 -108.5 -266t-272.5 -110zM447 101q109 0 179.5 75.5t70.5 185.5v2q0 110 -71.5 186.5t-180.5 76.5t-179.5 -75.5t-70.5 -185.5v-2
q0 -110 71.5 -186.5t180.5 -76.5z" />
    <glyph glyph-name="omacron" unicode="&#x14d;" horiz-adv-x="690" 
d="M170 632v88h350v-88h-350zM344 -12q-124 0 -207 82.5t-83 200.5v2q0 119 84 202.5t208 83.5t207 -82.5t83 -201.5v-2q0 -118 -83.5 -201.5t-208.5 -83.5zM346 93q75 0 122.5 51.5t47.5 126.5v2q0 75 -49 128t-123 53q-75 0 -122.5 -52t-47.5 -127v-2q0 -75 49 -127.5
t123 -52.5z" />
    <glyph glyph-name="Obreve" unicode="&#x14e;" horiz-adv-x="892" 
d="M446 797q-75 0 -123 36t-54 101h86q20 -52 91 -52t91 52h86q-6 -65 -54 -101t-123 -36zM445 -12q-164 0 -271.5 109t-107.5 265v2q0 156 108.5 266t272.5 110t271.5 -109t107.5 -265v-2q0 -156 -108.5 -266t-272.5 -110zM447 101q109 0 179.5 75.5t70.5 185.5v2
q0 110 -71.5 186.5t-180.5 76.5t-179.5 -75.5t-70.5 -185.5v-2q0 -110 71.5 -186.5t180.5 -76.5z" />
    <glyph glyph-name="obreve" unicode="&#x14f;" horiz-adv-x="690" 
d="M345 617q-75 0 -122.5 39t-52.5 109h83q20 -64 92 -64t92 64h84q-6 -70 -53.5 -109t-122.5 -39zM344 -12q-124 0 -207 82.5t-83 200.5v2q0 119 84 202.5t208 83.5t207 -82.5t83 -201.5v-2q0 -118 -83.5 -201.5t-208.5 -83.5zM346 93q75 0 122.5 51.5t47.5 126.5v2
q0 75 -49 128t-123 53q-75 0 -122.5 -52t-47.5 -127v-2q0 -75 49 -127.5t123 -52.5z" />
    <glyph glyph-name="Ohungarumlaut" unicode="&#x150;" horiz-adv-x="892" 
d="M478 799l116 149l106 -49l-131 -100h-91zM299 799l115 149l107 -49l-131 -100h-91zM445 -12q-164 0 -271.5 109t-107.5 265v2q0 156 108.5 266t272.5 110t271.5 -109t107.5 -265v-2q0 -156 -108.5 -266t-272.5 -110zM447 101q109 0 179.5 75.5t70.5 185.5v2
q0 110 -71.5 186.5t-180.5 76.5t-179.5 -75.5t-70.5 -185.5v-2q0 -110 71.5 -186.5t180.5 -76.5z" />
    <glyph glyph-name="ohungarumlaut" unicode="&#x151;" horiz-adv-x="690" 
d="M203 619l106 168l107 -49l-125 -119h-88zM378 619l107 168l107 -49l-126 -119h-88zM344 -12q-124 0 -207 82.5t-83 200.5v2q0 119 84 202.5t208 83.5t207 -82.5t83 -201.5v-2q0 -118 -83.5 -201.5t-208.5 -83.5zM346 93q75 0 122.5 51.5t47.5 126.5v2q0 75 -49 128
t-123 53q-75 0 -122.5 -52t-47.5 -127v-2q0 -75 49 -127.5t123 -52.5z" />
    <glyph glyph-name="OE" unicode="&#x152;" horiz-adv-x="1154" 
d="M453 0q-170 0 -278.5 103.5t-108.5 258.5v2q0 156 108.5 260t278.5 104h633v-110h-393v-196h346v-110h-346v-202h398v-110h-638zM453 111h117v506h-117q-116 0 -187 -70.5t-71 -180.5v-2q0 -110 71.5 -181.5t186.5 -71.5z" />
    <glyph glyph-name="oe" unicode="&#x153;" horiz-adv-x="1090" 
d="M337 -12q-118 0 -200.5 83t-82.5 200v2q0 118 83.5 202t204.5 84q70 0 128 -31.5t94 -85.5q34 54 89.5 85.5t122.5 31.5q124 0 193 -84.5t69 -209.5q0 -10 -2 -34h-406q10 -68 54 -106t107 -38q84 0 152 66l71 -63q-87 -102 -224 -102q-72 0 -131.5 31t-95.5 87
q-37 -55 -96 -86.5t-130 -31.5zM629 311h289q-6 66 -43.5 107.5t-99.5 41.5q-59 0 -98.5 -41t-47.5 -108zM343 93q73 0 119.5 51.5t46.5 126.5v2q0 75 -48.5 128t-120.5 53q-73 0 -119.5 -52.5t-46.5 -126.5v-2q0 -75 48.5 -127.5t120.5 -52.5z" />
    <glyph glyph-name="Racute" unicode="&#x154;" horiz-adv-x="760" 
d="M321 789l115 149l110 -49l-131 -100h-94zM222 366h191q70 0 112 34t42 91v2q0 59 -41 91.5t-114 32.5h-190v-251zM99 0v728h323q135 0 210 -73q59 -59 59 -156v-2q0 -86 -47.5 -141.5t-128.5 -77.5l200 -278h-146l-182 257h-165v-257h-123z" />
    <glyph glyph-name="racute" unicode="&#x155;" horiz-adv-x="436" 
d="M188 619l107 168l110 -50l-126 -118h-91zM84 0v548h120v-126q28 66 78 102.5t120 33.5v-127h-7q-86 0 -138.5 -57t-52.5 -164v-210h-120z" />
    <glyph glyph-name="Rcommaaccent" unicode="&#x156;" horiz-adv-x="760" 
d="M222 366h191q70 0 112 34t42 91v2q0 59 -41 91.5t-114 32.5h-190v-251zM99 0v728h323q135 0 210 -73q59 -59 59 -156v-2q0 -86 -47.5 -141.5t-128.5 -77.5l200 -278h-146l-182 257h-165v-257h-123zM301 -274l-8 40q77 9 72 69h-55v103h120v-88q0 -118 -129 -124z" />
    <glyph glyph-name="rcommaaccent" unicode="&#x157;" horiz-adv-x="436" 
d="M84 0v548h120v-126q28 66 78 102.5t120 33.5v-127h-7q-86 0 -138.5 -57t-52.5 -164v-210h-120zM82 -279l-8 40q76 9 72 69h-55v103h120v-88q0 -118 -129 -124z" />
    <glyph glyph-name="Rcaron" unicode="&#x158;" horiz-adv-x="760" 
d="M551 927l-124 -138h-114l-124 138h102l80 -60l80 60h100zM222 366h191q70 0 112 34t42 91v2q0 59 -41 91.5t-114 32.5h-190v-251zM99 0v728h323q135 0 210 -73q59 -59 59 -156v-2q0 -86 -47.5 -141.5t-128.5 -77.5l200 -278h-146l-182 257h-165v-257h-123z" />
    <glyph glyph-name="rcaron" unicode="&#x159;" horiz-adv-x="436" 
d="M412 769l-120 -150h-112l-119 150h96l80 -69l80 69h95zM84 0v548h120v-126q28 66 78 102.5t120 33.5v-127h-7q-86 0 -138.5 -57t-52.5 -164v-210h-120z" />
    <glyph glyph-name="Sacute" unicode="&#x15a;" horiz-adv-x="674" 
d="M293 799l115 149l110 -49l-131 -100h-94zM353 -10q-174 0 -303 116l74 88q109 -95 232 -95q61 0 97 26t36 69v2q0 42 -34 66.5t-133 47.5q-127 30 -185 76.5t-58 140.5v2q0 92 69.5 150.5t177.5 58.5q152 0 264 -91l-67 -93q-97 75 -199 75q-56 0 -89.5 -25t-33.5 -64v-2
q0 -44 36 -69t141 -49q121 -29 177 -77.5t56 -134.5v-2q0 -100 -71.5 -158t-186.5 -58z" />
    <glyph glyph-name="sacute" unicode="&#x15b;" 
d="M220 619l107 168l110 -50l-126 -118h-91zM271 -10q-130 0 -232 81l55 82q93 -68 181 -68q41 0 64.5 17t23.5 46v2q0 35 -59 58q-14 5 -65 21q-30 9 -49.5 16t-45 20.5t-40.5 29t-26 40t-11 54.5v2q0 76 54.5 121t138.5 45q108 0 201 -62l-48 -86q-86 52 -155 52
q-37 0 -58.5 -16t-21.5 -41v-2q0 -39 114 -76q7 -3 11 -4q37 -12 61.5 -22.5t52.5 -28.5t42.5 -45.5t14.5 -62.5v-2q0 -82 -56.5 -126.5t-146.5 -44.5z" />
    <glyph glyph-name="Scedilla" unicode="&#x15e;" horiz-adv-x="674" 
d="M322 -171l-106 45l81 120q-140 15 -247 112l74 88q109 -95 232 -95q61 0 97 26t36 69v2q0 42 -34 66.5t-133 47.5q-127 30 -185 76.5t-58 140.5v2q0 92 69.5 150.5t177.5 58.5q152 0 264 -91l-67 -93q-97 75 -199 75q-56 0 -89.5 -25t-33.5 -64v-2q0 -44 36 -69t141 -49
q121 -29 177 -77.5t56 -134.5v-2q0 -91 -60 -147.5t-159 -66.5z" />
    <glyph glyph-name="scedilla" unicode="&#x15f;" 
d="M236 -171l-106 45l82 121q-99 16 -173 76l55 82q93 -68 181 -68q41 0 64.5 17t23.5 46v2q0 35 -59 58q-14 5 -65 21q-30 9 -49.5 16t-45 20.5t-40.5 29t-26 40t-11 54.5v2q0 76 54.5 121t138.5 45q108 0 201 -62l-48 -86q-86 52 -155 52q-37 0 -58.5 -16t-21.5 -41v-2
q0 -39 114 -76q7 -3 11 -4q37 -12 61.5 -22.5t52.5 -28.5t42.5 -45.5t14.5 -62.5v-2q0 -74 -46 -117.5t-122 -51.5z" />
    <glyph glyph-name="Scaron" unicode="&#x160;" horiz-adv-x="674" 
d="M523 937l-124 -138h-114l-124 138h102l80 -60l80 60h100zM353 -10q-174 0 -303 116l74 88q109 -95 232 -95q61 0 97 26t36 69v2q0 42 -34 66.5t-133 47.5q-127 30 -185 76.5t-58 140.5v2q0 92 69.5 150.5t177.5 58.5q152 0 264 -91l-67 -93q-97 75 -199 75
q-56 0 -89.5 -25t-33.5 -64v-2q0 -44 36 -69t141 -49q121 -29 177 -77.5t56 -134.5v-2q0 -100 -71.5 -158t-186.5 -58z" />
    <glyph glyph-name="scaron" unicode="&#x161;" 
d="M443 769l-120 -150h-112l-119 150h96l80 -69l80 69h95zM271 -10q-130 0 -232 81l55 82q93 -68 181 -68q41 0 64.5 17t23.5 46v2q0 35 -59 58q-14 5 -65 21q-30 9 -49.5 16t-45 20.5t-40.5 29t-26 40t-11 54.5v2q0 76 54.5 121t138.5 45q108 0 201 -62l-48 -86
q-86 52 -155 52q-37 0 -58.5 -16t-21.5 -41v-2q0 -39 114 -76q7 -3 11 -4q37 -12 61.5 -22.5t52.5 -28.5t42.5 -45.5t14.5 -62.5v-2q0 -82 -56.5 -126.5t-146.5 -44.5z" />
    <glyph glyph-name="Tcommaaccent" unicode="&#x162;" horiz-adv-x="678" 
d="M278 0v615h-233v113h588v-113h-232v-615h-123zM270 -279l-8 40q76 9 72 69h-55v103h120v-88q0 -118 -129 -124z" />
    <glyph glyph-name="tcommaaccent" unicode="&#x163;" horiz-adv-x="434" 
d="M268 -9q-157 0 -157 159v294h-71v104h71v152h120v-152h150v-104h-150v-275q0 -71 70 -71q38 0 78 19v-99q-49 -27 -111 -27zM167 -279l-8 40q77 9 72 69h-55v103h120v-88q0 -118 -129 -124z" />
    <glyph glyph-name="Tcaron" unicode="&#x164;" horiz-adv-x="678" 
d="M520 927l-124 -138h-114l-124 138h102l80 -60l80 60h100zM278 0v615h-233v113h588v-113h-232v-615h-123z" />
    <glyph glyph-name="tcaron" unicode="&#x165;" horiz-adv-x="434" 
d="M308 612l13 195h96v-4l-58 -191h-51zM268 -9q-157 0 -157 159v294h-71v104h71v152h120v-152h150v-104h-150v-275q0 -71 70 -71q38 0 78 19v-99q-49 -27 -111 -27z" />
    <glyph glyph-name="Umacron" unicode="&#x16a;" horiz-adv-x="796" 
d="M213 800v90h370v-90h-370zM396 -11q-144 0 -226.5 82.5t-82.5 237.5v419h123v-415q0 -102 50 -156.5t139 -54.5q88 0 137 52.5t49 153.5v420h123v-414q0 -159 -83.5 -242t-228.5 -83z" />
    <glyph glyph-name="umacron" unicode="&#x16b;" horiz-adv-x="652" 
d="M147 632v88h350v-88h-350zM275 -11q-93 0 -145.5 57t-52.5 154v348h121v-312q0 -65 32 -101t89 -36q58 0 93.5 37.5t35.5 101.5v310h120v-548h-120v86q-67 -97 -173 -97z" />
    <glyph glyph-name="Ubreve" unicode="&#x16c;" horiz-adv-x="796" 
d="M398 778q-75 0 -123 36t-54 101h86q20 -52 91 -52t91 52h86q-6 -65 -54 -101t-123 -36zM396 -11q-144 0 -226.5 82.5t-82.5 237.5v419h123v-415q0 -102 50 -156.5t139 -54.5q88 0 137 52.5t49 153.5v420h123v-414q0 -159 -83.5 -242t-228.5 -83z" />
    <glyph glyph-name="ubreve" unicode="&#x16d;" horiz-adv-x="652" 
d="M322 617q-75 0 -122.5 39t-52.5 109h83q20 -64 92 -64t92 64h84q-6 -70 -53.5 -109t-122.5 -39zM275 -11q-93 0 -145.5 57t-52.5 154v348h121v-312q0 -65 32 -101t89 -36q58 0 93.5 37.5t35.5 101.5v310h120v-548h-120v86q-67 -97 -173 -97z" />
    <glyph glyph-name="Uring" unicode="&#x16e;" horiz-adv-x="796" 
d="M398 765q-50 0 -86 31t-36 78t36 78t86 31t86 -31t36 -78t-36 -78t-86 -31zM398 813q30 0 48.5 17.5t18.5 43.5t-18.5 43t-48.5 17t-48.5 -17t-18.5 -43t18.5 -43.5t48.5 -17.5zM396 -11q-144 0 -226.5 82.5t-82.5 237.5v419h123v-415q0 -102 50 -156.5t139 -54.5
q88 0 137 52.5t49 153.5v420h123v-414q0 -159 -83.5 -242t-228.5 -83z" />
    <glyph glyph-name="uring" unicode="&#x16f;" horiz-adv-x="652" 
d="M322 603q-50 0 -85 33.5t-35 81.5t35 82t85 34t85 -34t35 -82t-35 -81.5t-85 -33.5zM322 648q28 0 49 21t21 49t-21 49t-49 21t-49 -21t-21 -49t21 -49t49 -21zM275 -11q-93 0 -145.5 57t-52.5 154v348h121v-312q0 -65 32 -101t89 -36q58 0 93.5 37.5t35.5 101.5v310h120
v-548h-120v86q-67 -97 -173 -97z" />
    <glyph glyph-name="Uhungarumlaut" unicode="&#x170;" horiz-adv-x="796" 
d="M430 787l116 149l106 -49l-131 -100h-91zM251 787l115 149l107 -49l-131 -100h-91zM396 -11q-144 0 -226.5 82.5t-82.5 237.5v419h123v-415q0 -102 50 -156.5t139 -54.5q88 0 137 52.5t49 153.5v420h123v-414q0 -159 -83.5 -242t-228.5 -83z" />
    <glyph glyph-name="uhungarumlaut" unicode="&#x171;" horiz-adv-x="652" 
d="M180 619l106 168l107 -49l-125 -119h-88zM355 619l107 168l107 -49l-126 -119h-88zM275 -11q-93 0 -145.5 57t-52.5 154v348h121v-312q0 -65 32 -101t89 -36q58 0 93.5 37.5t35.5 101.5v310h120v-548h-120v86q-67 -97 -173 -97z" />
    <glyph glyph-name="Uogonek" unicode="&#x172;" horiz-adv-x="796" 
d="M479 -112v-59q-22 -2 -31 -2q-65 1 -100.5 25t-35.5 63q0 38 34 77q-122 14 -190.5 95t-68.5 222v419h123v-415q0 -102 50 -156.5t139 -54.5q88 0 137 52.5t49 153.5v420h123v-414q0 -149 -73.5 -231.5t-203.5 -91.5q-27 -28 -27 -58q0 -45 75 -45z" />
    <glyph glyph-name="uogonek" unicode="&#x173;" horiz-adv-x="652" 
d="M275 -11q-93 0 -145.5 57t-52.5 154v348h121v-312q0 -65 32 -101t89 -36q58 0 93.5 37.5t35.5 101.5v310h120v-548h-25q-36 -35 -36 -67q0 -45 75 -45v-59q-22 -2 -31 -2q-65 1 -100.5 25t-35.5 63q0 41 42 85h-9v86q-67 -97 -173 -97z" />
    <glyph glyph-name="Wcircumflex" unicode="&#x174;" horiz-adv-x="1168" 
d="M403 789l124 138h114l124 -138h-102l-80 60l-80 -60h-100zM297 -5l-255 733h133l178 -547l181 549h104l181 -549l178 547h128l-254 -733h-106l-181 531l-182 -531h-105z" />
    <glyph glyph-name="wcircumflex" unicode="&#x175;" horiz-adv-x="903" 
d="M276 619l119 150h112l120 -150h-97l-80 69l-80 -69h-94zM218 -4l-180 552h124l114 -383l125 385h102l125 -385l116 383h121l-181 -552h-107l-125 381l-127 -381h-107z" />
    <glyph glyph-name="Ycircumflex" unicode="&#x176;" horiz-adv-x="753" 
d="M195 787l124 138h114l124 -138h-102l-80 60l-80 -60h-100zM315 0v287l-291 441h145l208 -327l211 327h141l-291 -438v-290h-123z" />
    <glyph glyph-name="ycircumflex" unicode="&#x177;" horiz-adv-x="628" 
d="M140 619l119 150h112l120 -150h-97l-80 69l-80 -69h-94zM321 135l146 413h126l-219 -563q-33 -85 -74 -120t-107 -35q-67 0 -128 33l41 91q39 -22 75 -22q28 0 46.5 15t35.5 53l-231 548h129z" />
    <glyph glyph-name="Ydieresis" unicode="&#x178;" horiz-adv-x="753" 
d="M208 787v113h126v-113h-126zM420 787v113h125v-113h-125zM315 0v287l-291 441h145l208 -327l211 327h141l-291 -438v-290h-123z" />
    <glyph glyph-name="Zacute" unicode="&#x179;" horiz-adv-x="737" 
d="M327 789l115 149l110 -49l-131 -100h-94zM71 0v90l435 530h-420v108h581v-90l-435 -530h435v-108h-596z" />
    <glyph glyph-name="zacute" unicode="&#x17a;" horiz-adv-x="590" 
d="M250 619l107 168l110 -50l-126 -118h-91zM59 0v83l321 366h-310v99h464v-83l-321 -366h321v-99h-475z" />
    <glyph glyph-name="Zdotaccent" unicode="&#x17b;" horiz-adv-x="737" 
d="M311 789v113h130v-113h-130zM71 0v90l435 530h-420v108h581v-90l-435 -530h435v-108h-596z" />
    <glyph glyph-name="zdotaccent" unicode="&#x17c;" horiz-adv-x="590" 
d="M234 619v121h128v-121h-128zM59 0v83l321 366h-310v99h464v-83l-321 -366h321v-99h-475z" />
    <glyph glyph-name="Zcaron" unicode="&#x17d;" horiz-adv-x="737" 
d="M557 927l-124 -138h-114l-124 138h102l80 -60l80 60h100zM71 0v90l435 530h-420v108h581v-90l-435 -530h435v-108h-596z" />
    <glyph glyph-name="zcaron" unicode="&#x17e;" horiz-adv-x="590" 
d="M474 769l-120 -150h-112l-119 150h96l80 -69l80 69h95zM59 0v83l321 366h-310v99h464v-83l-321 -366h321v-99h-475z" />
    <glyph glyph-name="uni018F" unicode="&#x18f;" horiz-adv-x="837" 
d="M98 603q117 137 307 137q159 0 262 -105t103 -269v-3q0 -158 -101 -266.5t-255 -108.5q-165 0 -256.5 111t-91.5 276v1q0 11 2 43h570q-14 96 -77 152t-156 56q-129 0 -228 -103zM414 99q91 0 151.5 59t73.5 155h-442q9 -95 67.5 -154.5t149.5 -59.5z" />
    <glyph glyph-name="florin" unicode="&#x192;" horiz-adv-x="555" 
d="M104 -5q-36 0 -57 5v99q19 -4 41 -4q65 0 78 71l36 206h-85v101h103l19 100q15 81 57.5 120.5t122.5 39.5q55 0 94 -12v-101q-46 11 -71 11q-72 0 -86 -82l-13 -76h134v-101h-152l-41 -223q-15 -82 -58 -118t-122 -36z" />
    <glyph glyph-name="Aringacute" unicode="&#x1fa;" horiz-adv-x="830" 
d="M360 914l120 132l109 -48l-134 -84h-95zM415 715q29 0 48 17.5t19 43.5t-19 43t-48 17q-30 0 -49 -17t-19 -43t19 -43.5t49 -17.5zM283 287h260l-130 300zM36 0l302 690q-46 31 -46 86q0 47 36 78t87 31q50 0 86 -31t36 -78q0 -53 -46 -86l302 -690h-129l-76 177h-350
l-76 -177h-126z" />
    <glyph glyph-name="aringacute" unicode="&#x1fb;" horiz-adv-x="617" 
d="M261 881l113 142l108 -50l-130 -92h-91zM310 617q-50 0 -85 33.5t-35 81.5t35 82t85 34t85 -34t35 -82t-35 -81.5t-85 -33.5zM310 662q28 0 49 21t21 49t-21 49t-49 21t-49 -21t-21 -49t21 -49t49 -21zM275 77q65 0 108 33.5t43 86.5v40q-61 22 -129 22q-62 0 -97 -25
t-35 -69v-2q0 -40 31.5 -63t78.5 -23zM243 -11q-82 0 -139 45t-57 124v2q0 86 61.5 131t165.5 45q79 0 150 -23v14q0 60 -35.5 91.5t-103.5 31.5q-77 0 -158 -34l-32 94q100 45 206 45q120 0 181 -61q58 -57 58 -168v-326h-117v70q-67 -81 -180 -81z" />
    <glyph glyph-name="AEacute" unicode="&#x1fc;" horiz-adv-x="1095" 
d="M602 789l115 149l110 -49l-131 -100h-94zM302 287h209v334h-22zM17 0l410 728h600v-110h-394v-196h347v-110h-347v-202h399v-110h-521v177h-268l-99 -177h-127z" />
    <glyph glyph-name="aeacute" unicode="&#x1fd;" horiz-adv-x="998" 
d="M448 619l107 168l110 -50l-126 -118h-91zM536 311h290q-6 66 -43.5 107.5t-99.5 41.5q-59 0 -98.5 -41t-48.5 -108zM253 -11q-88 0 -147 45t-59 124v2q0 86 61 131t164 45q76 0 147 -23v14q0 60 -35 91.5t-101 31.5q-75 0 -156 -34l-32 94q100 45 204 45q143 0 193 -93
q71 97 195 97q122 0 190.5 -84.5t68.5 -209.5q0 -10 -2 -34h-406q10 -68 54 -106t107 -38q84 0 152 66l71 -63q-87 -102 -225 -102q-134 0 -213 95q-106 -94 -231 -94zM273 78q89 0 167 73q-17 41 -21 87q-63 21 -123 21q-62 0 -96.5 -25t-34.5 -69v-2q0 -39 31 -62t77 -23z
" />
    <glyph glyph-name="Oslashacute" unicode="&#x1fe;" horiz-adv-x="892" 
d="M397 799l115 149l110 -49l-131 -100h-94zM713 733h121l-103 -116q95 -106 95 -251v-2q0 -156 -108.5 -266t-272.5 -110q-121 0 -215 62l-51 -55h-121l102 116q-94 103 -94 251v2q0 156 108.5 266t272.5 110q121 0 215 -63zM193 365q0 -92 50 -162l342 385q-65 42 -140 42
q-109 0 -180.5 -76.5t-71.5 -187.5v-1zM447 98q109 0 181 77t72 187v1q0 90 -51 162l-342 -385q61 -42 140 -42z" />
    <glyph glyph-name="oslashacute" unicode="&#x1ff;" horiz-adv-x="690" 
d="M297 619l107 168l110 -50l-126 -118h-91zM541 554h111l-84 -94q68 -77 68 -185v-2q0 -118 -83.5 -201.5t-208.5 -83.5q-89 0 -160 44l-35 -37h-111l83 92q-67 78 -67 184v2q0 119 84 202.5t208 83.5q87 0 159 -45zM171 274q0 -57 28 -102l235 259q-42 26 -90 26
q-77 0 -125 -53t-48 -129v-1zM346 90q77 0 125 52.5t48 128.5v2q0 56 -29 102l-234 -261q42 -24 90 -24z" />
    <glyph glyph-name="Scommaaccent" unicode="&#x218;" horiz-adv-x="674" 
d="M353 -10q-174 0 -303 116l74 88q109 -95 232 -95q61 0 97 26t36 69v2q0 42 -34 66.5t-133 47.5q-127 30 -185 76.5t-58 140.5v2q0 92 69.5 150.5t177.5 58.5q152 0 264 -91l-67 -93q-97 75 -199 75q-56 0 -89.5 -25t-33.5 -64v-2q0 -44 36 -69t141 -49q121 -29 177 -77.5
t56 -134.5v-2q0 -100 -71.5 -158t-186.5 -58zM273 -282l-8 40q77 9 72 69h-55v103h120v-88q0 -118 -129 -124z" />
    <glyph glyph-name="scommaaccent" unicode="&#x219;" 
d="M271 -10q-130 0 -232 81l55 82q93 -68 181 -68q41 0 64.5 17t23.5 46v2q0 35 -59 58q-14 5 -65 21q-30 9 -49.5 16t-45 20.5t-40.5 29t-26 40t-11 54.5v2q0 76 54.5 121t138.5 45q108 0 201 -62l-48 -86q-86 52 -155 52q-37 0 -58.5 -16t-21.5 -41v-2q0 -39 114 -76
q7 -3 11 -4q37 -12 61.5 -22.5t52.5 -28.5t42.5 -45.5t14.5 -62.5v-2q0 -82 -56.5 -126.5t-146.5 -44.5zM198 -279l-8 40q76 9 72 69h-55v103h120v-88q0 -118 -129 -124z" />
    <glyph glyph-name="schwa" unicode="&#x259;" horiz-adv-x="635" 
d="M301 560q120 0 200 -79.5t80 -204.5v-2q0 -119 -76 -202t-191 -83q-124 0 -192.5 84.5t-68.5 209.5q0 22 1 34h406q-10 68 -54 106t-107 38q-85 0 -151 -66l-72 63q87 102 225 102zM462 237h-290q7 -66 44 -107.5t99 -41.5q59 0 98.5 41t48.5 108z" />
    <glyph glyph-name="circumflex" unicode="&#x2c6;" 
d="M89 619l119 150h112l120 -150h-97l-80 69l-80 -69h-94z" />
    <glyph glyph-name="caron" unicode="&#x2c7;" 
d="M440 769l-120 -150h-112l-119 150h96l80 -69l80 69h95z" />
    <glyph glyph-name="breve" unicode="&#x2d8;" 
d="M264 617q-75 0 -122.5 39t-52.5 109h83q20 -64 92 -64t92 64h84q-6 -70 -53.5 -109t-122.5 -39z" />
    <glyph glyph-name="dotaccent" unicode="&#x2d9;" 
d="M200 619v121h128v-121h-128z" />
    <glyph glyph-name="ring" unicode="&#x2da;" 
d="M264 617q-50 0 -85 33.5t-35 81.5t35 82t85 34t85 -34t35 -82t-35 -81.5t-85 -33.5zM264 662q28 0 49 21t21 49t-21 49t-49 21t-49 -21t-21 -49t21 -49t49 -21z" />
    <glyph glyph-name="ogonek" unicode="&#x2db;" 
d="M362 -112v-59q-22 -2 -31 -2q-65 1 -100.5 25t-35.5 63q0 45 55 98l81 -6q-44 -40 -44 -74q0 -45 75 -45z" />
    <glyph glyph-name="tilde" unicode="&#x2dc;" 
d="M343 619q-33 0 -85 22q-46 19 -63 19q-21 0 -33 -11.5t-24 -39.5l-67 20q17 65 43 96t71 31q33 0 85 -22q46 -19 63 -19q21 0 33 11.5t24 39.5l67 -20q-17 -65 -43 -96t-71 -31z" />
    <glyph glyph-name="hungarumlaut" unicode="&#x2dd;" 
d="M73 619l106 168l107 -49l-125 -119h-88zM248 619l107 168l107 -49l-126 -119h-88z" />
    <glyph glyph-name="commaaccent" unicode="&#x326;" 
d="M195 -279l-8 40q77 9 72 69h-55v103h120v-88q0 -118 -129 -124z" />
    <glyph glyph-name="uni0384" unicode="&#x384;" 
d="M188 619l71 175l108 -47l-99 -128h-80z" />
    <glyph glyph-name="uni0385" unicode="&#x385;" 
d="M204 619l44 198l105 -23l-80 -175h-69zM61 619v119h111v-119h-111zM356 619v119h111v-119h-111z" />
    <glyph glyph-name="uni0386" unicode="&#x386;" horiz-adv-x="830" 
d="M70 526l14 202h121l-71 -202h-64zM283 287h260l-130 300zM36 0l322 733h114l321 -733h-129l-76 177h-350l-76 -177h-126z" />
    <glyph glyph-name="uni0387" unicode="&#x387;" horiz-adv-x="295" 
d="M81 409v139h133v-139h-133z" />
    <glyph glyph-name="uni0388" unicode="&#x388;" horiz-adv-x="705" 
d="M99 0v728h538v-110h-416v-196h369v-110h-369v-202h421v-110h-543zM-84 526l14 202h121l-71 -202h-64z" />
    <glyph glyph-name="uni0389" unicode="&#x389;" horiz-adv-x="798" 
d="M-84 526l14 202h121l-71 -202h-64zM99 0v728h123v-305h355v305h123v-728h-123v309h-355v-309h-123z" />
    <glyph glyph-name="uni038A" unicode="&#x38a;" horiz-adv-x="335" 
d="M-81 526l14 202h121l-71 -202h-64zM106 0v728h123v-728h-123z" />
    <glyph glyph-name="uni038C" unicode="&#x38c;" horiz-adv-x="892" 
d="M445 -12q-164 0 -271.5 109t-107.5 265v2q0 156 108.5 266t272.5 110t271.5 -109t107.5 -265v-2q0 -156 -108.5 -266t-272.5 -110zM-52 526l14 202h121l-71 -202h-64zM447 101q109 0 179.5 75.5t70.5 185.5v2q0 110 -71.5 186.5t-180.5 76.5t-179.5 -75.5t-70.5 -185.5
v-2q0 -110 71.5 -186.5t180.5 -76.5z" />
    <glyph glyph-name="uni038E" unicode="&#x38e;" horiz-adv-x="753" 
d="M-135 526l14 202h121l-71 -202h-64zM315 0v287l-291 441h145l208 -327l211 327h141l-291 -438v-290h-123z" />
    <glyph glyph-name="uni038F" unicode="&#x38f;" horiz-adv-x="912" 
d="M-50 526l14 202h121l-71 -202h-64zM457 740q168 0 268.5 -96t100.5 -244v-1q0 -172 -168 -294l188 1v-106h-317v103q82 56 125 121t43 162v1q0 107 -66 174t-176 66q-109 0 -174.5 -66t-65.5 -172v-1q0 -94 43 -161t125 -124v-103h-317v106l187 -1q-167 124 -167 295v1
q0 69 26 130.5t72.5 108t117.5 73.5t155 27z" />
    <glyph glyph-name="uni0390" unicode="&#x390;" horiz-adv-x="327" 
d="M90 619l44 198l105 -23l-80 -175h-69zM-53 619v119h111v-119h-111zM242 619v119h111v-119h-111zM82 156v392h120v-387q0 -67 62 -67q23 0 36 4v-96q-34 -9 -73 -9q-74 0 -109.5 39t-35.5 124z" />
    <glyph glyph-name="uni0391" unicode="&#x391;" horiz-adv-x="830" 
d="M283 287h260l-130 300zM36 0l322 733h114l321 -733h-129l-76 177h-350l-76 -177h-126z" />
    <glyph glyph-name="uni0392" unicode="&#x392;" horiz-adv-x="759" 
d="M99 0v728h325q125 0 189 -64q49 -49 49 -121v-2q0 -109 -105 -163q70 -24 108 -65.5t38 -111.5v-2q0 -95 -72.5 -147t-196.5 -52h-335zM540 522v2q0 45 -34.5 70t-97.5 25h-189v-200h180q65 0 103 26.5t38 76.5zM580 214q0 48 -39 74.5t-115 26.5h-207v-206h216
q68 0 106.5 26.5t38.5 76.5v2z" />
    <glyph glyph-name="uni0393" unicode="&#x393;" horiz-adv-x="650" 
d="M99 0v728h508v-112h-385v-616h-123z" />
    <glyph glyph-name="uni0394" unicode="&#x394;" horiz-adv-x="827" 
d="M62 0l-10 89l298 644h127l298 -644l-10 -89h-703zM412 597l-221 -488h440z" />
    <glyph glyph-name="uni0395" unicode="&#x395;" horiz-adv-x="705" 
d="M99 0v728h538v-110h-416v-196h369v-110h-369v-202h421v-110h-543z" />
    <glyph glyph-name="uni0396" unicode="&#x396;" horiz-adv-x="737" 
d="M71 0v90l435 530h-420v108h581v-90l-435 -530h435v-108h-596z" />
    <glyph glyph-name="uni0397" unicode="&#x397;" horiz-adv-x="798" 
d="M99 0v728h123v-305h355v305h123v-728h-123v309h-355v-309h-123z" />
    <glyph glyph-name="uni0398" unicode="&#x398;" horiz-adv-x="892" 
d="M445 -12q-164 0 -271.5 109t-107.5 265v2q0 156 108.5 266t272.5 110t271.5 -109t107.5 -265v-2q0 -156 -108.5 -266t-272.5 -110zM447 99q112 0 182.5 75t70.5 188v2q0 113 -71.5 189t-183.5 76t-182.5 -75t-70.5 -188v-2q0 -113 71.5 -189t183.5 -76zM610 423v-113
h-328v113h328z" />
    <glyph glyph-name="uni0399" unicode="&#x399;" horiz-adv-x="335" 
d="M106 0v728h123v-728h-123z" />
    <glyph glyph-name="uni039A" unicode="&#x39a;" horiz-adv-x="762" 
d="M99 0v728h123v-374l353 374h153l-304 -313l317 -415h-150l-251 330l-118 -121v-209h-123z" />
    <glyph glyph-name="uni039B" unicode="&#x39b;" horiz-adv-x="810" 
d="M459 733l314 -733h-136l-235 564l-234 -564h-132l314 733h109z" />
    <glyph glyph-name="uni039C" unicode="&#x39c;" horiz-adv-x="911" 
d="M99 0v728h130l226 -351l227 351h130v-728h-122v530l-234 -349h-4l-233 347v-528h-120z" />
    <glyph glyph-name="uni039D" unicode="&#x39d;" horiz-adv-x="830" 
d="M99 0v728h113l398 -513v513h121v-728h-103l-408 527v-527h-121z" />
    <glyph glyph-name="uni039E" unicode="&#x39e;" horiz-adv-x="698" 
d="M630 616h-562v112h562v-112zM603 311h-508v112h508v-112zM635 0h-572v112h572v-112z" />
    <glyph glyph-name="uni039F" unicode="&#x39f;" horiz-adv-x="892" 
d="M445 -12q-164 0 -271.5 109t-107.5 265v2q0 156 108.5 266t272.5 110t271.5 -109t107.5 -265v-2q0 -156 -108.5 -266t-272.5 -110zM447 101q109 0 179.5 75.5t70.5 185.5v2q0 110 -71.5 186.5t-180.5 76.5t-179.5 -75.5t-70.5 -185.5v-2q0 -110 71.5 -186.5t180.5 -76.5z
" />
    <glyph glyph-name="uni03A0" unicode="&#x3a0;" horiz-adv-x="795" 
d="M99 0v728h597v-728h-123v616h-351v-616h-123z" />
    <glyph glyph-name="uni03A1" unicode="&#x3a1;" horiz-adv-x="703" 
d="M99 0v728h285q126 0 201 -66t75 -175v-3q0 -118 -82.5 -182.5t-207.5 -64.5h-148v-237h-123zM222 347h152q73 0 117.5 37.5t44.5 96.5v2q0 64 -43.5 99t-118.5 35h-152v-270z" />
    <glyph glyph-name="uni03A3" unicode="&#x3a3;" horiz-adv-x="720" 
d="M500 364l-254 -255h414v-109h-587v91l270 273l-268 273v91h579v-109h-406z" />
    <glyph glyph-name="uni03A4" unicode="&#x3a4;" horiz-adv-x="678" 
d="M278 0v615h-233v113h588v-113h-232v-615h-123z" />
    <glyph glyph-name="uni03A5" unicode="&#x3a5;" horiz-adv-x="753" 
d="M315 0v287l-291 441h145l208 -327l211 327h141l-291 -438v-290h-123z" />
    <glyph glyph-name="uni03A6" unicode="&#x3a6;" horiz-adv-x="993" 
d="M435 -11v80q-177 3 -277 84t-100 213v1q0 129 100 211.5t277 85.5v75h123v-75q176 -3 276.5 -84t100.5 -213v-1q0 -130 -100.5 -212.5t-276.5 -84.5v-80h-123zM807 367q0 84 -64 136t-187 53v-379q123 1 187 52.5t64 136.5v1zM186 365q0 -84 64 -135.5t187 -52.5v379
q-123 -1 -187 -52.5t-64 -137.5v-1z" />
    <glyph glyph-name="uni03A7" unicode="&#x3a7;" horiz-adv-x="766" 
d="M571 728h141l-256 -356l266 -372h-144l-197 282l-197 -282h-140l265 370l-255 358h144l186 -267z" />
    <glyph glyph-name="uni03A8" unicode="&#x3a8;" horiz-adv-x="897" 
d="M820 728v-256q0 -152 -81.5 -228t-229.5 -81v-163h-121v163q-149 4 -230 79.5t-81 225.5v260h122v-257q0 -101 47 -147t143 -48v452h119v-452q95 2 142.5 47.5t47.5 143.5v261h122z" />
    <glyph glyph-name="uni03A9" unicode="&#x3a9;" horiz-adv-x="912" 
d="M457 740q168 0 268.5 -96t100.5 -244v-1q0 -172 -168 -294l188 1v-106h-317v103q82 56 125 121t43 162v1q0 107 -66 174t-176 66q-109 0 -174.5 -66t-65.5 -172v-1q0 -94 43 -161t125 -124v-103h-317v106l187 -1q-167 124 -167 295v1q0 69 26 130.5t72.5 108t117.5 73.5
t155 27z" />
    <glyph glyph-name="uni03AA" unicode="&#x3aa;" horiz-adv-x="335" 
d="M-1 789v113h126v-113h-126zM211 789v113h125v-113h-125zM106 0v728h123v-728h-123z" />
    <glyph glyph-name="uni03AB" unicode="&#x3ab;" horiz-adv-x="753" 
d="M208 787v113h126v-113h-126zM420 787v113h125v-113h-125zM315 0v287l-291 441h145l208 -327l211 327h141l-291 -438v-290h-123z" />
    <glyph glyph-name="uni03AC" unicode="&#x3ac;" horiz-adv-x="745" 
d="M332 619l71 175l108 -47l-99 -128h-80zM339 93q67 0 115.5 50.5t48.5 129.5v2q0 79 -48.5 129.5t-115.5 50.5q-68 0 -114.5 -49.5t-46.5 -130.5v-2q0 -80 47 -130t114 -50zM718 98v-96q-32 -9 -71 -9q-111 0 -136 94q-75 -98 -195 -98q-106 0 -183 76.5t-77 207.5v2
q0 130 75.5 207t179.5 77q115 0 189 -98v87h121v-394q3 -60 61 -60q24 0 36 4z" />
    <glyph glyph-name="uni03AD" unicode="&#x3ad;" horiz-adv-x="594" 
d="M263 619l71 175l108 -47l-99 -128h-80zM416 231h-120q-59 0 -89.5 -19t-30.5 -50v-1q0 -34 33.5 -54t96.5 -20q101 0 195 59l51 -81q-111 -76 -250 -76q-118 0 -181 43.5t-63 116.5v1q0 91 105 127q-91 39 -91 121v2q0 69 62 113.5t173 44.5q135 0 239 -75l-60 -83
q-82 60 -175 60q-58 0 -89.5 -20t-31.5 -51v-1q0 -67 105 -67h121v-90z" />
    <glyph glyph-name="uni03AE" unicode="&#x3ae;" horiz-adv-x="652" 
d="M288 619l71 175l108 -47l-99 -128h-80zM575 -166h-121v478q0 65 -31.5 101t-89.5 36t-93.5 -37.5t-35.5 -101.5v-310h-120v548h120v-86q67 97 174 97q92 0 144.5 -57t52.5 -154v-514z" />
    <glyph glyph-name="uni03AF" unicode="&#x3af;" horiz-adv-x="327" 
d="M104 619l71 175l108 -47l-99 -128h-80zM82 156v392h120v-387q0 -67 62 -67q23 0 36 4v-96q-34 -9 -73 -9q-74 0 -109.5 39t-35.5 124z" />
    <glyph glyph-name="uni03B0" unicode="&#x3b0;" horiz-adv-x="655" 
d="M267 619l44 198l105 -23l-80 -175h-69zM124 619v119h111v-119h-111zM419 619v119h111v-119h-111zM326 -12q-116 0 -182.5 62.5t-66.5 180.5v317h120v-312q0 -70 33.5 -107t97.5 -37q63 0 96 36t33 105v315h121v-314q0 -120 -67.5 -183t-184.5 -63z" />
    <glyph glyph-name="uni03B1" unicode="&#x3b1;" horiz-adv-x="745" 
d="M339 93q67 0 115.5 50.5t48.5 129.5v2q0 79 -48.5 129.5t-115.5 50.5q-68 0 -114.5 -49.5t-46.5 -130.5v-2q0 -80 47 -130t114 -50zM718 98v-96q-32 -9 -71 -9q-111 0 -136 94q-75 -98 -195 -98q-106 0 -183 76.5t-77 207.5v2q0 130 75.5 207t179.5 77q115 0 189 -98v87
h121v-394q3 -60 61 -60q24 0 36 4z" />
    <glyph glyph-name="uni03B2" unicode="&#x3b2;" horiz-adv-x="691" 
d="M203 497v-78h99q87 0 135.5 35t48.5 97q0 50 -35.5 82t-95.5 32q-71 0 -111.5 -45t-40.5 -123zM303 331h-100v-44q0 -95 49 -145.5t129 -50.5q62 0 97.5 31.5t35.5 79.5q0 129 -211 129zM204 -166h-120v663q0 126 72 197.5t199 71.5q119 0 185 -57t66 -148v-1
q0 -69 -38 -116t-108 -65q85 -20 130 -64t45 -124v-1q0 -87 -60.5 -144.5t-164.5 -56.5q-69 0 -122 27t-84 71v-253z" />
    <glyph glyph-name="uni03B3" unicode="&#x3b3;" horiz-adv-x="625" 
d="M593 548l-220 -531v-183h-121v186l-220 528h131l150 -401l153 401h127z" />
    <glyph glyph-name="uni03B4" unicode="&#x3b4;" horiz-adv-x="674" 
d="M550 659l-262 3l143 -109q99 -74 143.5 -139.5t44.5 -152.5q0 -116 -79 -194.5t-208 -78.5q-124 0 -201 77t-77 189q0 101 51.5 165.5t169.5 123.5l-149 126v90h424v-100zM358 475h-1q-102 -52 -144 -103t-41 -117q0 -70 45 -117.5t118 -47.5t119 48t46 117
q0 57 -30.5 104t-111.5 116z" />
    <glyph glyph-name="uni03B5" unicode="&#x3b5;" horiz-adv-x="594" 
d="M416 231h-120q-59 0 -89.5 -19t-30.5 -50v-1q0 -34 33.5 -54t96.5 -20q101 0 195 59l51 -81q-111 -76 -250 -76q-118 0 -181 43.5t-63 116.5v1q0 91 105 127q-91 39 -91 121v2q0 69 62 113.5t173 44.5q135 0 239 -75l-60 -83q-82 60 -175 60q-58 0 -89.5 -20t-31.5 -51
v-1q0 -67 105 -67h121v-90z" />
    <glyph glyph-name="uni03B6" unicode="&#x3b6;" horiz-adv-x="578" 
d="M419 -133v120l-112 14q-254 32 -254 211q0 64 29 116t105 131l193 199h-286v101h440v-93l-266 -281q-55 -57 -75 -90t-20 -71q0 -96 156 -116l203 -27v-214h-113z" />
    <glyph glyph-name="uni03B7" unicode="&#x3b7;" horiz-adv-x="652" 
d="M575 -166h-121v478q0 65 -31.5 101t-89.5 36t-93.5 -37.5t-35.5 -101.5v-310h-120v548h120v-86q67 97 174 97q92 0 144.5 -57t52.5 -154v-514z" />
    <glyph glyph-name="uni03B8" unicode="&#x3b8;" horiz-adv-x="703" 
d="M351 -12q-130 0 -208.5 104.5t-78.5 270.5v26q0 165 79 270.5t210 105.5q130 0 208.5 -105t78.5 -271v-26q0 -165 -79.5 -270t-209.5 -105zM351 662q-76 0 -121.5 -64.5t-48.5 -170.5h340q-4 106 -50 170.5t-120 64.5zM352 90q76 0 121.5 65t48.5 173h-341
q3 -107 49.5 -172.5t121.5 -65.5z" />
    <glyph glyph-name="uni03B9" unicode="&#x3b9;" horiz-adv-x="327" 
d="M82 156v392h120v-387q0 -67 62 -67q23 0 36 4v-96q-34 -9 -73 -9q-74 0 -109.5 39t-35.5 124z" />
    <glyph glyph-name="uni03BA" unicode="&#x3ba;" horiz-adv-x="612" 
d="M204 548v-269l237 269h149l-218 -234l222 -314h-142l-161 230l-87 -93v-137h-120v548h120z" />
    <glyph glyph-name="uni03BB" unicode="&#x3bb;" horiz-adv-x="640" 
d="M103 648v101q42 16 88 16q68 0 104 -32.5t69 -115.5l245 -617h-129l-157 413l-162 -413h-127l233 550l-12 32q-18 43 -37 61t-51 18q-33 0 -64 -13z" />
    <glyph glyph-name="uni03BC" unicode="&#x3bc;" horiz-adv-x="702" 
d="M675 98v-96q-32 -9 -70 -9q-104 0 -131 79q-52 -80 -140 -80q-47 0 -86 22.5t-59 65.5h-2q15 -86 15 -127v-119h-118v714h120v-312q0 -64 34.5 -102.5t91.5 -38.5t92.5 38.5t35.5 102.5v312h120v-394q3 -60 62 -60q23 0 35 4z" />
    <glyph glyph-name="uni03BD" unicode="&#x3bd;" horiz-adv-x="625" 
d="M258 -4l-226 552h130l151 -408l153 408h127l-226 -552h-109z" />
    <glyph glyph-name="uni03BE" unicode="&#x3be;" horiz-adv-x="583" 
d="M564 687l-62 -93q-79 67 -163 67q-59 0 -94.5 -31.5t-35.5 -83.5q0 -56 43.5 -87.5t114.5 -31.5h92v-100h-115q-79 0 -124 -30t-45 -80q0 -51 40.5 -76.5t118.5 -35.5l198 -25v-213h-113v120l-111 14q-122 14 -188 61t-66 140q0 134 155 180q-121 51 -121 174
q0 89 68.5 149.5t183.5 60.5q124 0 224 -79z" />
    <glyph glyph-name="uni03BF" unicode="&#x3bf;" horiz-adv-x="690" 
d="M344 -12q-124 0 -207 82.5t-83 200.5v2q0 119 84 202.5t208 83.5t207 -82.5t83 -201.5v-2q0 -118 -83.5 -201.5t-208.5 -83.5zM346 93q75 0 122.5 51.5t47.5 126.5v2q0 75 -49 128t-123 53q-75 0 -122.5 -52t-47.5 -127v-2q0 -75 49 -127.5t123 -52.5z" />
    <glyph glyph-name="uni03C0" unicode="&#x3c0;" horiz-adv-x="736" 
d="M31 548h656v-108h-96v-279q0 -67 61 -67q24 0 36 4v-96q-32 -9 -72 -9q-74 0 -110 39t-36 124v284h-222v-440h-121v440h-96v108z" />
    <glyph glyph-name="uni03C1" unicode="&#x3c1;" horiz-adv-x="694" 
d="M355 93q68 0 114.5 49.5t46.5 130.5v2q0 80 -46.5 130t-113.5 50q-69 0 -116 -50t-47 -130v-2q0 -79 47.5 -129.5t114.5 -50.5zM73 -166v429q0 132 77.5 214t205.5 82q122 0 202 -80.5t80 -203.5v-2q0 -127 -76 -205.5t-176 -78.5q-122 0 -192 100v-255h-121z" />
    <glyph glyph-name="uni03C2" unicode="&#x3c2;" horiz-adv-x="604" 
d="M422 -133v122l-77 9q-141 19 -216 91t-75 194v1q0 114 78.5 195t202.5 80q76 0 128 -25.5t95 -73.5l-78 -83q-65 77 -147 77q-69 0 -114 -49t-45 -119v-1q0 -157 201 -182l160 -21v-215h-113z" />
    <glyph glyph-name="uni03C3" unicode="&#x3c3;" horiz-adv-x="721" 
d="M687 444l-159 1q102 -66 102 -187v-1q0 -113 -82.5 -191.5t-206.5 -77.5q-124 0 -205.5 80t-81.5 197v1q0 119 84 200.5t219 81.5h330v-104zM344 93q75 0 121 48.5t46 122.5v1q0 76 -47 127t-123 51q-75 0 -121 -50.5t-46 -125.5v-1q0 -74 48 -123.5t122 -49.5z" />
    <glyph glyph-name="uni03C4" unicode="&#x3c4;" horiz-adv-x="598" 
d="M555 440h-206v-258q0 -49 20.5 -69t63.5 -20q34 0 71 11v-97q-47 -15 -98 -15q-93 0 -135 42t-42 142v264h-196v108h522v-108z" />
    <glyph glyph-name="uni03C5" unicode="&#x3c5;" horiz-adv-x="655" 
d="M326 -12q-116 0 -182.5 62.5t-66.5 180.5v317h120v-312q0 -70 33.5 -107t97.5 -37q63 0 96 36t33 105v315h121v-314q0 -120 -67.5 -183t-184.5 -63z" />
    <glyph glyph-name="uni03C6" unicode="&#x3c6;" horiz-adv-x="882" 
d="M501 -166h-120v164q-154 4 -241 80.5t-87 194.5v1q0 117 87 194t241 81v210h120v-209q154 -5 241 -81.5t87 -193.5v-1q0 -117 -87.5 -194t-240.5 -81v-165zM172 274q0 -76 55 -124t156 -50v348q-103 -3 -157 -50t-54 -123v-1zM710 274q0 76 -55 124t-156 50v-348
q103 2 157 49t54 124v1z" />
    <glyph glyph-name="uni03C7" unicode="&#x3c7;" horiz-adv-x="638" 
d="M172 548l148 -251l149 251h132l-214 -338l238 -376h-135l-173 286l-172 -286h-133l238 374l-214 340h136z" />
    <glyph glyph-name="uni03C8" unicode="&#x3c8;" horiz-adv-x="861" 
d="M490 -166h-119v164q-139 2 -217 73t-78 201v276h120v-273q0 -79 46.5 -125t128.5 -48v657h118v-657q82 1 129 47t47 125v274h119v-272q0 -132 -78 -204t-216 -74v-164z" />
    <glyph glyph-name="uni03C9" unicode="&#x3c9;" horiz-adv-x="924" 
d="M403 442h118v-176q0 -80 29.5 -125.5t83.5 -45.5q52 0 81 42t29 122q0 77 -32 145t-95 144h132q114 -131 114 -292q0 -124 -56.5 -196t-158.5 -72q-73 0 -119.5 39.5t-67.5 104.5q-49 -144 -188 -144q-101 0 -157 72t-56 196q0 160 115 292h130q-63 -74 -94.5 -142.5
t-31.5 -146.5q0 -79 29.5 -121.5t79.5 -42.5q54 0 84.5 45.5t30.5 125.5v176z" />
    <glyph glyph-name="uni03CA" unicode="&#x3ca;" horiz-adv-x="327" 
d="M-17 619v120h124v-120h-124zM183 619v120h124v-120h-124zM82 156v392h120v-387q0 -67 62 -67q23 0 36 4v-96q-34 -9 -73 -9q-74 0 -109.5 39t-35.5 124z" />
    <glyph glyph-name="uni03CB" unicode="&#x3cb;" horiz-adv-x="655" 
d="M165 619v120h124v-120h-124zM365 619v120h124v-120h-124zM326 -12q-116 0 -182.5 62.5t-66.5 180.5v317h120v-312q0 -70 33.5 -107t97.5 -37q63 0 96 36t33 105v315h121v-314q0 -120 -67.5 -183t-184.5 -63z" />
    <glyph glyph-name="uni03CC" unicode="&#x3cc;" horiz-adv-x="690" 
d="M304 619l71 175l108 -47l-99 -128h-80zM344 -12q-124 0 -207 82.5t-83 200.5v2q0 119 84 202.5t208 83.5t207 -82.5t83 -201.5v-2q0 -118 -83.5 -201.5t-208.5 -83.5zM346 93q75 0 122.5 51.5t47.5 126.5v2q0 75 -49 128t-123 53q-75 0 -122.5 -52t-47.5 -127v-2
q0 -75 49 -127.5t123 -52.5z" />
    <glyph glyph-name="uni03CD" unicode="&#x3cd;" horiz-adv-x="655" 
d="M286 619l71 175l108 -47l-99 -128h-80zM326 -12q-116 0 -182.5 62.5t-66.5 180.5v317h120v-312q0 -70 33.5 -107t97.5 -37q63 0 96 36t33 105v315h121v-314q0 -120 -67.5 -183t-184.5 -63z" />
    <glyph glyph-name="uni03CE" unicode="&#x3ce;" horiz-adv-x="924" 
d="M421 619l71 175l108 -47l-99 -128h-80zM403 442h118v-176q0 -80 29.5 -125.5t83.5 -45.5q52 0 81 42t29 122q0 77 -32 145t-95 144h132q114 -131 114 -292q0 -124 -56.5 -196t-158.5 -72q-73 0 -119.5 39.5t-67.5 104.5q-49 -144 -188 -144q-101 0 -157 72t-56 196
q0 160 115 292h130q-63 -74 -94.5 -142.5t-31.5 -146.5q0 -79 29.5 -121.5t79.5 -42.5q54 0 84.5 45.5t30.5 125.5v176z" />
    <glyph glyph-name="uni0400" unicode="&#x400;" horiz-adv-x="705" 
d="M419 789h-95l-131 100l110 49zM99 0v728h538v-110h-416v-196h369v-110h-369v-202h421v-110h-543z" />
    <glyph glyph-name="uni0401" unicode="&#x401;" horiz-adv-x="705" 
d="M201 789v113h126v-113h-126zM413 789v113h125v-113h-125zM99 0v728h538v-110h-416v-196h369v-110h-369v-202h421v-110h-543z" />
    <glyph glyph-name="uni0402" unicode="&#x402;" horiz-adv-x="875" 
d="M627 728v-113h-238v-180q85 19 167 19q130 0 200.5 -58.5t70.5 -166.5q0 -105 -71.5 -168t-199.5 -63h-22v109h8q81 0 121.5 31.5t40.5 86.5q0 120 -162 120q-71 0 -153 -18v-327h-123v615h-223v113h584z" />
    <glyph glyph-name="uni0403" unicode="&#x403;" horiz-adv-x="650" 
d="M296 789l115 149l110 -49l-131 -100h-94zM99 0v728h508v-112h-385v-616h-123z" />
    <glyph glyph-name="uni0404" unicode="&#x404;" horiz-adv-x="775" 
d="M433 -12q-158 0 -262.5 108t-104.5 266v2q0 158 105.5 267t267.5 109q94 0 160.5 -29t124.5 -84l-79 -89q-96 91 -206 91q-94 0 -161 -58.5t-82 -151.5h360v-105h-360q14 -95 80.5 -155t162.5 -60q64 0 111.5 23.5t99.5 72.5l78 -79q-61 -63 -130 -95.5t-165 -32.5z" />
    <glyph glyph-name="uni0405" unicode="&#x405;" horiz-adv-x="674" 
d="M353 -10q-174 0 -303 116l74 88q109 -95 232 -95q61 0 97 26t36 69v2q0 42 -34 66.5t-133 47.5q-127 30 -185 76.5t-58 140.5v2q0 92 69.5 150.5t177.5 58.5q152 0 264 -91l-67 -93q-97 75 -199 75q-56 0 -89.5 -25t-33.5 -64v-2q0 -44 36 -69t141 -49q121 -29 177 -77.5
t56 -134.5v-2q0 -100 -71.5 -158t-186.5 -58z" />
    <glyph glyph-name="uni0406" unicode="&#x406;" horiz-adv-x="335" 
d="M106 0v728h123v-728h-123z" />
    <glyph glyph-name="uni0407" unicode="&#x407;" horiz-adv-x="335" 
d="M-1 789v113h126v-113h-126zM211 789v113h125v-113h-125zM106 0v728h123v-728h-123z" />
    <glyph glyph-name="uni0408" unicode="&#x408;" horiz-adv-x="589" 
d="M259 -10q-146 0 -232 118l81 83q34 -44 69 -66t80 -22q55 0 87 37.5t32 109.5v478h126v-481q0 -125 -68 -193q-64 -64 -175 -64z" />
    <glyph glyph-name="uni0409" unicode="&#x409;" horiz-adv-x="1089" 
d="M493 0v625h-5l-343 -625h-127l403 728h194v-245h147q130 0 205.5 -62t75.5 -176v-1q0 -113 -78.5 -179t-211.5 -65h-260zM615 111h142q74 0 118 35t44 97v1q0 62 -42.5 95.5t-117.5 33.5h-144v-262z" />
    <glyph glyph-name="uni040A" unicode="&#x40a;" horiz-adv-x="1163" 
d="M689 111h141q74 0 118 35t44 97v1q0 62 -42 95.5t-117 33.5h-144v-262zM566 0v309h-344v-309h-123v728h123v-305h344v305h123v-245h147q129 0 205 -62t76 -176v-1q0 -113 -78.5 -179t-211.5 -65h-261z" />
    <glyph glyph-name="uni040B" unicode="&#x40b;" horiz-adv-x="906" 
d="M627 728v-113h-238v-180q85 20 165 20q273 0 273 -248v-207h-123v191q0 80 -40 116.5t-123 36.5q-77 0 -152 -19v-325h-123v615h-223v113h584z" />
    <glyph glyph-name="uni040C" unicode="&#x40c;" horiz-adv-x="769" 
d="M338 787l115 149l110 -49l-131 -100h-94zM99 0v728h123l-2 -305h85l277 305h155l-333 -352l351 -376h-159l-288 315h-88l2 -315h-123z" />
    <glyph glyph-name="uni040D" unicode="&#x40d;" horiz-adv-x="830" 
d="M464 787h-95l-131 100l110 49zM731 0h-123v535l-403 -535h-106v728h123v-521l392 521h117v-728z" />
    <glyph glyph-name="uni040E" unicode="&#x40e;" horiz-adv-x="754" 
d="M388 785q-75 0 -123 36t-54 101h86q20 -52 91 -52t91 52h86q-6 -65 -54 -101t-123 -36zM315 0h-137l147 251l-293 477h139l223 -368l200 368h137z" />
    <glyph glyph-name="uni040F" unicode="&#x40f;" horiz-adv-x="798" 
d="M340 -150v150h-241v728h123v-616h351v616h123v-728h-240v-150h-116z" />
    <glyph glyph-name="uni0410" unicode="&#x410;" horiz-adv-x="830" 
d="M283 287h260l-130 300zM36 0l322 733h114l321 -733h-129l-76 177h-350l-76 -177h-126z" />
    <glyph glyph-name="uni0411" unicode="&#x411;" horiz-adv-x="741" 
d="M99 0v728h527v-109h-407v-187h205q123 0 193.5 -53.5t70.5 -155.5v-2q0 -105 -74 -163t-199 -58h-316zM219 109h199q66 0 106.5 28.5t40.5 80.5v1q0 53 -38.5 79.5t-105.5 26.5h-202v-216z" />
    <glyph glyph-name="uni0412" unicode="&#x412;" horiz-adv-x="759" 
d="M99 0v728h325q125 0 189 -64q49 -49 49 -121v-2q0 -109 -105 -163q70 -24 108 -65.5t38 -111.5v-2q0 -95 -72.5 -147t-196.5 -52h-335zM540 522v2q0 45 -34.5 70t-97.5 25h-189v-200h180q65 0 103 26.5t38 76.5zM580 214q0 48 -39 74.5t-115 26.5h-207v-206h216
q68 0 106.5 26.5t38.5 76.5v2z" />
    <glyph glyph-name="uni0413" unicode="&#x413;" horiz-adv-x="650" 
d="M99 0v728h508v-112h-385v-616h-123z" />
    <glyph glyph-name="uni0414" unicode="&#x414;" horiz-adv-x="886" 
d="M441 597l-204 -489h408zM39 112h71l269 621h129l267 -621h72v-262h-116v150h-576v-150h-116v262z" />
    <glyph glyph-name="uni0415" unicode="&#x415;" horiz-adv-x="705" 
d="M99 0v728h538v-110h-416v-196h369v-110h-369v-202h421v-110h-543z" />
    <glyph glyph-name="uni0416" unicode="&#x416;" horiz-adv-x="1129" 
d="M36 728h147l259 -306h63l-1 306h121l-1 -306h63l260 306h146l-305 -354l324 -374h-148l-272 316h-68l1 -316h-121l1 316h-72l-271 -316h-145l325 374z" />
    <glyph glyph-name="uni0417" unicode="&#x417;" horiz-adv-x="698" 
d="M132 541l-75 83q130 116 294 116q123 0 195 -53t72 -142v-1q0 -127 -134 -171q153 -37 153 -171v-1q0 -94 -80 -153.5t-216 -59.5q-171 0 -296 107l73 88q107 -85 226 -85q74 0 121 30t47 81v1q0 51 -45.5 78.5t-126.5 26.5h-130v104h133q68 0 109 29t41 80v1
q0 46 -39 74t-105 27q-112 0 -217 -89z" />
    <glyph glyph-name="uni0418" unicode="&#x418;" horiz-adv-x="830" 
d="M731 0h-123v535l-403 -535h-106v728h123v-521l392 521h117v-728z" />
    <glyph glyph-name="uni0419" unicode="&#x419;" horiz-adv-x="830" 
d="M415 785q-75 0 -123 36t-54 101h86q20 -52 91 -52t91 52h86q-6 -65 -54 -101t-123 -36zM731 0h-123v535l-403 -535h-106v728h123v-521l392 521h117v-728z" />
    <glyph glyph-name="uni041A" unicode="&#x41a;" horiz-adv-x="769" 
d="M99 0v728h123l-2 -305h85l277 305h155l-333 -352l351 -376h-159l-288 315h-88l2 -315h-123z" />
    <glyph glyph-name="uni041B" unicode="&#x41b;" horiz-adv-x="810" 
d="M459 733l314 -733h-136l-235 564l-234 -564h-132l314 733h109z" />
    <glyph glyph-name="uni041C" unicode="&#x41c;" horiz-adv-x="911" 
d="M99 0v728h130l226 -351l227 351h130v-728h-122v530l-234 -349h-4l-233 347v-528h-120z" />
    <glyph glyph-name="uni041D" unicode="&#x41d;" horiz-adv-x="798" 
d="M99 0v728h123v-305h355v305h123v-728h-123v309h-355v-309h-123z" />
    <glyph glyph-name="uni041E" unicode="&#x41e;" horiz-adv-x="892" 
d="M445 -12q-164 0 -271.5 109t-107.5 265v2q0 156 108.5 266t272.5 110t271.5 -109t107.5 -265v-2q0 -156 -108.5 -266t-272.5 -110zM447 101q109 0 179.5 75.5t70.5 185.5v2q0 110 -71.5 186.5t-180.5 76.5t-179.5 -75.5t-70.5 -185.5v-2q0 -110 71.5 -186.5t180.5 -76.5z
" />
    <glyph glyph-name="uni041F" unicode="&#x41f;" horiz-adv-x="795" 
d="M99 0v728h597v-728h-123v616h-351v-616h-123z" />
    <glyph glyph-name="uni0420" unicode="&#x420;" horiz-adv-x="703" 
d="M99 0v728h285q126 0 201 -66t75 -175v-3q0 -118 -82.5 -182.5t-207.5 -64.5h-148v-237h-123zM222 347h152q73 0 117.5 37.5t44.5 96.5v2q0 64 -43.5 99t-118.5 35h-152v-270z" />
    <glyph glyph-name="uni0421" unicode="&#x421;" horiz-adv-x="777" 
d="M436 -12q-158 0 -264 108t-106 266v2q0 157 106.5 266.5t268.5 109.5q94 0 160.5 -29t124.5 -84l-80 -91q-96 91 -206 91q-105 0 -175 -75.5t-70 -185.5v-2q0 -111 70 -187t175 -76q65 0 113 23t99 72l79 -80q-62 -64 -130.5 -96t-164.5 -32z" />
    <glyph glyph-name="uni0422" unicode="&#x422;" horiz-adv-x="678" 
d="M278 0v615h-233v113h588v-113h-232v-615h-123z" />
    <glyph glyph-name="uni0423" unicode="&#x423;" horiz-adv-x="754" 
d="M315 0h-137l147 251l-293 477h139l223 -368l200 368h137z" />
    <glyph glyph-name="uni0424" unicode="&#x424;" horiz-adv-x="993" 
d="M435 -11v80q-177 3 -277 84t-100 213v1q0 129 100 211.5t277 85.5v75h123v-75q176 -3 276.5 -84t100.5 -213v-1q0 -130 -100.5 -212.5t-276.5 -84.5v-80h-123zM807 367q0 84 -64 136t-187 53v-379q123 1 187 52.5t64 136.5v1zM186 365q0 -84 64 -135.5t187 -52.5v379
q-123 -1 -187 -52.5t-64 -137.5v-1z" />
    <glyph glyph-name="uni0425" unicode="&#x425;" horiz-adv-x="766" 
d="M571 728h141l-256 -356l266 -372h-144l-197 282l-197 -282h-140l265 370l-255 358h144l186 -267z" />
    <glyph glyph-name="uni0426" unicode="&#x426;" horiz-adv-x="821" 
d="M666 -150v150h-567v728h123v-616h351v616h123v-616h86v-262h-116z" />
    <glyph glyph-name="uni0427" unicode="&#x427;" horiz-adv-x="748" 
d="M526 0v259q-86 -22 -172 -22q-131 0 -202.5 60.5t-71.5 187.5v243h123v-227q0 -80 39.5 -116t123.5 -36t160 22v357h123v-728h-123z" />
    <glyph glyph-name="uni0428" unicode="&#x428;" horiz-adv-x="1167" 
d="M99 0v728h123v-616h300v616h123v-616h301v616h123v-728h-970z" />
    <glyph glyph-name="uni0429" unicode="&#x429;" horiz-adv-x="1193" 
d="M99 0v728h123v-616h300v616h123v-616h301v616h123v-616h85v-262h-116v150h-939z" />
    <glyph glyph-name="uni042A" unicode="&#x42a;" horiz-adv-x="879" 
d="M272 0v618h-229v110h352v-245h157q129 0 205 -62t76 -175v-1q0 -115 -78.5 -180t-211.5 -65h-271zM395 111h151q74 0 118.5 35t44.5 96v2q0 62 -42.5 95.5t-117.5 33.5h-154v-262z" />
    <glyph glyph-name="uni042B" unicode="&#x42b;" horiz-adv-x="1004" 
d="M782 0v728h123v-728h-123zM99 0v728h123v-245h157q129 0 205 -62t76 -176v-1q0 -113 -78.5 -179t-211.5 -65h-271zM222 111h151q75 0 119 35t44 97v1q0 62 -42.5 95.5t-117.5 33.5h-154v-262z" />
    <glyph glyph-name="uni042C" unicode="&#x42c;" horiz-adv-x="706" 
d="M99 0v728h123v-245h157q129 0 205 -62t76 -175v-1q0 -115 -78.5 -180t-211.5 -65h-271zM222 111h151q74 0 118.5 35t44.5 96v2q0 62 -42.5 95.5t-117.5 33.5h-154v-262z" />
    <glyph glyph-name="uni042D" unicode="&#x42d;" horiz-adv-x="776" 
d="M54 623q60 56 130.5 86.5t166.5 30.5q156 0 257.5 -106t101.5 -268v-2q0 -160 -103.5 -268t-265.5 -108q-171 0 -293 120l78 86q53 -49 103 -72t112 -23q95 0 160 59.5t79 155.5h-359v105h358q-15 93 -78.5 151.5t-154.5 58.5q-118 0 -218 -90z" />
    <glyph glyph-name="uni042E" unicode="&#x42e;" horiz-adv-x="1158" 
d="M99 0v728h123v-305h141q21 135 121 226t242 91q159 0 262.5 -110t103.5 -264v-2q0 -154 -104.5 -265t-263.5 -111q-144 0 -244 92t-118 229h-140v-309h-123zM726 101q104 0 170.5 76t66.5 185v2q0 109 -67.5 186t-171.5 77q-103 0 -169.5 -76t-66.5 -185v-2
q0 -109 67.5 -186t170.5 -77z" />
    <glyph glyph-name="uni042F" unicode="&#x42f;" horiz-adv-x="760" 
d="M538 366v251h-191q-72 0 -113 -33t-41 -91v-1q0 -60 43 -93t115 -33h187zM249 273q-83 22 -132 78t-49 140v1q0 114 78 175t213 61h302v-728h-123v257h-157l-189 -257h-147z" />
    <glyph glyph-name="uni0430" unicode="&#x430;" horiz-adv-x="617" 
d="M275 77q65 0 108 33.5t43 86.5v40q-61 22 -129 22q-62 0 -97 -25t-35 -69v-2q0 -40 31.5 -63t78.5 -23zM243 -11q-82 0 -139 45t-57 124v2q0 86 61.5 131t165.5 45q79 0 150 -23v14q0 60 -35.5 91.5t-103.5 31.5q-77 0 -158 -34l-32 94q100 45 206 45q120 0 181 -61
q58 -57 58 -168v-326h-117v70q-67 -81 -180 -81z" />
    <glyph glyph-name="uni0431" unicode="&#x431;" horiz-adv-x="686" 
d="M344 -12q-120 0 -194 74q-89 87 -89 259v1q0 191 71.5 290t224.5 125l195 33l19 -111l-194 -31q-97 -16 -144 -62t-58 -134q74 84 202 84q119 0 187 -69.5t68 -181.5v-1q0 -117 -80.5 -197t-207.5 -79zM346 90q73 0 119.5 49t46.5 123v1q0 71 -43.5 117t-115.5 45
q-77 0 -124 -47t-47 -118q0 -75 46 -122.5t118 -47.5z" />
    <glyph glyph-name="uni0432" unicode="&#x432;" horiz-adv-x="628" 
d="M84 0v548h279q86 0 137 -37.5t51 -104.5q0 -85 -87 -122q110 -35 110 -131q0 -75 -57 -114t-154 -39h-279zM433 391q0 31 -23.5 49.5t-67.5 18.5h-140v-140h136q47 0 71 19.5t24 52.5zM456 160q0 74 -105 74h-149v-145h155q47 0 73 18.5t26 52.5z" />
    <glyph glyph-name="uni0433" unicode="&#x433;" horiz-adv-x="530" 
d="M84 0v548h409v-109h-289v-439h-120z" />
    <glyph glyph-name="uni0434" unicode="&#x434;" horiz-adv-x="702" 
d="M350 430l-138 -325h275zM288 552h126l198 -443h61v-246h-109v138h-426v-138h-109v246h62z" />
    <glyph glyph-name="uni0435" unicode="&#x435;" horiz-adv-x="635" 
d="M334 -12q-120 0 -200 79.5t-80 204.5v2q0 119 76 202t191 83q124 0 192.5 -84.5t68.5 -209.5q0 -22 -1 -34h-406q10 -68 53.5 -106t107.5 -38q85 0 151 66l72 -63q-87 -102 -225 -102zM173 311h290q-7 66 -44 107.5t-99 41.5q-59 0 -98.5 -41t-48.5 -108z" />
    <glyph glyph-name="uni0436" unicode="&#x436;" horiz-adv-x="932" 
d="M525 548l-1 -220h64l177 220h142l-226 -268l234 -280h-142l-183 225h-66l1 -225h-118l1 225h-67l-182 -225h-142l235 274l-226 274h143l176 -220h63l-1 220h118z" />
    <glyph glyph-name="uni0437" unicode="&#x437;" horiz-adv-x="589" 
d="M42 66l60 82q86 -61 187 -61q60 0 94 20t34 55v1q0 32 -32 50.5t-89 17.5h-119v90h118q107 0 107 69v1q0 32 -29.5 50.5t-82.5 18.5q-95 0 -178 -62l-63 77q103 84 247 84q102 0 163 -42.5t61 -111.5v-1q0 -88 -98 -124q51 -14 82 -46t31 -83v-1q0 -69 -66 -116t-179 -46
q-143 0 -248 78z" />
    <glyph glyph-name="uni0438" unicode="&#x438;" horiz-adv-x="672" 
d="M84 0v548h120v-360l270 360h114v-548h-120v366l-275 -366h-109z" />
    <glyph glyph-name="uni0439" unicode="&#x439;" horiz-adv-x="672" 
d="M335 617q-75 0 -122.5 39t-52.5 109h83q20 -64 92 -64t92 64h84q-6 -70 -53.5 -109t-122.5 -39zM84 0v548h120v-360l270 360h114v-548h-120v366l-275 -366h-109z" />
    <glyph glyph-name="uni043A" unicode="&#x43a;" horiz-adv-x="621" 
d="M204 548v-219h67l178 219h148l-231 -268l239 -280h-146l-185 224h-70v-224h-120v548h120z" />
    <glyph glyph-name="uni043B" unicode="&#x43b;" horiz-adv-x="653" 
d="M383 552l239 -552h-131l-166 404l-166 -404h-128l239 552h113z" />
    <glyph glyph-name="uni043C" unicode="&#x43c;" horiz-adv-x="764" 
d="M84 0v548h126l173 -261l172 261h125v-548h-118v370l-179 -266h-4l-178 263v-367h-117z" />
    <glyph glyph-name="uni043D" unicode="&#x43d;" horiz-adv-x="670" 
d="M84 0v548h120v-217h262v217h121v-548h-121v221h-262v-221h-120z" />
    <glyph glyph-name="uni043E" unicode="&#x43e;" horiz-adv-x="690" 
d="M344 -12q-124 0 -207 82.5t-83 200.5v2q0 119 84 202.5t208 83.5t207 -82.5t83 -201.5v-2q0 -118 -83.5 -201.5t-208.5 -83.5zM346 93q75 0 122.5 51.5t47.5 126.5v2q0 75 -49 128t-123 53q-75 0 -122.5 -52t-47.5 -127v-2q0 -75 49 -127.5t123 -52.5z" />
    <glyph glyph-name="uni043F" unicode="&#x43f;" horiz-adv-x="670" 
d="M84 0v548h502v-548h-121v439h-261v-439h-120z" />
    <glyph glyph-name="uni0440" unicode="&#x440;" horiz-adv-x="705" 
d="M366 93q68 0 114.5 49.5t46.5 130.5v2q0 80 -47 130t-114 50t-115.5 -50.5t-48.5 -129.5v-2q0 -79 48.5 -129.5t115.5 -50.5zM84 -166v714h120v-94q73 105 190 105q103 0 179 -77t76 -207v-2q0 -130 -76 -207t-179 -77q-115 0 -190 98v-253h-120z" />
    <glyph glyph-name="uni0441" unicode="&#x441;" horiz-adv-x="602" 
d="M337 -12q-121 0 -202 82.5t-81 200.5v2q0 119 81.5 202.5t202.5 83.5q132 0 219 -95l-76 -81q-68 71 -144 71q-70 0 -116.5 -52.5t-46.5 -126.5v-2q0 -76 48 -128t121 -52q76 0 145 69l73 -71q-46 -50 -98 -76.5t-126 -26.5z" />
    <glyph glyph-name="uni0442" unicode="&#x442;" horiz-adv-x="592" 
d="M236 0v440h-198v108h516v-108h-198v-440h-120z" />
    <glyph glyph-name="uni0443" unicode="&#x443;" horiz-adv-x="628" 
d="M321 135l146 413h126l-219 -563q-33 -85 -74 -120t-107 -35q-67 0 -128 33l41 91q39 -22 75 -22q28 0 46.5 15t35.5 53l-231 548h129z" />
    <glyph glyph-name="uni0444" unicode="&#x444;" horiz-adv-x="882" 
d="M501 -166h-120v164q-154 4 -241 80.5t-87 194.5v1q0 117 87 194t241 81v210h120v-209q154 -5 241 -81.5t87 -193.5v-1q0 -117 -87.5 -194t-240.5 -81v-165zM172 274q0 -76 55 -124t156 -50v348q-103 -3 -157 -50t-54 -123v-1zM710 274q0 76 -55 124t-156 50v-348
q103 2 157 49t54 124v1z" />
    <glyph glyph-name="uni0445" unicode="&#x445;" horiz-adv-x="610" 
d="M176 548l130 -187l131 187h129l-195 -267l203 -281h-132l-139 198l-138 -198h-129l202 279l-194 269h132z" />
    <glyph glyph-name="uni0446" unicode="&#x446;" horiz-adv-x="691" 
d="M546 -137v137h-462v548h120v-439h261v439h121v-439h69v-246h-109z" />
    <glyph glyph-name="uni0447" unicode="&#x447;" horiz-adv-x="625" 
d="M420 0v178q-76 -19 -132 -19q-223 0 -223 205v184h120v-174q0 -56 29 -81t91 -25q53 0 115 19v261h121v-548h-121z" />
    <glyph glyph-name="uni0448" unicode="&#x448;" horiz-adv-x="982" 
d="M84 0v548h120v-439h227v439h120v-439h227v439h120v-548h-814z" />
    <glyph glyph-name="uni0449" unicode="&#x449;" horiz-adv-x="1003" 
d="M84 0v548h120v-439h227v439h120v-439h227v439h120v-439h69v-246h-109v137h-774z" />
    <glyph glyph-name="uni044A" unicode="&#x44a;" horiz-adv-x="710" 
d="M32 548h287v-172h133q100 0 159 -49t59 -137v-1q0 -87 -59.5 -138t-166.5 -51h-244v442h-168v106zM319 278v-178h122q109 0 109 89v1q0 40 -28 64.5t-80 23.5h-123z" />
    <glyph glyph-name="uni044B" unicode="&#x44b;" horiz-adv-x="847" 
d="M642 0v548h121v-548h-121zM204 548v-172h132q101 0 159.5 -49t58.5 -137v-1q0 -87 -59.5 -138t-166.5 -51h-244v548h120zM203 278v-178h122q109 0 109 89v1q0 40 -28 64.5t-80 23.5h-123z" />
    <glyph glyph-name="uni044C" unicode="&#x44c;" horiz-adv-x="594" 
d="M204 548v-172h132q101 0 159.5 -49t58.5 -137v-1q0 -87 -59.5 -138t-166.5 -51h-244v548h120zM203 278v-178h122q109 0 109 89v1q0 40 -28 64.5t-80 23.5h-123z" />
    <glyph glyph-name="uni044D" unicode="&#x44d;" horiz-adv-x="605" 
d="M106 156q73 -67 164 -67q63 0 107 38.5t53 99.5l-255 -1v98l255 -1q-11 60 -54 97.5t-107 37.5q-49 0 -85.5 -16.5t-75.5 -48.5l-62 79q101 87 229 87q121 0 198.5 -80.5t77.5 -204.5v-1q0 -121 -78.5 -203t-200.5 -82q-133 0 -231 87z" />
    <glyph glyph-name="uni044E" unicode="&#x44e;" horiz-adv-x="930" 
d="M204 221v-221h-120v548h120v-216h109q20 98 97.5 162.5t182.5 64.5q121 0 202 -82.5t81 -201.5v-2q0 -118 -81.5 -201.5t-203.5 -83.5q-107 0 -185 66t-95 167h-107zM593 93q73 0 118 51.5t45 126.5v2q0 75 -47 128t-118 53q-72 0 -117.5 -52t-45.5 -127v-2
q0 -75 47 -127.5t118 -52.5z" />
    <glyph glyph-name="uni044F" unicode="&#x44f;" horiz-adv-x="636" 
d="M433 453h-139q-50 0 -79 -23t-29 -64v-1q0 -39 28.5 -63t78.5 -23h140v174zM433 189h-111l-136 -189h-138l149 202q-60 17 -95 59.5t-35 104.5v1q0 86 60.5 134t162.5 47h262v-548h-119v189z" />
    <glyph glyph-name="uni0450" unicode="&#x450;" horiz-adv-x="635" 
d="M276 619l-126 118l110 50l107 -168h-91zM334 -12q-120 0 -200 79.5t-80 204.5v2q0 119 76 202t191 83q124 0 192.5 -84.5t68.5 -209.5q0 -22 -1 -34h-406q10 -68 53.5 -106t107.5 -38q85 0 151 66l72 -63q-87 -102 -225 -102zM173 311h290q-7 66 -44 107.5t-99 41.5
q-59 0 -98.5 -41t-48.5 -108z" />
    <glyph glyph-name="uni0451" unicode="&#x451;" horiz-adv-x="635" 
d="M157 619v120h124v-120h-124zM357 619v120h124v-120h-124zM334 -12q-120 0 -200 79.5t-80 204.5v2q0 119 76 202t191 83q124 0 192.5 -84.5t68.5 -209.5q0 -22 -1 -34h-406q10 -68 53.5 -106t107.5 -38q85 0 151 66l72 -63q-87 -102 -225 -102zM173 311h290
q-7 66 -44 107.5t-99 41.5q-59 0 -98.5 -41t-48.5 -108z" />
    <glyph glyph-name="uni0452" unicode="&#x452;" horiz-adv-x="634" 
d="M382 583h-176v-139q68 19 132 19q223 0 224 -204v-226q0 -203 -191 -203q-35 0 -70 8v97q24 -6 49 -6q88 0 91 104v215q0 57 -29 81.5t-91 24.5q-54 0 -115 -18v-336h-120v583h-108v96h108v80h120v-80h176v-96z" />
    <glyph glyph-name="uni0453" unicode="&#x453;" horiz-adv-x="530" 
d="M233 619l107 168l110 -50l-126 -118h-91zM84 0v548h409v-109h-289v-439h-120z" />
    <glyph glyph-name="uni0454" unicode="&#x454;" horiz-adv-x="606" 
d="M559 475l-65 -83q-73 66 -152 66q-64 0 -110.5 -37.5t-57.5 -97.5l256 1v-98l-257 1q11 -63 57.5 -100.5t114.5 -37.5q82 0 155 65l64 -75q-96 -91 -227 -91q-123 0 -203 82t-80 201v2q0 120 80.5 203t204.5 83q129 0 220 -84z" />
    <glyph glyph-name="uni0455" unicode="&#x455;" 
d="M271 -10q-130 0 -232 81l55 82q93 -68 181 -68q41 0 64.5 17t23.5 46v2q0 35 -59 58q-14 5 -65 21q-30 9 -49.5 16t-45 20.5t-40.5 29t-26 40t-11 54.5v2q0 76 54.5 121t138.5 45q108 0 201 -62l-48 -86q-86 52 -155 52q-37 0 -58.5 -16t-21.5 -41v-2q0 -39 114 -76
q7 -3 11 -4q37 -12 61.5 -22.5t52.5 -28.5t42.5 -45.5t14.5 -62.5v-2q0 -82 -56.5 -126.5t-146.5 -44.5z" />
    <glyph glyph-name="uni0456" unicode="&#x456;" horiz-adv-x="303" 
d="M86 636v116h131v-116h-131zM91 0v548h121v-548h-121z" />
    <glyph glyph-name="uni0457" unicode="&#x457;" horiz-adv-x="303" 
d="M-11 619v120h124v-120h-124zM189 619v120h124v-120h-124zM91 0v548h121v-548h-121z" />
    <glyph glyph-name="uni0458" unicode="&#x458;" horiz-adv-x="303" 
d="M86 636v116h131v-116h-131zM56 -170q-30 0 -60 6v96q20 -3 36 -3q59 0 59 68v551h121v-558q0 -160 -156 -160z" />
    <glyph glyph-name="uni0459" unicode="&#x459;" horiz-adv-x="885" 
d="M385 0v453h-3l-244 -453h-126l294 548h199v-172h122q100 0 159 -49t59 -137v-1q0 -87 -59.5 -138t-166.5 -51h-234zM504 100h112q109 0 109 89v1q0 40 -28 64.5t-80 23.5h-113v-178z" />
    <glyph glyph-name="uni045A" unicode="&#x45a;" horiz-adv-x="957" 
d="M576 278v-178h112q109 0 109 89v1q0 40 -28 64.5t-80 23.5h-113zM577 548v-172h122q100 0 159 -49t59 -137v-1q0 -87 -59.5 -138t-166.5 -51h-234v221h-253v-221h-120v548h120v-216h253v216h120z" />
    <glyph glyph-name="uni045B" unicode="&#x45b;" horiz-adv-x="634" 
d="M206 759v-80h176v-96h-176v-139q68 19 132 19q224 0 224 -204v-259h-121v248q0 57 -29 81.5t-91 24.5q-54 0 -115 -18v-336h-120v583h-108v96h108v80h120z" />
    <glyph glyph-name="uni045C" unicode="&#x45c;" horiz-adv-x="621" 
d="M271 619l107 168l110 -50l-126 -118h-91zM204 548v-219h67l178 219h148l-231 -268l239 -280h-146l-185 224h-70v-224h-120v548h120z" />
    <glyph glyph-name="uni045D" unicode="&#x45d;" horiz-adv-x="672" 
d="M292 619l-126 118l110 50l107 -168h-91zM84 0v548h120v-360l270 360h114v-548h-120v366l-275 -366h-109z" />
    <glyph glyph-name="uni045E" unicode="&#x45e;" horiz-adv-x="628" 
d="M315 617q-75 0 -122.5 39t-52.5 109h83q20 -64 92 -64t92 64h84q-6 -70 -53.5 -109t-122.5 -39zM321 135l146 413h126l-219 -563q-33 -85 -74 -120t-107 -35q-67 0 -128 33l41 91q39 -22 75 -22q28 0 46.5 15t35.5 53l-231 548h129z" />
    <glyph glyph-name="uni045F" unicode="&#x45f;" horiz-adv-x="670" 
d="M84 0v548h120v-439h261v439h121v-548h-197v-137h-109v137h-196z" />
    <glyph glyph-name="uni0462" unicode="&#x462;" horiz-adv-x="876" 
d="M580 413q117 0 183.5 -52t66.5 -150v-1q0 -96 -68.5 -153t-187.5 -57h-305v539h-226v102h226v98h122v-98h250v-101h-250v-127h189zM579 306h-189v-197h189q59 0 94 26.5t35 72.5v1q0 46 -32.5 71.5t-96.5 25.5z" />
    <glyph glyph-name="uni0463" unicode="&#x463;" horiz-adv-x="710" 
d="M320 347h142q97 0 152.5 -44.5t55.5 -126.5v-1q0 -80 -57.5 -127.5t-158.5 -47.5h-254v445h-168v103h168v211h120v-211h212v-102h-212v-99zM319 254v-159h133q47 0 72.5 21t25.5 59v1q0 36 -25 57.5t-72 20.5h-134z" />
    <glyph glyph-name="uni0472" unicode="&#x472;" horiz-adv-x="888" 
d="M443 -12q-163 0 -270 109t-107 265v2q0 156 108 266t271 110t270 -109t107 -265v-2q0 -156 -108 -266t-271 -110zM443 633q-98 0 -166.5 -59t-83.5 -153h501q-17 94 -85.5 153t-165.5 59zM445 95q99 0 167.5 60.5t82.5 156.5h-503q15 -96 84.5 -156.5t168.5 -60.5z" />
    <glyph glyph-name="uni0473" unicode="&#x473;" horiz-adv-x="686" 
d="M342 -12q-123 0 -205.5 82.5t-82.5 200.5v2q0 118 83.5 202t206.5 84t205.5 -82.5t82.5 -201.5v-2q0 -118 -83.5 -201.5t-206.5 -83.5zM342 461q-67 0 -113.5 -39t-58.5 -101h345q-14 63 -61.5 101.5t-111.5 38.5zM344 86q67 0 113.5 39t58.5 103h-346
q14 -63 61.5 -102.5t112.5 -39.5z" />
    <glyph glyph-name="uni0474" unicode="&#x474;" horiz-adv-x="830" 
d="M336 -5l-300 733h136l221 -568l148 377q42 108 97.5 150.5t151.5 42.5h19v-111h-6q-53 0 -86.5 -25t-59.5 -88l-213 -511h-108z" />
    <glyph glyph-name="uni0475" unicode="&#x475;" horiz-adv-x="643" 
d="M251 -4l-219 552h130l145 -408l90 237q35 98 80.5 136t126.5 38h17v-101h-2q-40 0 -65 -21.5t-48 -78.5l-146 -354h-109z" />
    <glyph glyph-name="uni0490" unicode="&#x490;" horiz-adv-x="650" 
d="M99 728h392v143h116v-255h-385v-616h-123v728z" />
    <glyph glyph-name="uni0491" unicode="&#x491;" horiz-adv-x="530" 
d="M84 0v548h296v134h113v-243h-289v-439h-120z" />
    <glyph glyph-name="uni0492" unicode="&#x492;" horiz-adv-x="681" 
d="M130 0v305h-78v89h78v334h508v-112h-385v-222h188v-89h-188v-305h-123z" />
    <glyph glyph-name="uni0493" unicode="&#x493;" horiz-adv-x="550" 
d="M104 0v218h-72v74h72v256h409v-109h-289v-147h138v-74h-138v-218h-120z" />
    <glyph glyph-name="uni0496" unicode="&#x496;" horiz-adv-x="1139" 
d="M1093 728l-305 -354l227 -262h108v-262h-116v150h-43l-272 316h-68l1 -316h-121l1 316h-72l-271 -316h-145l325 374l-306 354h147l259 -306h63l-1 306h121l-1 -306h63l260 306h146z" />
    <glyph glyph-name="uni0497" unicode="&#x497;" horiz-adv-x="942" 
d="M907 548l-226 -268l143 -171h107v-246h-109v137h-49l-183 225h-66l1 -225h-118l1 225h-67l-182 -225h-142l235 274l-226 274h143l176 -220h63l-1 220h118l-1 -220h64l177 220h142z" />
    <glyph glyph-name="uni0498" unicode="&#x498;" horiz-adv-x="697" 
d="M131 541l-75 83q130 116 294 116q123 0 195 -53t72 -142v-1q0 -127 -134 -171q153 -37 153 -171v-1q0 -83 -64 -140t-175 -70l4 -141h-119l4 141q-139 15 -242 104l73 88q107 -85 226 -85q74 0 121 30t47 81v1q0 51 -45.5 78.5t-126.5 26.5h-130v104h133q68 0 109 29
t41 80v1q0 46 -39 74t-105 27q-112 0 -217 -89z" />
    <glyph glyph-name="uni0499" unicode="&#x499;" horiz-adv-x="589" 
d="M42 66l60 82q86 -61 187 -61q60 0 94 20t34 55v1q0 32 -32 50.5t-89 17.5h-119v90h118q107 0 107 69v1q0 32 -29.5 50.5t-82.5 18.5q-95 0 -178 -62l-63 77q103 84 247 84q102 0 163 -42.5t61 -111.5v-1q0 -88 -98 -124q51 -14 82 -46t31 -83v-1q0 -61 -52 -105.5
t-143 -53.5l5 -128h-114l5 128q-110 11 -194 75z" />
    <glyph glyph-name="uni049A" unicode="&#x49a;" horiz-adv-x="777" 
d="M99 0v728h123l-2 -305h85l277 305h155l-333 -352l246 -264h114v-262h-116v150h-52l-288 315h-88l2 -315h-123z" />
    <glyph glyph-name="uni049B" unicode="&#x49b;" horiz-adv-x="624" 
d="M204 548v-219h67l178 219h148l-231 -268l146 -171h100v-246h-109v137h-44l-185 224h-70v-224h-120v548h120z" />
    <glyph glyph-name="uni049C" unicode="&#x49c;" horiz-adv-x="804" 
d="M762 728l-271 -348l284 -380h-147l-228 312h-1l2 -205h-80l1 209h-100v-316h-123v728h123v-305h100l-1 211h80l-2 -202h1l219 296h143z" />
    <glyph glyph-name="uni049D" unicode="&#x49d;" horiz-adv-x="670" 
d="M639 548l-204 -261l205 -287h-137l-159 235h-10v-158h-65l1 158h-66v-235h-120v548h120v-219h66l-1 154h65v-154h11l158 219h136z" />
    <glyph glyph-name="uni04A0" unicode="&#x4a0;" horiz-adv-x="942" 
d="M43 618v110h352l-2 -305h85l277 305h155l-333 -352l351 -376h-159l-288 315h-88l2 -315h-123v618h-229z" />
    <glyph glyph-name="uni04A1" unicode="&#x4a1;" horiz-adv-x="737" 
d="M320 548v-219h67l178 219h148l-231 -268l239 -280h-146l-185 224h-70v-224h-120v442h-168v106h288z" />
    <glyph glyph-name="uni04A2" unicode="&#x4a2;" horiz-adv-x="824" 
d="M99 0v728h123v-305h355v305h123v-616h85v-262h-116v150h-92v309h-355v-309h-123z" />
    <glyph glyph-name="uni04A3" unicode="&#x4a3;" horiz-adv-x="692" 
d="M84 0v548h120v-217h262v217h121v-439h68v-246h-109v137h-80v221h-262v-221h-120z" />
    <glyph glyph-name="uni04A4" unicode="&#x4a4;" horiz-adv-x="1069" 
d="M551 0v309h-345v-309h-123v728h123v-305h345v305h475v-112h-352v-616h-123z" />
    <glyph glyph-name="uni04A5" unicode="&#x4a5;" horiz-adv-x="892" 
d="M457 0v221h-253v-221h-120v548h120v-216h253v216h399v-109h-279v-439h-120z" />
    <glyph glyph-name="uni04AA" unicode="&#x4aa;" horiz-adv-x="777" 
d="M373 -150l4 143q-137 20 -224 123.5t-87 245.5v2q0 157 106.5 266.5t268.5 109.5q94 0 160.5 -29t124.5 -84l-80 -91q-96 91 -206 91q-105 0 -175 -75.5t-70 -185.5v-2q0 -111 70 -187t175 -76q65 0 113 23t99 72l79 -80q-108 -111 -243 -125l5 -141h-120z" />
    <glyph glyph-name="uni04AB" unicode="&#x4ab;" horiz-adv-x="602" 
d="M275 -137l5 131q-100 19 -163 96.5t-63 180.5v2q0 119 81.5 202.5t202.5 83.5q132 0 219 -95l-76 -81q-68 71 -144 71q-70 0 -116.5 -52.5t-46.5 -126.5v-2q0 -76 48 -128t121 -52q76 0 145 69l73 -71q-80 -87 -177 -99l4 -129h-113z" />
    <glyph glyph-name="uni04AE" unicode="&#x4ae;" horiz-adv-x="753" 
d="M315 0v287l-291 441h145l208 -327l211 327h141l-291 -438v-290h-123z" />
    <glyph glyph-name="uni04AF" unicode="&#x4af;" horiz-adv-x="625" 
d="M593 548l-220 -531v-183h-121v186l-220 528h131l150 -401l153 401h127z" />
    <glyph glyph-name="uni04B0" unicode="&#x4b0;" horiz-adv-x="753" 
d="M315 0v208h-180v89h173l-284 431h145l208 -327l211 327h141l-287 -431h174v-89h-178v-208h-123z" />
    <glyph glyph-name="uni04B1" unicode="&#x4b1;" horiz-adv-x="625" 
d="M533 74v-74h-160v-166h-121v166h-160v74h137l-197 474h131l150 -401l153 401h127l-197 -474h137z" />
    <glyph glyph-name="uni04B2" unicode="&#x4b2;" horiz-adv-x="785" 
d="M571 728h141l-256 -356l186 -260h115v-262h-116v150h-63l-197 282l-197 -282h-140l265 370l-255 358h144l186 -267z" />
    <glyph glyph-name="uni04B3" unicode="&#x4b3;" horiz-adv-x="620" 
d="M176 548l130 -187l131 187h129l-195 -267l124 -172h105v-246h-109v137h-49l-139 198l-138 -198h-129l202 279l-194 269h132z" />
    <glyph glyph-name="uni04B6" unicode="&#x4b6;" horiz-adv-x="774" 
d="M526 0v259q-86 -22 -172 -22q-131 0 -202.5 60.5t-71.5 187.5v243h123v-227q0 -80 39.5 -116t123.5 -36t160 22v357h123v-616h86v-262h-116v150h-93z" />
    <glyph glyph-name="uni04B7" unicode="&#x4b7;" horiz-adv-x="646" 
d="M420 0v178q-76 -19 -132 -19q-223 0 -223 205v184h120v-174q0 -56 29 -81t91 -25q53 0 115 19v261h121v-439h68v-246h-109v137h-80z" />
    <glyph glyph-name="uni04B8" unicode="&#x4b8;" horiz-adv-x="746" 
d="M524 0v259q-58 -15 -121 -20l1 -163h-79v161q-247 13 -247 248v243h123v-227q0 -70 30.5 -106t94.5 -44l-1 211h79l-1 -212q57 3 121 21v357h123v-728h-123z" />
    <glyph glyph-name="uni04B9" unicode="&#x4b9;" horiz-adv-x="625" 
d="M420 0v178q-49 -12 -86 -17l1 -110h-65v108q-205 8 -205 204v185h120v-172q0 -94 85 -106v148h65l-1 -149q38 2 86 18v261h121v-548h-121z" />
    <glyph glyph-name="uni04BA" unicode="&#x4ba;" horiz-adv-x="746" 
d="M217 728v-260q83 23 173 23q131 0 202.5 -60.5t71.5 -187.5v-243h-123v227q0 80 -39.5 116t-123.5 36q-88 0 -161 -23v-356h-123v728h123z" />
    <glyph glyph-name="uni04BB" unicode="&#x4bb;" horiz-adv-x="652" 
d="M84 0v759h120v-297q67 97 174 97q92 0 144.5 -57t52.5 -154v-348h-121v312q0 65 -31.5 101t-89.5 36t-93.5 -37.5t-35.5 -101.5v-310h-120z" />
    <glyph glyph-name="uni04C0" unicode="&#x4c0;" horiz-adv-x="335" 
d="M106 0v728h123v-728h-123z" />
    <glyph glyph-name="uni04C1" unicode="&#x4c1;" horiz-adv-x="1129" 
d="M565 787q-75 0 -123 36t-54 101h86q20 -52 91 -52t91 52h86q-6 -65 -54 -101t-123 -36zM36 728h147l259 -306h63l-1 306h121l-1 -306h63l260 306h146l-305 -354l324 -374h-148l-272 316h-68l1 -316h-121l1 316h-72l-271 -316h-145l325 374z" />
    <glyph glyph-name="uni04C2" unicode="&#x4c2;" horiz-adv-x="932" 
d="M466 617q-75 0 -122.5 39t-52.5 109h83q20 -64 92 -64t92 64h84q-6 -70 -53.5 -109t-122.5 -39zM525 548l-1 -220h64l177 220h142l-226 -268l234 -280h-142l-183 225h-66l1 -225h-118l1 225h-67l-182 -225h-142l235 274l-226 274h143l176 -220h63l-1 220h118z" />
    <glyph glyph-name="uni04CF" unicode="&#x4cf;" horiz-adv-x="303" 
d="M91 0v759h121v-759h-121z" />
    <glyph glyph-name="uni04D0" unicode="&#x4d0;" horiz-adv-x="830" 
d="M415 797q-75 0 -123 36t-54 101h86q20 -52 91 -52t91 52h86q-6 -65 -54 -101t-123 -36zM283 287h260l-130 300zM36 0l322 733h114l321 -733h-129l-76 177h-350l-76 -177h-126z" />
    <glyph glyph-name="uni04D1" unicode="&#x4d1;" horiz-adv-x="617" 
d="M310 617q-75 0 -122.5 39t-52.5 109h83q20 -64 92 -64t92 64h84q-6 -70 -53.5 -109t-122.5 -39zM275 77q65 0 108 33.5t43 86.5v40q-61 22 -129 22q-62 0 -97 -25t-35 -69v-2q0 -40 31.5 -63t78.5 -23zM243 -11q-82 0 -139 45t-57 124v2q0 86 61.5 131t165.5 45
q79 0 150 -23v14q0 60 -35.5 91.5t-103.5 31.5q-77 0 -158 -34l-32 94q100 45 206 45q120 0 181 -61q58 -57 58 -168v-326h-117v70q-67 -81 -180 -81z" />
    <glyph glyph-name="uni04D2" unicode="&#x4d2;" horiz-adv-x="830" 
d="M246 799v113h126v-113h-126zM458 799v113h125v-113h-125zM283 287h260l-130 300zM36 0l322 733h114l321 -733h-129l-76 177h-350l-76 -177h-126z" />
    <glyph glyph-name="uni04D3" unicode="&#x4d3;" horiz-adv-x="617" 
d="M148 619v120h124v-120h-124zM348 619v120h124v-120h-124zM275 77q65 0 108 33.5t43 86.5v40q-61 22 -129 22q-62 0 -97 -25t-35 -69v-2q0 -40 31.5 -63t78.5 -23zM243 -11q-82 0 -139 45t-57 124v2q0 86 61.5 131t165.5 45q79 0 150 -23v14q0 60 -35.5 91.5t-103.5 31.5
q-77 0 -158 -34l-32 94q100 45 206 45q120 0 181 -61q58 -57 58 -168v-326h-117v70q-67 -81 -180 -81z" />
    <glyph glyph-name="uni04D4" unicode="&#x4d4;" horiz-adv-x="1095" 
d="M302 287h209v334h-22zM17 0l410 728h600v-110h-394v-196h347v-110h-347v-202h399v-110h-521v177h-268l-99 -177h-127z" />
    <glyph glyph-name="uni04D5" unicode="&#x4d5;" horiz-adv-x="998" 
d="M536 311h290q-6 66 -43.5 107.5t-99.5 41.5q-59 0 -98.5 -41t-48.5 -108zM253 -11q-88 0 -147 45t-59 124v2q0 86 61 131t164 45q76 0 147 -23v14q0 60 -35 91.5t-101 31.5q-75 0 -156 -34l-32 94q100 45 204 45q143 0 193 -93q71 97 195 97q122 0 190.5 -84.5
t68.5 -209.5q0 -10 -2 -34h-406q10 -68 54 -106t107 -38q84 0 152 66l71 -63q-87 -102 -225 -102q-134 0 -213 95q-106 -94 -231 -94zM273 78q89 0 167 73q-17 41 -21 87q-63 21 -123 21q-62 0 -96.5 -25t-34.5 -69v-2q0 -39 31 -62t77 -23z" />
    <glyph glyph-name="uni04D6" unicode="&#x4d6;" horiz-adv-x="705" 
d="M370 787q-75 0 -123 36t-54 101h86q20 -52 91 -52t91 52h86q-6 -65 -54 -101t-123 -36zM99 0v728h538v-110h-416v-196h369v-110h-369v-202h421v-110h-543z" />
    <glyph glyph-name="uni04D7" unicode="&#x4d7;" horiz-adv-x="635" 
d="M319 617q-75 0 -122.5 39t-52.5 109h83q20 -64 92 -64t92 64h84q-6 -70 -53.5 -109t-122.5 -39zM334 -12q-120 0 -200 79.5t-80 204.5v2q0 119 76 202t191 83q124 0 192.5 -84.5t68.5 -209.5q0 -22 -1 -34h-406q10 -68 53.5 -106t107.5 -38q85 0 151 66l72 -63
q-87 -102 -225 -102zM173 311h290q-7 66 -44 107.5t-99 41.5q-59 0 -98.5 -41t-48.5 -108z" />
    <glyph glyph-name="uni04D8" unicode="&#x4d8;" horiz-adv-x="837" 
d="M98 603q117 137 307 137q159 0 262 -105t103 -269v-3q0 -158 -101 -266.5t-255 -108.5q-165 0 -256.5 111t-91.5 276v1q0 11 2 43h570q-14 96 -77 152t-156 56q-129 0 -228 -103zM414 99q91 0 151.5 59t73.5 155h-442q9 -95 67.5 -154.5t149.5 -59.5z" />
    <glyph glyph-name="uni04D9" unicode="&#x4d9;" horiz-adv-x="635" 
d="M301 560q120 0 200 -79.5t80 -204.5v-2q0 -119 -76 -202t-191 -83q-124 0 -192.5 84.5t-68.5 209.5q0 22 1 34h406q-10 68 -54 106t-107 38q-85 0 -151 -66l-72 63q87 102 225 102zM462 237h-290q7 -66 44 -107.5t99 -41.5q59 0 98.5 41t48.5 108z" />
    <glyph glyph-name="uni04DC" unicode="&#x4dc;" horiz-adv-x="1129" 
d="M396 789v113h126v-113h-126zM608 789v113h125v-113h-125zM36 728h147l259 -306h63l-1 306h121l-1 -306h63l260 306h146l-305 -354l324 -374h-148l-272 316h-68l1 -316h-121l1 316h-72l-271 -316h-145l325 374z" />
    <glyph glyph-name="uni04DD" unicode="&#x4dd;" horiz-adv-x="932" 
d="M304 619v120h124v-120h-124zM504 619v120h124v-120h-124zM525 548l-1 -220h64l177 220h142l-226 -268l234 -280h-142l-183 225h-66l1 -225h-118l1 225h-67l-182 -225h-142l235 274l-226 274h143l176 -220h63l-1 220h118z" />
    <glyph glyph-name="uni04DE" unicode="&#x4de;" horiz-adv-x="697" 
d="M174 793v113h126v-113h-126zM386 793v113h125v-113h-125zM131 541l-75 83q130 116 294 116q123 0 195 -53t72 -142v-1q0 -127 -134 -171q153 -37 153 -171v-1q0 -94 -80 -153.5t-216 -59.5q-171 0 -296 107l73 88q107 -85 226 -85q74 0 121 30t47 81v1q0 51 -45.5 78.5
t-126.5 26.5h-130v104h133q68 0 109 29t41 80v1q0 46 -39 74t-105 27q-112 0 -217 -89z" />
    <glyph glyph-name="uni04DF" unicode="&#x4df;" horiz-adv-x="589" 
d="M131 619v120h124v-120h-124zM331 619v120h124v-120h-124zM42 66l60 82q86 -61 187 -61q60 0 94 20t34 55v1q0 32 -32 50.5t-89 17.5h-119v90h118q107 0 107 69v1q0 32 -29.5 50.5t-82.5 18.5q-95 0 -178 -62l-63 77q103 84 247 84q102 0 163 -42.5t61 -111.5v-1
q0 -88 -98 -124q51 -14 82 -46t31 -83v-1q0 -69 -66 -116t-179 -46q-143 0 -248 78z" />
    <glyph glyph-name="uni04E2" unicode="&#x4e2;" horiz-adv-x="830" 
d="M230 800v90h370v-90h-370zM731 0h-123v535l-403 -535h-106v728h123v-521l392 521h117v-728z" />
    <glyph glyph-name="uni04E3" unicode="&#x4e3;" horiz-adv-x="672" 
d="M160 632v88h350v-88h-350zM84 0v548h120v-360l270 360h114v-548h-120v366l-275 -366h-109z" />
    <glyph glyph-name="uni04E4" unicode="&#x4e4;" horiz-adv-x="830" 
d="M246 787v113h126v-113h-126zM458 787v113h125v-113h-125zM731 0h-123v535l-403 -535h-106v728h123v-521l392 521h117v-728z" />
    <glyph glyph-name="uni04E5" unicode="&#x4e5;" horiz-adv-x="672" 
d="M173 619v120h124v-120h-124zM373 619v120h124v-120h-124zM84 0v548h120v-360l270 360h114v-548h-120v366l-275 -366h-109z" />
    <glyph glyph-name="uni04E6" unicode="&#x4e6;" horiz-adv-x="892" 
d="M277 799v113h126v-113h-126zM489 799v113h125v-113h-125zM445 -12q-164 0 -271.5 109t-107.5 265v2q0 156 108.5 266t272.5 110t271.5 -109t107.5 -265v-2q0 -156 -108.5 -266t-272.5 -110zM447 101q109 0 179.5 75.5t70.5 185.5v2q0 110 -71.5 186.5t-180.5 76.5
t-179.5 -75.5t-70.5 -185.5v-2q0 -110 71.5 -186.5t180.5 -76.5z" />
    <glyph glyph-name="uni04E7" unicode="&#x4e7;" horiz-adv-x="690" 
d="M183 619v120h124v-120h-124zM383 619v120h124v-120h-124zM344 -12q-124 0 -207 82.5t-83 200.5v2q0 119 84 202.5t208 83.5t207 -82.5t83 -201.5v-2q0 -118 -83.5 -201.5t-208.5 -83.5zM346 93q75 0 122.5 51.5t47.5 126.5v2q0 75 -49 128t-123 53q-75 0 -122.5 -52
t-47.5 -127v-2q0 -75 49 -127.5t123 -52.5z" />
    <glyph glyph-name="uni04E8" unicode="&#x4e8;" horiz-adv-x="888" 
d="M443 -12q-163 0 -270 109t-107 265v2q0 156 108 266t271 110t270 -109t107 -265v-2q0 -156 -108 -266t-271 -110zM443 633q-98 0 -166.5 -59t-83.5 -153h501q-17 94 -85.5 153t-165.5 59zM445 95q99 0 167.5 60.5t82.5 156.5h-503q15 -96 84.5 -156.5t168.5 -60.5z" />
    <glyph glyph-name="uni04E9" unicode="&#x4e9;" horiz-adv-x="686" 
d="M342 -12q-123 0 -205.5 82.5t-82.5 200.5v2q0 118 83.5 202t206.5 84t205.5 -82.5t82.5 -201.5v-2q0 -118 -83.5 -201.5t-206.5 -83.5zM342 461q-67 0 -113.5 -39t-58.5 -101h345q-14 63 -61.5 101.5t-111.5 38.5zM344 86q67 0 113.5 39t58.5 103h-346
q14 -63 61.5 -102.5t112.5 -39.5z" />
    <glyph glyph-name="uni04EE" unicode="&#x4ee;" horiz-adv-x="754" 
d="M203 800v90h370v-90h-370zM315 0h-137l147 251l-293 477h139l223 -368l200 368h137z" />
    <glyph glyph-name="uni04EF" unicode="&#x4ef;" horiz-adv-x="628" 
d="M140 632v88h350v-88h-350zM321 135l146 413h126l-219 -563q-33 -85 -74 -120t-107 -35q-67 0 -128 33l41 91q39 -22 75 -22q28 0 46.5 15t35.5 53l-231 548h129z" />
    <glyph glyph-name="uni04F0" unicode="&#x4f0;" horiz-adv-x="754" 
d="M219 787v113h126v-113h-126zM431 787v113h125v-113h-125zM315 0h-137l147 251l-293 477h139l223 -368l200 368h137z" />
    <glyph glyph-name="uni04F1" unicode="&#x4f1;" horiz-adv-x="628" 
d="M153 619v120h124v-120h-124zM353 619v120h124v-120h-124zM321 135l146 413h126l-219 -563q-33 -85 -74 -120t-107 -35q-67 0 -128 33l41 91q39 -22 75 -22q28 0 46.5 15t35.5 53l-231 548h129z" />
    <glyph glyph-name="uni04F2" unicode="&#x4f2;" horiz-adv-x="754" 
d="M420 787l116 149l106 -49l-131 -100h-91zM241 787l115 149l107 -49l-131 -100h-91zM315 0h-137l147 251l-293 477h139l223 -368l200 368h137z" />
    <glyph glyph-name="uni04F3" unicode="&#x4f3;" horiz-adv-x="628" 
d="M172 619l106 168l107 -49l-125 -119h-88zM347 619l107 168l107 -49l-126 -119h-88zM321 135l146 413h126l-219 -563q-33 -85 -74 -120t-107 -35q-67 0 -128 33l41 91q39 -22 75 -22q28 0 46.5 15t35.5 53l-231 548h129z" />
    <glyph glyph-name="uni04F4" unicode="&#x4f4;" horiz-adv-x="748" 
d="M196 787v113h126v-113h-126zM408 787v113h125v-113h-125zM526 0v259q-86 -22 -172 -22q-131 0 -202.5 60.5t-71.5 187.5v243h123v-227q0 -80 39.5 -116t123.5 -36t160 22v357h123v-728h-123z" />
    <glyph glyph-name="uni04F5" unicode="&#x4f5;" horiz-adv-x="625" 
d="M141 619v120h124v-120h-124zM341 619v120h124v-120h-124zM420 0v178q-76 -19 -132 -19q-223 0 -223 205v184h120v-174q0 -56 29 -81t91 -25q53 0 115 19v261h121v-548h-121z" />
    <glyph glyph-name="uni04F8" unicode="&#x4f8;" horiz-adv-x="1004" 
d="M333 787v113h126v-113h-126zM545 787v113h125v-113h-125zM782 0v728h123v-728h-123zM99 0v728h123v-245h157q129 0 205 -62t76 -176v-1q0 -113 -78.5 -179t-211.5 -65h-271zM222 111h151q75 0 119 35t44 97v1q0 62 -42.5 95.5t-117.5 33.5h-154v-262z" />
    <glyph glyph-name="uni04F9" unicode="&#x4f9;" horiz-adv-x="847" 
d="M261 619v120h124v-120h-124zM461 619v120h124v-120h-124zM642 0v548h121v-548h-121zM204 548v-172h132q101 0 159.5 -49t58.5 -137v-1q0 -87 -59.5 -138t-166.5 -51h-244v548h120zM203 278v-178h122q109 0 109 89v1q0 40 -28 64.5t-80 23.5h-123z" />
    <glyph glyph-name="baht" unicode="&#xe3f;" horiz-adv-x="677" 
d="M313 -123h-82l14 123h-161v728h249l10 83h82l-11 -86q88 -10 140 -57.5t52 -124.5v-1q0 -117 -117 -166q66 -25 102 -65t36 -109v-1q0 -96 -70 -148.5t-188 -52.5h-43zM194 412h106l26 214h-132v-214zM494 523q0 42 -25.5 68t-72.5 33l-26 -212q58 3 91 31t33 79v1z
M194 102h69l26 220h-95v-220zM367 322h-7l-26 -220h38q68 0 105.5 28.5t37.5 81.5v1q0 52 -38 81t-110 28z" />
    <glyph glyph-name="Wgrave" unicode="&#x1e80;" horiz-adv-x="1168" 
d="M633 789h-95l-131 100l110 49zM297 -5l-255 733h133l178 -547l181 549h104l181 -549l178 547h128l-254 -733h-106l-181 531l-182 -531h-105z" />
    <glyph glyph-name="wgrave" unicode="&#x1e81;" horiz-adv-x="903" 
d="M408 619l-126 118l110 50l107 -168h-91zM218 -4l-180 552h124l114 -383l125 385h102l125 -385l116 383h121l-181 -552h-107l-125 381l-127 -381h-107z" />
    <glyph glyph-name="Wacute" unicode="&#x1e82;" horiz-adv-x="1168" 
d="M535 789l115 149l110 -49l-131 -100h-94zM297 -5l-255 733h133l178 -547l181 549h104l181 -549l178 547h128l-254 -733h-106l-181 531l-182 -531h-105z" />
    <glyph glyph-name="wacute" unicode="&#x1e83;" horiz-adv-x="903" 
d="M403 619l107 168l110 -50l-126 -118h-91zM218 -4l-180 552h124l114 -383l125 385h102l125 -385l116 383h121l-181 -552h-107l-125 381l-127 -381h-107z" />
    <glyph glyph-name="Wdieresis" unicode="&#x1e84;" horiz-adv-x="1168" 
d="M415 789v113h126v-113h-126zM627 789v113h125v-113h-125zM297 -5l-255 733h133l178 -547l181 549h104l181 -549l178 547h128l-254 -733h-106l-181 531l-182 -531h-105z" />
    <glyph glyph-name="wdieresis" unicode="&#x1e85;" horiz-adv-x="903" 
d="M289 619v120h124v-120h-124zM489 619v120h124v-120h-124zM218 -4l-180 552h124l114 -383l125 385h102l125 -385l116 383h121l-181 -552h-107l-125 381l-127 -381h-107z" />
    <glyph glyph-name="Ygrave" unicode="&#x1ef2;" horiz-adv-x="753" 
d="M426 787h-95l-131 100l110 49zM315 0v287l-291 441h145l208 -327l211 327h141l-291 -438v-290h-123z" />
    <glyph glyph-name="ygrave" unicode="&#x1ef3;" horiz-adv-x="628" 
d="M271 619l-126 118l110 50l107 -168h-91zM321 135l146 413h126l-219 -563q-33 -85 -74 -120t-107 -35q-67 0 -128 33l41 91q39 -22 75 -22q28 0 46.5 15t35.5 53l-231 548h129z" />
    <glyph glyph-name="enspace" unicode="&#x2002;" horiz-adv-x="500" 
 />
    <glyph glyph-name="emspace" unicode="&#x2003;" horiz-adv-x="1000" 
 />
    <glyph glyph-name="threeperemspace" unicode="&#x2004;" horiz-adv-x="333" 
 />
    <glyph glyph-name="fourperemspace" unicode="&#x2005;" horiz-adv-x="250" 
 />
    <glyph glyph-name="figurespace" unicode="&#x2007;" horiz-adv-x="630" 
 />
    <glyph glyph-name="thinspace" unicode="&#x2009;" horiz-adv-x="133" 
 />
    <glyph glyph-name="hairspace" unicode="&#x200a;" horiz-adv-x="75" 
 />
    <glyph glyph-name="endash" unicode="&#x2013;" horiz-adv-x="557" 
d="M63 260v115h431v-115h-431z" />
    <glyph glyph-name="emdash" unicode="&#x2014;" horiz-adv-x="942" 
d="M63 260v115h816v-115h-816z" />
    <glyph glyph-name="quoteleft" unicode="&#x2018;" horiz-adv-x="285" 
d="M71 446v118q0 82 38 121.5t117 47.5l13 -51q-93 -19 -87 -97h52v-139h-133z" />
    <glyph glyph-name="quoteright" unicode="&#x2019;" horiz-adv-x="285" 
d="M59 440l-13 52q93 19 87 97h-52v139h133v-118q0 -82 -38 -122t-117 -48z" />
    <glyph glyph-name="quotesinglbase" unicode="&#x201a;" horiz-adv-x="285" 
d="M54 -148l-13 51q93 19 87 97h-52v139h133v-118q0 -82 -38.5 -122t-116.5 -47z" />
    <glyph glyph-name="quotedblleft" unicode="&#x201c;" horiz-adv-x="522" 
d="M71 446v118q0 82 38 121.5t117 47.5l13 -51q-93 -19 -87 -97h52v-139h-133zM308 446v118q0 82 38 121.5t117 47.5l13 -51q-93 -20 -86 -97h51v-139h-133z" />
    <glyph glyph-name="quotedblright" unicode="&#x201d;" horiz-adv-x="522" 
d="M59 440l-13 52q93 19 87 97h-52v139h133v-118q0 -82 -38 -122t-117 -48zM296 440l-13 52q93 19 87 97h-52v139h134v-118q0 -82 -38.5 -122t-117.5 -48z" />
    <glyph glyph-name="quotedblbase" unicode="&#x201e;" horiz-adv-x="522" 
d="M54 -148l-13 51q93 19 87 97h-52v139h133v-118q0 -82 -38.5 -122t-116.5 -47zM291 -148l-13 51q93 19 87 97h-52v139h134v-118q0 -82 -38.5 -122t-117.5 -47z" />
    <glyph glyph-name="dagger" unicode="&#x2020;" horiz-adv-x="434" 
d="M181 248l8 286l-126 -9v72l125 -9l-11 140h80l-11 -140l126 9v-72l-127 9l9 -286h-73z" />
    <glyph glyph-name="daggerdbl" unicode="&#x2021;" horiz-adv-x="455" 
d="M187 0l12 140l-126 -9v72l126 -9l-8 170l8 170l-126 -9v72l126 -9l-12 140h81l-12 -140l126 9v-72l-126 9l8 -170l-8 -170l126 9v-72l-126 9l12 -140h-81z" />
    <glyph glyph-name="bullet" unicode="&#x2022;" horiz-adv-x="517" 
d="M259 220q-61 0 -103.5 42.5t-42.5 102.5v2q0 60 43 102.5t103 42.5q59 0 102 -42.5t43 -102.5v-2q0 -60 -42.5 -102.5t-102.5 -42.5z" />
    <glyph glyph-name="ellipsis" unicode="&#x2026;" horiz-adv-x="823" 
d="M76 0v136h130v-136h-130zM347 0v136h130v-136h-130zM617 0v136h131v-136h-131z" />
    <glyph glyph-name="perthousand" unicode="&#x2030;" horiz-adv-x="1283" 
d="M224 364q-74 0 -122 53.5t-48 130.5v2q0 77 48.5 131.5t123.5 54.5t122.5 -53.5t47.5 -130.5v-2q0 -77 -48.5 -131.5t-123.5 -54.5zM761 728l-287 -387l-246 -341h-100l286 386l247 342h100zM226 441q36 0 58 31t22 76v2q0 46 -23 77.5t-59 31.5t-58 -31t-22 -76v-2
q0 -45 23.5 -77t58.5 -32zM1057 -8q-75 0 -122.5 53.5t-47.5 130.5v2q0 78 48 132t124 54q74 0 122 -53.5t48 -130.5v-2q0 -77 -48.5 -131.5t-123.5 -54.5zM663 -8q-75 0 -122.5 53.5t-47.5 130.5v2q0 78 48 132t124 54q75 0 122.5 -53.5t47.5 -130.5v-2q0 -78 -48 -132
t-124 -54zM1059 69q36 0 58 31t22 76v2q0 45 -23.5 77t-58.5 32q-36 0 -58 -31t-22 -76v-2q0 -46 23 -77.5t59 -31.5zM665 69q36 0 58 31t22 76v2q0 45 -23.5 77t-58.5 32q-36 0 -58 -31t-22 -76v-2q0 -46 23 -77.5t59 -31.5z" />
    <glyph glyph-name="guilsinglleft" unicode="&#x2039;" horiz-adv-x="373" 
d="M229 44l-179 226v8l179 226l85 -44l-131 -185l131 -186z" />
    <glyph glyph-name="guilsinglright" unicode="&#x203a;" horiz-adv-x="373" 
d="M145 44l-86 44l131 185l-131 186l86 45l178 -226v-8z" />
    <glyph glyph-name="fraction" unicode="&#x2044;" horiz-adv-x="112" 
d="M-227 0l261 378l233 350h72l-261 -378l-233 -350h-72z" />
    <glyph glyph-name="zero.sup" unicode="&#x2070;" horiz-adv-x="420" 
d="M209 429q-71 0 -116 57.5t-45 151.5v4q0 94 46 153t116 59q71 0 117 -58.5t46 -151.5v-4q0 -94 -46.5 -152.5t-117.5 -58.5zM209 785q-38 0 -62 -37.5t-24 -103.5v-6q0 -66 24 -103.5t63 -37.5q38 0 62.5 38t24.5 103v6q0 65 -24.5 103t-63.5 38z" />
    <glyph glyph-name="four.sup" unicode="&#x2074;" horiz-adv-x="420" 
d="M322 525v-88h-68v88h-196l-10 68l198 255h76v-264h55v-59h-55zM255 584v181l-140 -181h140z" />
    <glyph glyph-name="five.sup" unicode="&#x2075;" horiz-adv-x="420" 
d="M206 429q-85 0 -155 62l44 55q56 -50 112 -50q36 0 58.5 19t22.5 49t-22.5 48t-59.5 18q-42 0 -82 -18l-47 28l16 203h249v-67h-189l-7 -95q33 12 74 12q62 0 102 -33t40 -92q0 -63 -43.5 -101t-112.5 -38z" />
    <glyph glyph-name="six.sup" unicode="&#x2076;" horiz-adv-x="420" 
d="M211 429q-66 0 -106 40q-52 52 -52 159v2q0 102 45.5 163t128.5 61q68 0 118 -44l-37 -57q-39 34 -84 34q-39 0 -66 -34t-29 -87q41 34 95 34q57 0 95.5 -34.5t38.5 -95.5q0 -62 -42 -101.5t-105 -39.5zM209 492q34 0 56 20.5t22 53.5q0 34 -21 54.5t-56 20.5
q-36 0 -58 -20.5t-22 -54.5v-1q0 -31 23.5 -52.5t55.5 -20.5z" />
    <glyph glyph-name="seven.sup" unicode="&#x2077;" horiz-adv-x="420" 
d="M178 437h-82l176 337h-202v69h286v-56z" />
    <glyph glyph-name="eight.sup" unicode="&#x2078;" horiz-adv-x="420" 
d="M210 429q-68 0 -110.5 32.5t-42.5 86.5q0 68 69 101q-58 32 -58 92q0 48 40.5 80.5t102.5 32.5q61 0 101 -32.5t40 -80.5q0 -60 -58 -92q69 -34 69 -99q0 -55 -42.5 -88t-110.5 -33zM210 794q-32 0 -52.5 -16.5t-20.5 -42.5q0 -28 20.5 -45t52.5 -17t52.5 17t20.5 45
q0 26 -20.5 42.5t-52.5 16.5zM210 617q-37 0 -60.5 -18t-23.5 -47t23 -47t61 -18t60.5 18t22.5 47t-23 47t-60 18z" />
    <glyph glyph-name="nine.sup" unicode="&#x2079;" horiz-adv-x="420" 
d="M210 637q36 0 58 21t22 56v1q0 32 -23.5 54t-55.5 21q-34 0 -56 -21t-22 -55q0 -35 21 -56t56 -21zM209 853q66 0 106 -40q52 -52 52 -158v-2q0 -104 -45.5 -164t-128.5 -60q-71 0 -125 46l37 57q42 -37 91 -37q39 0 65.5 32.5t28.5 84.5q-41 -34 -93 -34q-57 0 -96 35
t-39 97t42 102.5t105 40.5z" />
    <glyph glyph-name="zero.inf" unicode="&#x2080;" horiz-adv-x="420" 
d="M209 -147q-71 0 -116 57.5t-45 151.5v4q0 94 46 153t116 59q71 0 117 -58.5t46 -151.5v-4q0 -94 -46.5 -152.5t-117.5 -58.5zM209 209q-38 0 -62 -37.5t-24 -103.5v-6q0 -66 24 -103.5t63 -37.5q38 0 62.5 38t24.5 103v6q0 65 -24.5 103t-63.5 38z" />
    <glyph glyph-name="one.inf" unicode="&#x2081;" horiz-adv-x="342" 
d="M232 -137h-73v333l-83 -31l-20 61l120 47h56v-410z" />
    <glyph glyph-name="two.inf" unicode="&#x2082;" horiz-adv-x="420" 
d="M59 -137v63l145 121q41 34 57.5 56.5t16.5 48.5t-19 42t-47 16q-52 0 -97 -62l-53 41q31 44 67 66.5t88 22.5q61 0 99 -33.5t38 -86.5q0 -41 -20 -72t-69 -72l-106 -86h198v-65h-298z" />
    <glyph glyph-name="three.inf" unicode="&#x2083;" horiz-adv-x="420" 
d="M207 -147q-93 0 -158 67l45 53q52 -54 114 -54q29 0 50.5 17.5t21.5 44.5q0 29 -25 45t-65 16h-42l-12 46l119 113h-180v66h272v-57l-121 -113q57 -4 92.5 -33t35.5 -81q0 -58 -41 -94t-106 -36z" />
    <glyph glyph-name="four.inf" unicode="&#x2084;" horiz-adv-x="420" 
d="M322 -51v-88h-68v88h-196l-10 68l198 255h76v-264h55v-59h-55zM255 8v181l-140 -181h140z" />
    <glyph glyph-name="five.inf" unicode="&#x2085;" horiz-adv-x="420" 
d="M206 -147q-85 0 -155 62l44 55q56 -50 112 -50q36 0 58.5 19t22.5 49t-22.5 48t-59.5 18q-42 0 -82 -18l-47 28l16 203h249v-67h-189l-7 -95q33 12 74 12q62 0 102 -33t40 -92q0 -63 -43.5 -101t-112.5 -38z" />
    <glyph glyph-name="six.inf" unicode="&#x2086;" horiz-adv-x="420" 
d="M211 -147q-66 0 -106 40q-52 52 -52 159v2q0 102 45.5 163t128.5 61q68 0 118 -44l-37 -57q-39 34 -84 34q-39 0 -66 -34t-29 -87q41 34 95 34q57 0 95.5 -34.5t38.5 -95.5q0 -62 -42 -101.5t-105 -39.5zM209 -84q34 0 56 20.5t22 53.5q0 34 -21 54.5t-56 20.5
q-36 0 -58 -20.5t-22 -54.5v-1q0 -31 23.5 -52.5t55.5 -20.5z" />
    <glyph glyph-name="seven.inf" unicode="&#x2087;" horiz-adv-x="420" 
d="M178 -139h-82l176 337h-202v69h286v-56z" />
    <glyph glyph-name="eight.inf" unicode="&#x2088;" horiz-adv-x="420" 
d="M210 -147q-68 0 -110.5 32.5t-42.5 86.5q0 68 69 101q-58 32 -58 92q0 48 40.5 80.5t102.5 32.5q61 0 101 -32.5t40 -80.5q0 -60 -58 -92q69 -34 69 -99q0 -55 -42.5 -88t-110.5 -33zM210 218q-32 0 -52.5 -16.5t-20.5 -42.5q0 -28 20.5 -45t52.5 -17t52.5 17t20.5 45
q0 26 -20.5 42.5t-52.5 16.5zM210 41q-37 0 -60.5 -18t-23.5 -47t23 -47t61 -18t60.5 18t22.5 47t-23 47t-60 18z" />
    <glyph glyph-name="nine.inf" unicode="&#x2089;" horiz-adv-x="420" 
d="M210 61q36 0 58 21t22 56v1q0 32 -23.5 54t-55.5 21q-34 0 -56 -21t-22 -55q0 -35 21 -56t56 -21zM209 277q66 0 106 -40q52 -52 52 -158v-2q0 -104 -45.5 -164t-128.5 -60q-71 0 -125 46l37 57q42 -37 91 -37q39 0 65.5 32.5t28.5 84.5q-41 -34 -93 -34q-57 0 -96 35
t-39 97t42 102.5t105 40.5z" />
    <glyph glyph-name="colonmonetary" unicode="&#x20a1;" horiz-adv-x="646" 
d="M294 116q38 -16 87 -16l74 514q-37 14 -77 14h-11zM164 357q0 -141 78 -209l67 468q-66 -23 -105.5 -88.5t-39.5 -162.5v-8zM480 811h62l-15 -113q37 -16 73 -46l-47 -102q-24 21 -46 36l-68 -479q50 15 105 67l61 -79q-82 -78 -178 -92l-17 -126h-63l17 123
q-41 0 -82 11l-18 -134h-63l22 158q-79 42 -125.5 126.5t-46.5 197.5v9q0 144 75.5 240t195.5 116l12 87h62l-12 -82q48 -2 83 -10z" />
    <glyph glyph-name="naira" unicode="&#x20a6;" horiz-adv-x="874" 
d="M259 558v-263h165l-162 263h-3zM612 184h3v253h-159zM834 220h-105v-220h-127l-136 220h-205v-220h-116v220h-105v78h105v136h-105v78h105v216h137l132 -216h199v216h116v-216h105v-78h-105v-136h105v-78z" />
    <glyph glyph-name="rupee" unicode="&#x20a8;" horiz-adv-x="1148" 
d="M201 361h140q66 0 105 35t39 95v4q0 63 -38.5 95t-107.5 32h-138v-261zM86 0v728h261q118 0 186.5 -61t68.5 -168v-3q0 -81 -41.5 -135.5t-110.5 -78.5l174 -282h-134l-158 259h-131v-259h-115zM900 -10q-122 0 -224 75l51 81q89 -64 176 -64q39 0 64 17.5t25 45.5v2
q0 26 -23 42.5t-94 40.5q-91 29 -132.5 65t-41.5 98v2q0 73 54.5 117.5t137.5 44.5q100 0 190 -58l-44 -85q-82 50 -149 50q-38 0 -61 -17t-23 -42v-2q0 -26 25 -43.5t95 -40.5q91 -29 131 -65t40 -98v-2q0 -77 -56 -120.5t-141 -43.5z" />
    <glyph glyph-name="won" unicode="&#x20a9;" horiz-adv-x="1166" 
d="M580 591l-78 -290h160l-77 290h-5zM811 132h6l68 296h-152zM353 132h5l78 296h-153zM1081 728l-61 -223h105v-81h-127l-32 -120h159v-80h-181l-61 -226h-139l-63 226h-197l-62 -226h-140l-62 226h-179v80h158l-33 120h-125v81h103l-60 223h132l53 -223h185l61 225h140
l60 -225h186l53 223h127z" />
    <glyph glyph-name="sheqel" unicode="&#x20aa;" horiz-adv-x="660" 
d="M362 359q0 89 -92 89h-106v-448h-94v548h216q70 0 106.5 -35.5t36.5 -104.5v-201h-67v152zM247 145l-30 200h67l25 -157q14 -88 102 -88h85v448h93v-548h-179q-73 0 -112.5 35.5t-50.5 109.5z" />
    <glyph glyph-name="Euro" unicode="&#x20ac;" horiz-adv-x="757" 
d="M704 603l-93 -69q-36 50 -73 73.5t-90 23.5q-57 0 -100 -35.5t-66 -97.5h230v-86h-248q-2 -15 -2 -47v-1q0 -28 1 -42h249v-86h-232q22 -66 68 -103t108 -36q50 0 87 25t75 77l88 -64q-48 -71 -108 -109t-143 -38q-112 0 -191.5 67.5t-110.5 180.5h-94v86h80q-1 13 -1 41
v1q0 32 2 48h-81v86h97q32 109 109.5 176t185.5 66q88 0 147.5 -35.5t105.5 -101.5z" />
    <glyph glyph-name="peso" unicode="&#x20b1;" horiz-adv-x="782" 
d="M141 0v439h-105v75h105v214h241q115 0 188.5 -58.5t85.5 -155.5h100v-75h-100q-13 -103 -94 -161t-195 -58h-103v-220h-123zM261 622v-112h272q-10 54 -53.5 83t-110.5 29h-108zM369 324q68 0 111.5 32.5t52.5 86.5h-272v-119h108z" />
    <glyph glyph-name="hryvnia" unicode="&#x20b4;" horiz-adv-x="674" 
d="M58 445l7 57l305 -37q36 29 51.5 50.5t15.5 47.5q0 33 -24.5 52.5t-68.5 19.5q-81 0 -166 -69l-64 83q108 91 240 91q99 0 157 -48.5t58 -121.5q0 -64 -56 -122l125 -15l-8 -58l-174 21l-87 -74l249 -30l-7 -57l-302 36q-45 -36 -60.5 -59t-15.5 -48q0 -34 27 -52.5
t73 -18.5q88 0 180 71l64 -84q-118 -92 -253 -92q-106 0 -165 48.5t-59 120.5q0 68 64 132l-126 15l8 58l176 -22l88 74z" />
    <glyph glyph-name="numero" unicode="&#x2116;" horiz-adv-x="1181" 
d="M926 291q-85 0 -138.5 62t-53.5 155v7q0 94 54 155.5t139 61.5t138.5 -61.5t53.5 -155.5v-6q0 -94 -54 -156t-139 -62zM927 370q45 0 73.5 39t28.5 98v7q0 60 -28.5 99.5t-74.5 39.5q-45 0 -73.5 -39t-28.5 -98v-7q0 -60 28.5 -99.5t74.5 -39.5zM84 0v728h107l328 -495
v495h113v-728h-98l-337 511v-511h-113zM742 140v71h368v-71h-368z" />
    <glyph glyph-name="published" unicode="&#x2117;" horiz-adv-x="871" 
d="M435 -12q-158 0 -267 109.5t-109 264.5v2q0 155 110.5 265.5t267.5 110.5t266 -109.5t109 -264.5v-2q0 -155 -110 -265.5t-267 -110.5zM435 25q143 0 240.5 99t97.5 240v2q0 140 -97 238.5t-239 98.5q-144 0 -241.5 -99t-97.5 -240v-2q0 -141 97 -239t240 -98zM302 175
v393h159q70 0 111 -35.5t41 -96.5v-2q0 -64 -46 -99t-114 -35h-76v-125h-75zM377 365h77q39 0 61 18.5t22 49.5v2q0 32 -22 49.5t-61 17.5h-77v-137z" />
    <glyph glyph-name="servicemark" unicode="&#x2120;" horiz-adv-x="741" 
d="M374 408v320h63l99 -154l98 154h62v-320h-57v230l-101 -156h-6l-101 156v-230h-57zM179 402q-81 0 -144 52l33 41q54 -44 114 -44q29 0 45.5 11.5t16.5 30.5q0 18 -16 28.5t-60 20.5q-60 14 -88.5 34.5t-28.5 60.5q0 43 32.5 70t85.5 27q74 0 124 -42l-32 -42
q-45 34 -93 34q-28 0 -43.5 -11.5t-15.5 -28.5q0 -19 16.5 -29.5t61.5 -20.5q57 -13 86 -34.5t29 -60.5q0 -44 -34.5 -70.5t-88.5 -26.5z" />
    <glyph glyph-name="trademark" unicode="&#x2122;" horiz-adv-x="726" 
d="M130 408v266h-99v54h258v-54h-99v-266h-60zM358 408v320h64l98 -154l99 154h62v-320h-58v230l-101 -156h-5l-101 156v-230h-58z" />
    <glyph glyph-name="Omega" unicode="&#x2126;" horiz-adv-x="912" 
d="M457 740q168 0 268.5 -96t100.5 -244v-1q0 -172 -168 -294l188 1v-106h-317v103q82 56 125 121t43 162v1q0 107 -66 174t-176 66q-109 0 -174.5 -66t-65.5 -172v-1q0 -94 43 -161t125 -124v-103h-317v106l187 -1q-167 124 -167 295v1q0 69 26 130.5t72.5 108t117.5 73.5
t155 27z" />
    <glyph glyph-name="onethird" unicode="&#x2153;" horiz-adv-x="867" 
d="M232 324h-73v333l-83 -31l-20 61l120 47h56v-410zM115 0l261 378l233 350h72l-261 -378l-233 -350h-72zM661 -10q-93 0 -158 67l45 53q52 -54 114 -54q29 0 50.5 17.5t21.5 44.5q0 29 -25 45t-65 16h-42l-12 46l119 113h-180v66h272v-57l-121 -113q57 -4 92.5 -33
t35.5 -81q0 -58 -41 -94t-106 -36z" />
    <glyph glyph-name="twothirds" unicode="&#x2154;" horiz-adv-x="945" 
d="M51 324v63l145 121q41 34 57.5 56.5t16.5 48.5t-19 42t-47 16q-52 0 -97 -62l-53 41q31 44 67 66t88 22q60 0 98.5 -33.5t38.5 -85.5q0 -41 -20 -72t-69 -72l-106 -86h198v-65h-298zM189 0l261 378l233 350h72l-261 -378l-233 -350h-72zM739 -10q-93 0 -158 67l45 53
q52 -54 114 -54q29 0 50.5 17.5t21.5 44.5q0 29 -25 45t-65 16h-42l-12 46l119 113h-180v66h272v-57l-121 -113q57 -4 92.5 -33t35.5 -81q0 -58 -41 -94t-106 -36z" />
    <glyph glyph-name="onefifth" unicode="&#x2155;" horiz-adv-x="867" 
d="M232 324h-73v333l-83 -31l-20 61l120 47h56v-410zM120 0l261 378l233 350h72l-261 -378l-233 -350h-72zM660 -10q-85 0 -155 62l44 55q56 -50 112 -50q36 0 58.5 19t22.5 49t-22.5 48t-59.5 18q-42 0 -82 -18l-47 28l16 203h249v-67h-189l-7 -95q33 12 74 12
q62 0 102 -33t40 -92q0 -63 -43.5 -101t-112.5 -38z" />
    <glyph glyph-name="twofifths" unicode="&#x2156;" horiz-adv-x="945" 
d="M51 324v63l145 121q41 34 57.5 56.5t16.5 48.5t-19 42t-47 16q-52 0 -97 -62l-53 41q31 44 67 66t88 22q60 0 98.5 -33.5t38.5 -85.5q0 -41 -20 -72t-69 -72l-106 -86h198v-65h-298zM199 0l261 378l233 350h72l-261 -378l-233 -350h-72zM738 -10q-85 0 -155 62l44 55
q56 -50 112 -50q36 0 58.5 19t22.5 49t-22.5 48t-59.5 18q-42 0 -82 -18l-47 28l16 203h249v-67h-189l-7 -95q33 12 74 12q62 0 102 -33t40 -92q0 -63 -43.5 -101t-112.5 -38z" />
    <glyph glyph-name="threefifths" unicode="&#x2157;" horiz-adv-x="945" 
d="M184 0l261 378l233 350h72l-261 -378l-233 -350h-72zM199 313q-92 0 -158 68l45 53q52 -54 114 -54q30 0 51 17t21 45q0 29 -25 45t-65 16h-42l-12 46l119 113h-180v66h272v-58l-121 -112q56 -4 92 -33t36 -81q0 -58 -41 -94.5t-106 -36.5zM738 -10q-85 0 -155 62l44 55
q56 -50 112 -50q36 0 58.5 19t22.5 49t-22.5 48t-59.5 18q-42 0 -82 -18l-47 28l16 203h249v-67h-189l-7 -95q33 12 74 12q62 0 102 -33t40 -92q0 -63 -43.5 -101t-112.5 -38z" />
    <glyph glyph-name="fourfifths" unicode="&#x2158;" horiz-adv-x="945" 
d="M314 410v-88h-68v88h-196l-10 68l198 255h76v-264h55v-59h-55zM199 0l261 378l233 350h72l-261 -378l-233 -350h-72zM247 469v181l-140 -181h140zM738 -10q-85 0 -155 62l44 55q56 -50 112 -50q36 0 58.5 19t22.5 49t-22.5 48t-59.5 18q-42 0 -82 -18l-47 28l16 203h249
v-67h-189l-7 -95q33 12 74 12q62 0 102 -33t40 -92q0 -63 -43.5 -101t-112.5 -38z" />
    <glyph glyph-name="onesixth" unicode="&#x2159;" horiz-adv-x="867" 
d="M232 324h-73v333l-83 -31l-20 61l120 47h56v-410zM127 0l261 378l233 350h72l-261 -378l-233 -350h-72zM665 -10q-66 0 -106 40q-52 52 -52 159v2q0 102 45.5 163t128.5 61q68 0 118 -44l-37 -57q-39 34 -84 34q-39 0 -66 -34t-29 -87q41 34 95 34q57 0 95.5 -34.5
t38.5 -95.5q0 -62 -42 -101.5t-105 -39.5zM663 53q34 0 56 20.5t22 53.5q0 34 -21 54.5t-56 20.5q-36 0 -58 -20.5t-22 -54.5v-1q0 -31 23.5 -52.5t55.5 -20.5z" />
    <glyph glyph-name="fivesixths" unicode="&#x215a;" horiz-adv-x="945" 
d="M189 0l261 378l233 350h72l-261 -378l-233 -350h-72zM198 313q-83 0 -155 63l44 55q56 -50 112 -50q36 0 58.5 19t22.5 49t-22.5 48t-59.5 18q-42 0 -82 -18l-47 28l16 203h249v-68h-189l-7 -94q30 11 74 11q62 0 102 -32.5t40 -91.5q0 -63 -43.5 -101.5t-112.5 -38.5z
M743 -10q-66 0 -106 40q-52 52 -52 159v2q0 102 45.5 163t128.5 61q68 0 118 -44l-37 -57q-39 34 -84 34q-39 0 -66 -34t-29 -87q41 34 95 34q57 0 95.5 -34.5t38.5 -95.5q0 -62 -42 -101.5t-105 -39.5zM741 53q34 0 56 20.5t22 53.5q0 34 -21 54.5t-56 20.5
q-36 0 -58 -20.5t-22 -54.5v-1q0 -31 23.5 -52.5t55.5 -20.5z" />
    <glyph glyph-name="oneeighth" unicode="&#x215b;" horiz-adv-x="867" 
d="M232 324h-73v333l-83 -31l-20 61l120 47h56v-410zM123 0l261 378l233 350h72l-261 -378l-233 -350h-72zM664 -10q-68 0 -110.5 32.5t-42.5 86.5q0 68 69 101q-58 32 -58 92q0 48 40.5 80.5t102.5 32.5q61 0 101 -32.5t40 -80.5q0 -60 -58 -92q69 -34 69 -99
q0 -55 -42.5 -88t-110.5 -33zM664 355q-32 0 -52.5 -16.5t-20.5 -42.5q0 -28 20.5 -45t52.5 -17t52.5 17t20.5 45q0 26 -20.5 42.5t-52.5 16.5zM664 178q-37 0 -60.5 -18t-23.5 -47t23 -47t61 -18t60.5 18t22.5 47t-23 47t-60 18z" />
    <glyph glyph-name="threeeighths" unicode="&#x215c;" horiz-adv-x="945" 
d="M189 0l261 378l233 350h72l-261 -378l-233 -350h-72zM199 313q-92 0 -158 68l45 53q52 -54 114 -54q30 0 51 17t21 45q0 29 -25 45t-65 16h-42l-12 46l119 113h-180v66h272v-58l-121 -112q56 -4 92 -33t36 -81q0 -58 -41 -94.5t-106 -36.5zM742 -10q-68 0 -110.5 32.5
t-42.5 86.5q0 68 69 101q-58 32 -58 92q0 48 40.5 80.5t102.5 32.5q61 0 101 -32.5t40 -80.5q0 -60 -58 -92q69 -34 69 -99q0 -55 -42.5 -88t-110.5 -33zM742 355q-32 0 -52.5 -16.5t-20.5 -42.5q0 -28 20.5 -45t52.5 -17t52.5 17t20.5 45q0 26 -20.5 42.5t-52.5 16.5z
M742 178q-37 0 -60.5 -18t-23.5 -47t23 -47t61 -18t60.5 18t22.5 47t-23 47t-60 18z" />
    <glyph glyph-name="fiveeighths" unicode="&#x215d;" horiz-adv-x="945" 
d="M189 0l261 378l233 350h72l-261 -378l-233 -350h-72zM198 313q-83 0 -155 63l44 55q56 -50 112 -50q36 0 58.5 19t22.5 49t-22.5 48t-59.5 18q-42 0 -82 -18l-47 28l16 203h249v-68h-189l-7 -94q30 11 74 11q62 0 102 -32.5t40 -91.5q0 -63 -43.5 -101.5t-112.5 -38.5z
M742 -10q-68 0 -110.5 32.5t-42.5 86.5q0 68 69 101q-58 32 -58 92q0 48 40.5 80.5t102.5 32.5q61 0 101 -32.5t40 -80.5q0 -60 -58 -92q69 -34 69 -99q0 -55 -42.5 -88t-110.5 -33zM742 355q-32 0 -52.5 -16.5t-20.5 -42.5q0 -28 20.5 -45t52.5 -17t52.5 17t20.5 45
q0 26 -20.5 42.5t-52.5 16.5zM742 178q-37 0 -60.5 -18t-23.5 -47t23 -47t61 -18t60.5 18t22.5 47t-23 47t-60 18z" />
    <glyph glyph-name="seveneighths" unicode="&#x215e;" horiz-adv-x="945" 
d="M158 0l261 378l233 350h72l-261 -378l-233 -350h-72zM180 322h-82l176 337h-202v69h286v-57zM742 -10q-68 0 -110.5 32.5t-42.5 86.5q0 68 69 101q-58 32 -58 92q0 48 40.5 80.5t102.5 32.5q61 0 101 -32.5t40 -80.5q0 -60 -58 -92q69 -34 69 -99q0 -55 -42.5 -88
t-110.5 -33zM742 355q-32 0 -52.5 -16.5t-20.5 -42.5q0 -28 20.5 -45t52.5 -17t52.5 17t20.5 45q0 26 -20.5 42.5t-52.5 16.5zM742 178q-37 0 -60.5 -18t-23.5 -47t23 -47t61 -18t60.5 18t22.5 47t-23 47t-60 18z" />
    <glyph glyph-name="Delta" unicode="&#x2206;" horiz-adv-x="827" 
d="M62 0l-10 89l298 644h127l298 -644l-10 -89h-703zM412 597l-221 -488h440z" />
    <glyph glyph-name="minus" unicode="&#x2212;" horiz-adv-x="666" 
d="M592 310h-517v113h517v-113z" />
    <glyph glyph-name="Q.alt" horiz-adv-x="892" 
d="M702 -105l-121 116q-64 -23 -136 -23q-164 0 -271.5 109t-107.5 265v2q0 156 108.5 266t272.5 110t271.5 -109t107.5 -265v-2q0 -83 -33 -156.5t-93 -126.5l185 -182v-4h-183zM447 101q109 0 179.5 75.5t70.5 185.5v2q0 110 -71.5 186.5t-180.5 76.5t-179.5 -75.5
t-70.5 -185.5v-2q0 -110 71.5 -186.5t180.5 -76.5z" />
    <glyph glyph-name="a.alt" horiz-adv-x="705" 
d="M339 93q67 0 115.5 50.5t48.5 129.5v2q0 79 -48.5 129.5t-115.5 50.5q-68 0 -114.5 -49.5t-46.5 -130.5v-2q0 -80 47 -130t114 -50zM311 -11q-103 0 -179 77t-76 207v2q0 130 75.5 207t179.5 77q115 0 189 -98v87h121v-548h-121v94q-73 -105 -189 -105z" />
    <glyph glyph-name="uni039E.alt" horiz-adv-x="780" 
d="M717 109v-109h-654v109h268v203h-236v109h236v198h-263v109h644v-109h-263v-198h236v-109h-236v-203h268z" />
    <glyph glyph-name="uni0424.bgr" horiz-adv-x="1008" 
d="M443 -104v103q-169 7 -273 109t-104 254v2q0 150 104 252.5t273 112.5v103h123v-103q169 -8 272.5 -110t103.5 -253v-2q0 -150 -104 -253t-272 -112v-103h-123zM815 364q0 106 -69 177t-184 76v-507q116 5 184.5 74.5t68.5 177.5v2zM194 364q0 -107 68.5 -177.5
t183.5 -76.5v507q-115 -5 -183.5 -74.5t-68.5 -176.5v-2z" />
    <glyph glyph-name="uni0432.bgr" horiz-adv-x="681" 
d="M74 269v228q0 126 72 197.5t199 71.5q115 0 183 -56.5t68 -150.5v-1q0 -70 -39.5 -115t-105.5 -63q85 -20 129.5 -63.5t44.5 -122.5v-1q0 -89 -73.5 -147.5t-193.5 -57.5q-136 0 -210 69t-74 212zM194 497v-78h98q87 0 136 35t49 97q0 50 -35.5 82t-95.5 32
q-71 0 -111.5 -45t-40.5 -123zM293 331h-99v-61q0 -181 165 -181q67 0 106.5 32.5t39.5 83.5q0 126 -212 126z" />
    <glyph glyph-name="uni0433.bgr" horiz-adv-x="545" 
d="M243 -10q-89 0 -140.5 40.5t-51.5 113.5v3q0 65 44 103.5t142 70.5q84 27 110 43t26 42v1q0 24 -19.5 39.5t-58.5 14.5q-82 0 -176 -57l-49 85q109 68 227 68q90 0 138.5 -41.5t48.5 -112.5v-2q0 -65 -43.5 -100t-144.5 -68q-80 -26 -107 -43.5t-27 -45.5v-1
q0 -58 85 -58q91 0 201 73l52 -82q-123 -86 -257 -86z" />
    <glyph glyph-name="uni0434.bgr" horiz-adv-x="705" 
d="M337 146q68 0 117 43.5t49 110.5v2q0 68 -48.5 111.5t-117.5 43.5q-68 0 -113.5 -43t-45.5 -111v-2q0 -68 46 -111.5t113 -43.5zM328 -168q-135 0 -246 66l46 91q92 -59 197 -59q85 0 130.5 43.5t45.5 127.5v44q-79 -101 -195 -101q-102 0 -176 70t-74 186v2
q0 116 74.5 186.5t175.5 70.5q115 0 194 -95v84h121v-437q0 -136 -70 -206q-73 -73 -223 -73z" />
    <glyph glyph-name="uni0436.bgr" horiz-adv-x="932" 
d="M525 759l-1 -431h64l177 220h142l-226 -268l234 -280h-142l-183 225h-66l1 -225h-118l1 225h-67l-182 -225h-142l235 274l-226 274h143l176 -220h64l-2 431h118z" />
    <glyph glyph-name="uni0438.bgr" horiz-adv-x="652" 
d="M275 -11q-93 0 -145.5 57t-52.5 154v348h121v-312q0 -65 32 -101t89 -36q58 0 93.5 37.5t35.5 101.5v310h120v-548h-120v86q-67 -97 -173 -97z" />
    <glyph glyph-name="uni0439.bgr" horiz-adv-x="652" 
d="M322 617q-75 0 -122.5 39t-52.5 109h83q20 -64 92 -64t92 64h84q-6 -70 -53.5 -109t-122.5 -39zM275 -11q-93 0 -145.5 57t-52.5 154v348h121v-312q0 -65 32 -101t89 -36q58 0 93.5 37.5t35.5 101.5v310h120v-548h-120v86q-67 -97 -173 -97z" />
    <glyph glyph-name="uni043A.bgr" horiz-adv-x="621" 
d="M204 759v-430h67l178 219h148l-231 -268l239 -280h-146l-185 224h-70v-224h-120v759h120z" />
    <glyph glyph-name="uni043F.bgr" horiz-adv-x="652" 
d="M84 0v548h120v-86q67 97 174 97q92 0 144.5 -57t52.5 -154v-348h-121v312q0 65 -31.5 101t-89.5 36t-93.5 -37.5t-35.5 -101.5v-310h-120z" />
    <glyph glyph-name="uni0442.bgr" horiz-adv-x="996" 
d="M84 0v548h120v-85q69 96 169 96q117 0 165 -97q74 97 186 97q90 0 141.5 -55.5t51.5 -155.5v-348h-120v312q0 66 -30 101.5t-85 35.5q-54 0 -87.5 -36.5t-33.5 -102.5v-310h-121v314q0 65 -30 100t-84 35q-55 0 -88.5 -38t-33.5 -102v-309h-120z" />
    <glyph glyph-name="uni0446.bgr" horiz-adv-x="674" 
d="M275 -11q-93 0 -145.5 57t-52.5 154v348h121v-312q0 -65 32 -101t89 -36q58 0 93.5 37.5t35.5 101.5v310h120v-439h69v-246h-109v137h-80v86q-67 -97 -173 -97z" />
    <glyph glyph-name="uni0448.bgr" horiz-adv-x="996" 
d="M913 548v-548h-121v85q-69 -96 -169 -96q-115 0 -164 97q-74 -97 -186 -97q-91 0 -142.5 55.5t-51.5 155.5v348h121v-312q0 -66 30 -101.5t85 -35.5q53 0 86.5 36.5t33.5 102.5v310h121v-314q0 -65 30 -100t84 -35q55 0 88.5 38t33.5 102v309h121z" />
    <glyph glyph-name="uni0449.bgr" horiz-adv-x="1018" 
d="M872 -137v137h-80v85q-69 -96 -169 -96q-115 0 -164 97q-74 -97 -186 -97q-91 0 -142.5 55.5t-51.5 155.5v348h121v-312q0 -66 30 -101.5t85 -35.5q53 0 86.5 36.5t33.5 102.5v310h121v-314q0 -65 30 -100t84 -35q55 0 88.5 38t33.5 102v309h121v-439h68v-246h-109z" />
    <glyph glyph-name="uni044E.bgr" horiz-adv-x="930" 
d="M591 -12q-107 0 -185 66t-95 167h-107v-221h-120v759h120v-427h109q20 98 97.5 162.5t182.5 64.5q121 0 202 -82.5t81 -201.5v-2q0 -118 -81.5 -201.5t-203.5 -83.5zM593 93q73 0 118 51.5t45 126.5v2q0 75 -47 128t-118 53q-72 0 -117.5 -52t-45.5 -127v-2
q0 -75 47 -127.5t118 -52.5z" />
    <glyph glyph-name="aacute.alt" horiz-adv-x="705" 
d="M310 619l107 168l110 -50l-126 -118h-91zM339 93q67 0 115.5 50.5t48.5 129.5v2q0 79 -48.5 129.5t-115.5 50.5q-68 0 -114.5 -49.5t-46.5 -130.5v-2q0 -80 47 -130t114 -50zM311 -11q-103 0 -179 77t-76 207v2q0 130 75.5 207t179.5 77q115 0 189 -98v87h121v-548h-121
v94q-73 -105 -189 -105z" />
    <glyph glyph-name="abreve.alt" horiz-adv-x="705" 
d="M358 617q-75 0 -122.5 39t-52.5 109h83q20 -64 92 -64t92 64h84q-6 -70 -53.5 -109t-122.5 -39zM339 93q67 0 115.5 50.5t48.5 129.5v2q0 79 -48.5 129.5t-115.5 50.5q-68 0 -114.5 -49.5t-46.5 -130.5v-2q0 -80 47 -130t114 -50zM311 -11q-103 0 -179 77t-76 207v2
q0 130 75.5 207t179.5 77q115 0 189 -98v87h121v-548h-121v94q-73 -105 -189 -105z" />
    <glyph glyph-name="acircumflex.alt" horiz-adv-x="705" 
d="M183 619l119 150h112l120 -150h-97l-80 69l-80 -69h-94zM339 93q67 0 115.5 50.5t48.5 129.5v2q0 79 -48.5 129.5t-115.5 50.5q-68 0 -114.5 -49.5t-46.5 -130.5v-2q0 -80 47 -130t114 -50zM311 -11q-103 0 -179 77t-76 207v2q0 130 75.5 207t179.5 77q115 0 189 -98v87
h121v-548h-121v94q-73 -105 -189 -105z" />
    <glyph glyph-name="adieresis.alt" horiz-adv-x="705" 
d="M196 619v120h124v-120h-124zM396 619v120h124v-120h-124zM339 93q67 0 115.5 50.5t48.5 129.5v2q0 79 -48.5 129.5t-115.5 50.5q-68 0 -114.5 -49.5t-46.5 -130.5v-2q0 -80 47 -130t114 -50zM311 -11q-103 0 -179 77t-76 207v2q0 130 75.5 207t179.5 77q115 0 189 -98v87
h121v-548h-121v94q-73 -105 -189 -105z" />
    <glyph glyph-name="agrave.alt" horiz-adv-x="705" 
d="M315 619l-126 118l110 50l107 -168h-91zM339 93q67 0 115.5 50.5t48.5 129.5v2q0 79 -48.5 129.5t-115.5 50.5q-68 0 -114.5 -49.5t-46.5 -130.5v-2q0 -80 47 -130t114 -50zM311 -11q-103 0 -179 77t-76 207v2q0 130 75.5 207t179.5 77q115 0 189 -98v87h121v-548h-121
v94q-73 -105 -189 -105z" />
    <glyph glyph-name="amacron.alt" horiz-adv-x="705" 
d="M183 632v88h350v-88h-350zM339 93q67 0 115.5 50.5t48.5 129.5v2q0 79 -48.5 129.5t-115.5 50.5q-68 0 -114.5 -49.5t-46.5 -130.5v-2q0 -80 47 -130t114 -50zM311 -11q-103 0 -179 77t-76 207v2q0 130 75.5 207t179.5 77q115 0 189 -98v87h121v-548h-121v94
q-73 -105 -189 -105z" />
    <glyph glyph-name="aogonek.alt" horiz-adv-x="705" 
d="M634 -112v-59q-22 -2 -31 -2q-65 1 -100.5 25t-35.5 63q0 41 42 85h-9v94q-73 -105 -189 -105q-103 0 -179 77t-76 207v2q0 130 75.5 207t179.5 77q115 0 189 -98v87h121v-548h-26q-36 -35 -36 -67q0 -45 75 -45zM339 93q67 0 115.5 50.5t48.5 129.5v2q0 79 -48.5 129.5
t-115.5 50.5q-68 0 -114.5 -49.5t-46.5 -130.5v-2q0 -80 47 -130t114 -50z" />
    <glyph glyph-name="aring.alt" horiz-adv-x="705" 
d="M358 617q-50 0 -85 33.5t-35 81.5t35 82t85 34t85 -34t35 -82t-35 -81.5t-85 -33.5zM358 662q28 0 49 21t21 49t-21 49t-49 21t-49 -21t-21 -49t21 -49t49 -21zM339 93q67 0 115.5 50.5t48.5 129.5v2q0 79 -48.5 129.5t-115.5 50.5q-68 0 -114.5 -49.5t-46.5 -130.5v-2
q0 -80 47 -130t114 -50zM311 -11q-103 0 -179 77t-76 207v2q0 130 75.5 207t179.5 77q115 0 189 -98v87h121v-548h-121v94q-73 -105 -189 -105z" />
    <glyph glyph-name="aring.alt2" horiz-adv-x="617" 
d="M240 626q0 -28 21 -49t49 -21t49 21t21 49t-21 49t-49 21t-49 -21t-21 -49zM275 77q65 0 108 33.5t43 86.5v40q-61 22 -129 22q-62 0 -97 -25t-35 -69v-2q0 -40 31.5 -63t78.5 -23zM243 -11q-82 0 -139 45t-57 124v2q0 86 61.5 131t165.5 45q79 0 150 -23v14
q0 60 -35.5 91.5t-103.5 31.5q-77 0 -158 -34l-32 94q67 30 128 39q-33 31 -33 77q0 48 35 81.5t85 33.5t85 -33.5t35 -81.5q0 -49 -40 -82q57 -15 92 -50q58 -57 58 -168v-326h-117v70q-67 -81 -180 -81z" />
    <glyph glyph-name="aringacute.alt" horiz-adv-x="705" 
d="M309 881l113 142l108 -50l-130 -92h-91zM358 617q-50 0 -85 33.5t-35 81.5t35 82t85 34t85 -34t35 -82t-35 -81.5t-85 -33.5zM358 662q28 0 49 21t21 49t-21 49t-49 21t-49 -21t-21 -49t21 -49t49 -21zM339 93q67 0 115.5 50.5t48.5 129.5v2q0 79 -48.5 129.5
t-115.5 50.5q-68 0 -114.5 -49.5t-46.5 -130.5v-2q0 -80 47 -130t114 -50zM311 -11q-103 0 -179 77t-76 207v2q0 130 75.5 207t179.5 77q115 0 189 -98v87h121v-548h-121v94q-73 -105 -189 -105z" />
    <glyph glyph-name="aringacute.alt2" horiz-adv-x="617" 
d="M261 778l113 142l108 -50l-130 -92h-91zM240 626q0 -28 21 -49t49 -21t49 21t21 49t-21 49t-49 21t-49 -21t-21 -49zM275 77q65 0 108 33.5t43 86.5v40q-61 22 -129 22q-62 0 -97 -25t-35 -69v-2q0 -40 31.5 -63t78.5 -23zM243 -11q-82 0 -139 45t-57 124v2
q0 86 61.5 131t165.5 45q79 0 150 -23v14q0 60 -35.5 91.5t-103.5 31.5q-77 0 -158 -34l-32 94q67 30 128 39q-33 31 -33 77q0 48 35 81.5t85 33.5t85 -33.5t35 -81.5q0 -49 -40 -82q57 -15 92 -50q58 -57 58 -168v-326h-117v70q-67 -81 -180 -81z" />
    <glyph glyph-name="atilde.alt" horiz-adv-x="705" 
d="M442 619q-33 0 -85 22q-46 19 -63 19q-21 0 -33 -11.5t-24 -39.5l-67 20q17 65 43 96t71 31q33 0 85 -22q46 -19 63 -19q21 0 33 11.5t24 39.5l67 -20q-17 -65 -43 -96t-71 -31zM339 93q67 0 115.5 50.5t48.5 129.5v2q0 79 -48.5 129.5t-115.5 50.5q-68 0 -114.5 -49.5
t-46.5 -130.5v-2q0 -80 47 -130t114 -50zM311 -11q-103 0 -179 77t-76 207v2q0 130 75.5 207t179.5 77q115 0 189 -98v87h121v-548h-121v94q-73 -105 -189 -105z" />
    <glyph glyph-name="i.dot" horiz-adv-x="303" 
d="M86 636v116h131v-116h-131zM91 0v548h121v-548h-121z" />
    <glyph glyph-name="uni0386.calt" horiz-adv-x="830" 
d="M283 287h260l-130 300zM36 0l322 733h114l321 -733h-129l-76 177h-350l-76 -177h-126z" />
    <glyph glyph-name="uni0388.calt" horiz-adv-x="705" 
d="M99 0v728h538v-110h-416v-196h369v-110h-369v-202h421v-110h-543z" />
    <glyph glyph-name="uni0389.calt" horiz-adv-x="798" 
d="M99 0v728h123v-305h355v305h123v-728h-123v309h-355v-309h-123z" />
    <glyph glyph-name="uni038A.calt" horiz-adv-x="335" 
d="M106 0v728h123v-728h-123z" />
    <glyph glyph-name="uni038C.calt" horiz-adv-x="892" 
d="M445 -12q-164 0 -271.5 109t-107.5 265v2q0 156 108.5 266t272.5 110t271.5 -109t107.5 -265v-2q0 -156 -108.5 -266t-272.5 -110zM447 101q109 0 179.5 75.5t70.5 185.5v2q0 110 -71.5 186.5t-180.5 76.5t-179.5 -75.5t-70.5 -185.5v-2q0 -110 71.5 -186.5t180.5 -76.5z
" />
    <glyph glyph-name="uni038E.calt" horiz-adv-x="753" 
d="M315 0v287l-291 441h145l208 -327l211 327h141l-291 -438v-290h-123z" />
    <glyph glyph-name="uni038F.calt" horiz-adv-x="912" 
d="M457 740q168 0 268.5 -96t100.5 -244v-1q0 -172 -168 -294l188 1v-106h-317v103q82 56 125 121t43 162v1q0 107 -66 174t-176 66q-109 0 -174.5 -66t-65.5 -172v-1q0 -94 43 -161t125 -124v-103h-317v106l187 -1q-167 124 -167 295v1q0 69 26 130.5t72.5 108t117.5 73.5
t155 27z" />
    <glyph glyph-name="uni0399.calt" horiz-adv-x="335" 
d="M-1 789v113h126v-113h-126zM211 789v113h125v-113h-125zM106 0v728h123v-728h-123z" />
    <glyph glyph-name="uni03A5.calt" horiz-adv-x="753" 
d="M208 787v113h126v-113h-126zM420 787v113h125v-113h-125zM315 0v287l-291 441h145l208 -327l211 327h141l-291 -438v-290h-123z" />
    <glyph glyph-name="uni0431.srb" horiz-adv-x="675" 
d="M559 759v-103l-284 1q-43 0 -43 -28q0 -21 40 -42l163 -85q92 -46 139.5 -104.5t47.5 -143.5v-1q0 -111 -80 -188.5t-208 -76.5q-123 0 -202 75t-79 186v1q0 96 58.5 161.5t161.5 79.5l-47 27q-59 32 -84.5 60.5t-25.5 72.5q0 47 40 77.5t119 30.5h284zM338 91
q73 0 119 45.5t46 117.5v1q0 70 -47.5 116t-117.5 45q-74 0 -120 -48t-46 -117v-1q0 -69 47 -114.5t119 -44.5z" />
    <glyph glyph-name="three.alt" horiz-adv-x="641" 
d="M327 -12q-172 0 -282 127l85 79q84 -96 199 -96q61 0 97.5 30t36.5 79v2q0 51 -43.5 78.5t-121.5 27.5h-77v104h81q65 0 103 29.5t38 78.5v2q0 44 -35 72.5t-94 28.5q-92 0 -168 -94l-86 70q50 66 110.5 100t145.5 34q111 0 180 -54.5t69 -139.5v-2q0 -119 -111 -170
q131 -49 131 -166v-2q0 -94 -70.5 -156t-187.5 -62z" />
    <glyph glyph-name="registered.alt" horiz-adv-x="871" 
d="M435 -12q-158 0 -267 109.5t-109 264.5v2q0 155 110.5 265.5t267.5 110.5t266 -109.5t109 -264.5v-2q0 -155 -110 -265.5t-267 -110.5zM435 25q143 0 240.5 99t97.5 240v2q0 140 -97 238.5t-239 98.5q-144 0 -241.5 -99t-97.5 -240v-2q0 -141 97 -239t240 -98zM357 379
h99q37 0 58.5 17t21.5 46v2q0 30 -21 46t-58 16h-100v-127zM284 178v393h176q76 0 119 -41q32 -32 32 -82v-2q0 -90 -93 -119l108 -149h-87l-98 137h-84v-137h-73z" />
    <glyph glyph-name="one.sup_alt" horiz-adv-x="420" 
d="M368 439h-291v64h114v269l-99 -36l-20 61l136 52h56v-346h104v-64z" />
    <glyph glyph-name="one.inf_alt" horiz-adv-x="420" 
d="M368 -137h-291v64h114v269l-99 -36l-20 61l136 52h56v-346h104v-64z" />
    <glyph glyph-name="zero.num" horiz-adv-x="420" 
d="M209 313q-71 0 -116 58t-45 152v4q0 94 45.5 152.5t116.5 58.5t117 -58t46 -151v-4q0 -94 -46.5 -153t-117.5 -59zM209 670q-38 0 -62 -37.5t-24 -103.5v-6q0 -66 24 -103.5t63 -37.5q38 0 62.5 38t24.5 103v6q0 65 -24.5 103t-63.5 38z" />
    <glyph glyph-name="one.num" horiz-adv-x="342" 
d="M232 324h-73v333l-83 -31l-20 61l120 47h56v-410z" />
    <glyph glyph-name="one.num_alt" horiz-adv-x="420" 
d="M368 324h-291v64h114v269l-99 -37l-20 62l136 52h56v-346h104v-64z" />
    <glyph glyph-name="two.num" horiz-adv-x="420" 
d="M59 324v63l145 121q41 34 57.5 56.5t16.5 48.5t-19 42t-47 16q-52 0 -97 -62l-53 41q31 44 67 66t88 22q60 0 98.5 -33.5t38.5 -85.5q0 -41 -20 -72t-69 -72l-106 -86h198v-65h-298z" />
    <glyph glyph-name="three.num" horiz-adv-x="420" 
d="M207 313q-92 0 -158 68l45 53q52 -54 114 -54q30 0 51 17t21 45q0 29 -25 45t-65 16h-42l-12 46l119 113h-180v66h272v-58l-121 -112q56 -4 92 -33t36 -81q0 -58 -41 -94.5t-106 -36.5z" />
    <glyph glyph-name="four.num" horiz-adv-x="420" 
d="M322 410v-88h-68v88h-196l-10 68l198 255h76v-264h55v-59h-55zM255 469v181l-140 -181h140z" />
    <glyph glyph-name="five.num" horiz-adv-x="420" 
d="M206 313q-83 0 -155 63l44 55q56 -50 112 -50q36 0 58.5 19t22.5 49t-22.5 48t-59.5 18q-42 0 -82 -18l-47 28l16 203h249v-68h-189l-7 -94q30 11 74 11q62 0 102 -32.5t40 -91.5q0 -63 -43.5 -101.5t-112.5 -38.5z" />
    <glyph glyph-name="six.num" horiz-adv-x="420" 
d="M211 314q-66 0 -106 40q-52 52 -52 158v2q0 103 45.5 163.5t128.5 60.5q69 0 118 -43l-37 -57q-39 34 -84 34q-39 0 -66 -34t-29 -87q41 34 95 34q57 0 95.5 -34.5t38.5 -95.5q0 -62 -42 -101.5t-105 -39.5zM209 377q34 0 56 20.5t22 53.5q0 34 -21 54t-56 20
q-36 0 -58 -20t-22 -54v-1q0 -31 23.5 -52.5t55.5 -20.5z" />
    <glyph glyph-name="seven.num" horiz-adv-x="420" 
d="M178 322h-82l176 337h-202v69h286v-57z" />
    <glyph glyph-name="eight.num" horiz-adv-x="420" 
d="M210 313q-68 0 -110.5 33t-42.5 87q0 68 69 101q-58 32 -58 92q0 48 40 80t103 32q61 0 101 -32t40 -80q0 -60 -58 -92q69 -34 69 -99q0 -56 -42.5 -89t-110.5 -33zM210 679q-32 0 -52.5 -16.5t-20.5 -42.5q0 -28 20.5 -45t52.5 -17t52.5 17t20.5 45q0 26 -20.5 42.5
t-52.5 16.5zM210 502q-37 0 -60.5 -18t-23.5 -47t23 -47t61 -18t60.5 18t22.5 47t-23 47t-60 18z" />
    <glyph glyph-name="nine.num" horiz-adv-x="420" 
d="M210 522q36 0 58 20.5t22 56.5v1q0 32 -23.5 54t-55.5 21q-34 0 -56 -21t-22 -55q0 -35 21 -56t56 -21zM209 738q66 0 106 -40q52 -52 52 -158v-3q0 -104 -45.5 -164t-128.5 -60q-69 0 -125 46l37 58q42 -37 91 -37q39 0 65.5 32.5t28.5 84.5q-39 -34 -93 -34
q-57 0 -96 35t-39 97t42 102.5t105 40.5z" />
    <glyph glyph-name="zero.den" horiz-adv-x="420" 
d="M209 -10q-71 0 -116 57.5t-45 151.5v4q0 94 46 153t116 59q71 0 117 -58.5t46 -151.5v-4q0 -94 -46.5 -152.5t-117.5 -58.5zM209 346q-38 0 -62 -37.5t-24 -103.5v-6q0 -66 24 -103.5t63 -37.5q38 0 62.5 38t24.5 103v6q0 65 -24.5 103t-63.5 38z" />
    <glyph glyph-name="one.den" horiz-adv-x="342" 
d="M232 0h-73v333l-83 -31l-20 61l120 47h56v-410z" />
    <glyph glyph-name="one.den_alt" horiz-adv-x="420" 
d="M368 0h-291v64h114v269l-99 -36l-20 61l136 52h56v-346h104v-64z" />
    <glyph glyph-name="two.den" horiz-adv-x="420" 
d="M59 0v63l145 121q41 34 57.5 56.5t16.5 48.5t-19 42t-47 16q-52 0 -97 -62l-53 41q31 44 67 66.5t88 22.5q61 0 99 -33.5t38 -86.5q0 -41 -20 -72t-69 -72l-106 -86h198v-65h-298z" />
    <glyph glyph-name="three.den" horiz-adv-x="420" 
d="M207 -10q-93 0 -158 67l45 53q52 -54 114 -54q29 0 50.5 17.5t21.5 44.5q0 29 -25 45t-65 16h-42l-12 46l119 113h-180v66h272v-57l-121 -113q57 -4 92.5 -33t35.5 -81q0 -58 -41 -94t-106 -36z" />
    <glyph glyph-name="four.den" horiz-adv-x="420" 
d="M322 86v-88h-68v88h-196l-10 68l198 255h76v-264h55v-59h-55zM255 145v181l-140 -181h140z" />
    <glyph glyph-name="five.den" horiz-adv-x="420" 
d="M206 -10q-85 0 -155 62l44 55q56 -50 112 -50q36 0 58.5 19t22.5 49t-22.5 48t-59.5 18q-42 0 -82 -18l-47 28l16 203h249v-67h-189l-7 -95q33 12 74 12q62 0 102 -33t40 -92q0 -63 -43.5 -101t-112.5 -38z" />
    <glyph glyph-name="six.den" horiz-adv-x="420" 
d="M211 -10q-66 0 -106 40q-52 52 -52 159v2q0 102 45.5 163t128.5 61q68 0 118 -44l-37 -57q-39 34 -84 34q-39 0 -66 -34t-29 -87q41 34 95 34q57 0 95.5 -34.5t38.5 -95.5q0 -62 -42 -101.5t-105 -39.5zM209 53q34 0 56 20.5t22 53.5q0 34 -21 54.5t-56 20.5
q-36 0 -58 -20.5t-22 -54.5v-1q0 -31 23.5 -52.5t55.5 -20.5z" />
    <glyph glyph-name="seven.den" horiz-adv-x="420" 
d="M178 -2h-82l176 337h-202v69h286v-56z" />
    <glyph glyph-name="eight.den" horiz-adv-x="420" 
d="M210 -10q-68 0 -110.5 32.5t-42.5 86.5q0 68 69 101q-58 32 -58 92q0 48 40.5 80.5t102.5 32.5q61 0 101 -32.5t40 -80.5q0 -60 -58 -92q69 -34 69 -99q0 -55 -42.5 -88t-110.5 -33zM210 355q-32 0 -52.5 -16.5t-20.5 -42.5q0 -28 20.5 -45t52.5 -17t52.5 17t20.5 45
q0 26 -20.5 42.5t-52.5 16.5zM210 178q-37 0 -60.5 -18t-23.5 -47t23 -47t61 -18t60.5 18t22.5 47t-23 47t-60 18z" />
    <glyph glyph-name="nine.den" horiz-adv-x="420" 
d="M210 198q36 0 58 21t22 56v1q0 32 -23.5 54t-55.5 21q-34 0 -56 -21t-22 -55q0 -35 21 -56t56 -21zM209 414q66 0 106 -40q52 -52 52 -158v-2q0 -104 -45.5 -164t-128.5 -60q-71 0 -125 46l37 57q42 -37 91 -37q39 0 65.5 32.5t28.5 84.5q-41 -34 -93 -34q-57 0 -96 35
t-39 97t42 102.5t105 40.5z" />
    <glyph glyph-name="onehalf.alt" horiz-adv-x="945" 
d="M365 324h-291v64h114v269l-99 -37l-20 62l136 52h56v-346h104v-64zM210 0l261 378l233 350h72l-261 -378l-233 -350h-72zM591 0v63l145 121q41 34 57.5 56.5t16.5 48.5t-19 42t-47 16q-52 0 -97 -62l-53 41q31 44 67 66.5t88 22.5q61 0 99 -33.5t38 -86.5q0 -41 -20 -72
t-69 -72l-106 -86h198v-65h-298z" />
    <glyph glyph-name="onethird.alt" horiz-adv-x="945" 
d="M365 324h-291v64h114v269l-99 -37l-20 62l136 52h56v-346h104v-64zM199 0l261 378l233 350h72l-261 -378l-233 -350h-72zM739 -10q-93 0 -158 67l45 53q52 -54 114 -54q29 0 50.5 17.5t21.5 44.5q0 29 -25 45t-65 16h-42l-12 46l119 113h-180v66h272v-57l-121 -113
q57 -4 92.5 -33t35.5 -81q0 -58 -41 -94t-106 -36z" />
    <glyph glyph-name="onequarter.alt" horiz-adv-x="945" 
d="M365 324h-291v64h114v269l-99 -37l-20 62l136 52h56v-346h104v-64zM215 0l261 378l233 350h72l-261 -378l-233 -350h-72zM844 86v-88h-68v88h-196l-10 68l198 255h76v-264h55v-59h-55zM777 145v181l-140 -181h140z" />
    <glyph glyph-name="onefifth.alt" horiz-adv-x="945" 
d="M365 324h-291v64h114v269l-99 -37l-20 62l136 52h56v-346h104v-64zM205 0l261 378l233 350h72l-261 -378l-233 -350h-72zM738 -10q-85 0 -155 62l44 55q56 -50 112 -50q36 0 58.5 19t22.5 49t-22.5 48t-59.5 18q-42 0 -82 -18l-47 28l16 203h249v-67h-189l-7 -95
q33 12 74 12q62 0 102 -33t40 -92q0 -63 -43.5 -101t-112.5 -38z" />
    <glyph glyph-name="onesixth.alt" horiz-adv-x="945" 
d="M365 324h-291v64h114v269l-99 -37l-20 62l136 52h56v-346h104v-64zM205 0l261 378l233 350h72l-261 -378l-233 -350h-72zM743 -10q-66 0 -106 40q-52 52 -52 159v2q0 102 45.5 163t128.5 61q68 0 118 -44l-37 -57q-39 34 -84 34q-39 0 -66 -34t-29 -87q41 34 95 34
q57 0 95.5 -34.5t38.5 -95.5q0 -62 -42 -101.5t-105 -39.5zM741 53q34 0 56 20.5t22 53.5q0 34 -21 54.5t-56 20.5q-36 0 -58 -20.5t-22 -54.5v-1q0 -31 23.5 -52.5t55.5 -20.5z" />
    <glyph glyph-name="oneeighth.alt" horiz-adv-x="945" 
d="M365 324h-291v64h114v269l-99 -37l-20 62l136 52h56v-346h104v-64zM205 0l261 378l233 350h72l-261 -378l-233 -350h-72zM742 -10q-68 0 -110.5 32.5t-42.5 86.5q0 68 69 101q-58 32 -58 92q0 48 40.5 80.5t102.5 32.5q61 0 101 -32.5t40 -80.5q0 -60 -58 -92
q69 -34 69 -99q0 -55 -42.5 -88t-110.5 -33zM742 355q-32 0 -52.5 -16.5t-20.5 -42.5q0 -28 20.5 -45t52.5 -17t52.5 17t20.5 45q0 26 -20.5 42.5t-52.5 16.5zM742 178q-37 0 -60.5 -18t-23.5 -47t23 -47t61 -18t60.5 18t22.5 47t-23 47t-60 18z" />
    <glyph glyph-name="zero.tab" horiz-adv-x="630" 
d="M314 -12q-119 0 -191.5 99.5t-72.5 268.5v13q0 171 73 271t192 100q118 0 191.5 -99.5t73.5 -268.5v-13q0 -170 -73.5 -270.5t-192.5 -100.5zM314 635q-66 0 -105.5 -68t-39.5 -196v-12q0 -129 40 -197.5t106 -68.5t106 68.5t40 195.5v12q0 128 -40 197t-107 69z" />
    <glyph glyph-name="one.tab" horiz-adv-x="630" 
d="M587 0h-502v101h202v506l-179 -64l-29 101l242 89h83v-632h183v-101z" />
    <glyph glyph-name="two.tab" horiz-adv-x="630" 
d="M565 0h-511v95l246 220q76 69 105.5 111t29.5 89q0 53 -34.5 83.5t-87.5 30.5q-50 0 -89.5 -27t-82.5 -85l-83 70q55 77 114 114t149 37q107 0 172.5 -59t65.5 -154v-2q0 -72 -34.5 -126t-113.5 -124l-188 -166h342v-107z" />
    <glyph glyph-name="three.tab" horiz-adv-x="630" 
d="M309 -12q-160 0 -267 115l78 87q88 -93 191 -93q56 0 95.5 32.5t39.5 84.5v2q0 54 -43 82.5t-120 28.5h-66l-24 76l211 219h-325v106h476v-97l-213 -214q99 -7 162 -55t63 -140v-3q0 -101 -73 -166t-185 -65z" />
    <glyph glyph-name="three.tab_alt" horiz-adv-x="630" 
d="M313 -12q-81 0 -150.5 33t-118.5 91l81 77q79 -94 193 -94q62 0 99.5 31t37.5 83q0 53 -43 81t-122 28h-74v100h83q65 0 103.5 29.5t38.5 81.5q0 46 -34.5 75t-93.5 29q-55 0 -96 -23.5t-79 -70.5l-81 70q98 131 258 131q113 0 180 -54t67 -145q0 -115 -116 -168
q129 -49 129 -172q0 -94 -72.5 -153.5t-189.5 -59.5z" />
    <glyph glyph-name="four.tab" horiz-adv-x="630" 
d="M393 0v160h-339l-22 111l335 461h137v-475h96v-97h-96v-160h-111zM394 255v348l-252 -348h252z" />
    <glyph glyph-name="five.tab" horiz-adv-x="630" 
d="M305 -12q-146 0 -261 105l71 89q98 -87 193 -87q65 0 106 35.5t41 94.5v3q0 56 -41 90t-112 34t-141 -32l-74 47l24 361h431v-109h-331l-13 -184q58 21 123 21q109 0 181 -58t72 -166v-2q0 -108 -75.5 -175t-193.5 -67z" />
    <glyph glyph-name="six.tab" horiz-adv-x="630" 
d="M346 467q97 0 163.5 -61t66.5 -167v-3q0 -108 -72 -178t-180 -70q-112 0 -180 68q-44 44 -65.5 108.5t-21.5 175.5v4q0 181 76 288.5t219 107.5q111 0 197 -71l-57 -95q-73 58 -143 58q-45 0 -80 -22t-54.5 -58.5t-29 -76.5t-10.5 -82h1q66 75 170 74zM320 89
q62 0 100.5 40t38.5 102v1q0 61 -38 99t-99 37q-65 0 -103.5 -39t-38.5 -99v-1q0 -61 40 -101t100 -39z" />
    <glyph glyph-name="seven.tab" horiz-adv-x="630" 
d="M437 618h-365v110h502v-94l-318 -634h-135z" />
    <glyph glyph-name="eight.tab" horiz-adv-x="630" 
d="M315 -11q-114 0 -188.5 58t-74.5 150v3q0 125 126 178q-106 57 -106 163v2q0 84 69.5 140t173.5 56q103 0 172.5 -56t69.5 -140v-2q0 -106 -106 -163q127 -57 127 -176v-2q0 -96 -74 -153.5t-189 -57.5zM315 418q55 0 91 31.5t36 80.5v2q0 46 -35.5 77t-91.5 31
t-92 -30.5t-36 -76.5v-3q0 -49 36.5 -80.5t91.5 -31.5zM315 88q67 0 106 33t39 84v2q0 52 -41 84t-104 32t-104.5 -32t-41.5 -84v-2q0 -51 39.5 -84t106.5 -33z" />
    <glyph glyph-name="nine.tab" horiz-adv-x="630" 
d="M310 639q-62 0 -100.5 -41t-38.5 -104v-1q0 -63 38 -101.5t99 -37.5q65 0 103.5 39.5t38.5 101.5v1q0 62 -40 103t-100 40zM284 255q-98 0 -164 61.5t-66 169.5v3q0 110 72 180.5t180 70.5q112 0 180 -68q44 -44 65.5 -108.5t21.5 -175.5v-4q0 -181 -76 -288.5
t-219 -107.5q-118 0 -207 76l57 95q79 -63 153 -63q44 0 78.5 21.5t54 56.5t29.5 74t12 80h-1q-66 -74 -170 -73z" />
    <glyph glyph-name="dollar.tab" horiz-adv-x="630" 
d="M185 533q0 -35 24.5 -61t85.5 -44l26 207h-11q-59 0 -92.5 -27.5t-32.5 -73.5v-1zM467 198q0 37 -25 63t-86 43l-26 -210h1q64 0 100.5 28t35.5 75v1zM422 811l-12 -91q81 -17 151 -67l-49 -89q-58 41 -118 58l-26 -212q105 -29 156 -78.5t51 -125.5v-1q0 -94 -69.5 -151
t-179.5 -56h-3l-15 -121h-84l16 130q-106 22 -195 91l54 87q77 -62 157 -82l27 219q-107 30 -156.5 77.5t-49.5 125.5v1q0 92 67.5 148.5t172.5 55.5h10l11 81h84z" />
    <glyph glyph-name="sterling.tab" horiz-adv-x="630" 
d="M141 396v97q0 118 65 183q62 62 168 62q126 0 205 -100l-81 -79q-55 68 -122 68q-50 0 -81 -31q-34 -34 -34 -103v-97h242v-101h-242v-190h317v-105h-516v75l79 24v196h-78v101h78z" />
    <glyph glyph-name="Euro.tab" horiz-adv-x="630" 
d="M38 413v81h85q26 113 97.5 179.5t174.5 66.5q120 0 200 -96l-71 -80q-59 72 -131 72q-54 0 -94 -37.5t-58 -104.5h200v-81h-213q-2 -30 -2 -45v-6q0 -29 1 -42h214v-81h-202q17 -69 57 -108t95 -39q42 0 73.5 18.5t63.5 56.5l70 -73q-85 -106 -212 -106q-101 0 -171 67
t-95 184h-82v81h73q-1 13 -1 40v7q0 31 1 46h-73z" />
    <glyph glyph-name="yen.tab" horiz-adv-x="630" 
d="M87 187h171v89h-171v82h149l-220 370h132l169 -304l169 304h128l-222 -370h151v-82h-171v-89h171v-82h-171v-105h-114v105h-171v82z" />
    <glyph glyph-name="cent.tab" horiz-adv-x="630" 
d="M175 362q0 -58 26 -100t72 -62l69 352h-1q-72 -2 -119.5 -54.5t-46.5 -133.5v-2zM463 734l-20 -98q71 -21 126 -83l-68 -73q-42 44 -81 59l-70 -353h1q84 1 154 75l65 -65q-93 -107 -229 -107h-6l-19 -95h-88l21 110q-82 28 -133 97.5t-51 161.5v2q0 120 80.5 202
t202.5 82h10l17 85h88z" />
    <glyph glyph-name="numbersign.tab" horiz-adv-x="630" 
d="M252 464l-28 -196h154l28 196h-154zM35 271h97l28 190h-93v99h107l25 168h93l-24 -168h150l24 168h94l-24 -168h83v-99h-98l-27 -190h93v-99h-107l-25 -172h-94l25 172h-150l-25 -172h-94l25 172h-83v99z" />
    <glyph glyph-name="paragraph.tab" horiz-adv-x="630" 
d="M399 0v256h-46q-131 0 -213 61.5t-82 173.5v1q0 109 79 173t208 63h178v-728h-124z" />
    <glyph glyph-name="section.tab" horiz-adv-x="630" 
d="M237 442q-35 1 -56 -14.5t-21 -40.5v-1q0 -25 25 -42t86 -33q92 -25 122 -25q35 -1 56 14.5t21 40.5v1q0 25 -25 42t-86 33q-92 25 -122 25zM322 -10q-136 0 -225 86l61 74q77 -69 165 -69q38 0 57.5 14.5t19.5 37.5v1q0 24 -27 42t-102 38q-121 35 -168.5 68t-47.5 88v1
q0 46 33 77t89 41q-60 41 -60 105v1q0 61 53.5 102.5t137.5 40.5q136 0 225 -86l-61 -74q-77 69 -165 69q-38 0 -57.5 -14.5t-19.5 -37.5v-1q0 -24 27 -42t102 -38q121 -35 168.5 -68t47.5 -88v-1q0 -46 -33 -77t-89 -41q60 -41 60 -105v-1q0 -61 -53.5 -102.5t-137.5 -40.5
z" />
    <glyph glyph-name="degree.tab" horiz-adv-x="630" 
d="M314 315q-87 0 -150.5 62t-63.5 149v1q0 85 64.5 148t151.5 62q87 0 150.5 -62t63.5 -149v-1q0 -85 -64.5 -148t-151.5 -62zM316 387q59 0 97.5 40t38.5 99v1q0 58 -39.5 99t-98.5 40q-59 0 -97.5 -40.5t-38.5 -99.5v-1q0 -57 39.5 -98t98.5 -40z" />
    <glyph glyph-name="percent.tab" horiz-adv-x="630" 
d="M157 735q56 0 90 -50.5t34 -132.5v-8q0 -82 -34 -133t-90 -51q-55 0 -89 50.5t-34 132.5v8q0 83 34 133.5t89 50.5zM466 728h68l-199 -376l-171 -352h-68l199 376zM157 667q-53 0 -53 -112v-15q0 -54 14 -83t39 -29q53 0 53 112v15q0 112 -53 112zM473 368q55 0 89 -50.5
t34 -132.5v-8q0 -83 -34 -133.5t-89 -50.5q-56 0 -90 50.5t-34 132.5v8q0 82 34 133t90 51zM473 300q-53 0 -53 -112v-15q0 -112 53 -112t53 112v15q0 54 -14 83t-39 29z" />
    <glyph glyph-name="quotedbl.tab" horiz-adv-x="630" 
d="M113 420l50 308h137v-5l-124 -303h-63zM356 420l49 308h138v-5l-124 -303h-63z" />
    <glyph glyph-name="quotesingle.tab" horiz-adv-x="315" 
d="M77 420l49 308h139v-5l-124 -303h-64z" />
    <glyph glyph-name="period.tab" horiz-adv-x="315" 
d="M87 0v145h142v-145h-142z" />
    <glyph glyph-name="comma.tab" horiz-adv-x="315" 
d="M69 -148l-13 51q93 19 87 97h-56v145h142v-124q0 -82 -40 -122t-120 -47z" />
    <glyph glyph-name="colon.tab" horiz-adv-x="315" 
d="M88 405v143h140v-143h-140zM88 0v143h140v-143h-140z" />
    <glyph glyph-name="semicolon.tab" horiz-adv-x="315" 
d="M88 405v143h140v-143h-140zM69 -148l-13 51q93 19 87 97h-55v143h140v-122q0 -82 -39.5 -122t-119.5 -47z" />
    <glyph glyph-name="twodotleader.tab" horiz-adv-x="630" 
d="M91 0v138h136v-138h-136zM403 0v138h136v-138h-136z" />
    <glyph glyph-name="periodcentered.tab" horiz-adv-x="315" 
d="M87 245v146h142v-146h-142z" />
    <glyph glyph-name="slash.tab" horiz-adv-x="630" 
d="M616 830l-512 -963h-105l512 963h105z" />
    <glyph glyph-name="bar.tab" horiz-adv-x="315" 
d="M109 -133v963h98v-963h-98z" />
    <glyph glyph-name="underscore.tab" horiz-adv-x="630" 
d="M1 -166v94h628v-94h-628z" />
    <glyph glyph-name="plus.tab" horiz-adv-x="630" 
d="M563 313h-194l1 -197h-110l1 197h-194v106h194l-1 197h110l-1 -197h194v-106z" />
    <glyph glyph-name="minus.tab" horiz-adv-x="630" 
d="M563 310h-496v113h496v-113z" />
    <glyph glyph-name="divide.tab" horiz-adv-x="630" 
d="M248 517v129h134v-129h-134zM563 314h-496v104h496v-104zM248 86v130h134v-130h-134z" />
    <glyph glyph-name="equal.tab" horiz-adv-x="630" 
d="M546 438h-462v108h462v-108zM546 186h-462v108h462v-108z" />
    <glyph glyph-name="multiply.tab" horiz-adv-x="630" 
d="M478 126l-164 167l-164 -167l-75 75l167 164l-167 164l77 77l164 -167l164 167l75 -75l-167 -164l167 -164z" />
    <glyph glyph-name="less.tab" horiz-adv-x="630" 
d="M538 84l-468 229v107l468 228v-114l-353 -167l353 -167v-116z" />
    <glyph glyph-name="greater.tab" horiz-adv-x="630" 
d="M560 313l-468 -229v115l353 166l-353 167v116l468 -228v-107z" />
    <glyph glyph-name="plusminus.tab" horiz-adv-x="630" 
d="M563 387h-194l1 -190h-110l1 190h-194v106h194l-1 190h110l-1 -190h194v-106zM563 0h-496v103h496v-103z" />
    <glyph glyph-name="R_p" horiz-adv-x="1255" 
d="M201 361h140q66 0 105 35t39 95v4q0 63 -38.5 95t-107.5 32h-138v-261zM964 89q57 0 95.5 49t38.5 131v11q0 81 -39 130.5t-95 49.5t-96.5 -49.5t-40.5 -129.5v-12q0 -80 40.5 -130t96.5 -50zM86 0v728h261q118 0 186.5 -61t68.5 -168v-3q0 -81 -41.5 -135.5
t-110.5 -78.5l174 -282h-134l-158 259h-131v-259h-115zM716 -166v715h113v-90q65 101 165 101q89 0 153.5 -73.5t64.5 -204.5v-14q0 -131 -64 -205t-154 -74q-99 0 -165 97v-252h-113z" />
    <glyph glyph-name="hcoslug" horiz-adv-x="694" 
d="M644 700v-800h-594v800h594zM247 428q0 13 7.5 21t19.5 8q13 0 21 -10.5t8 -27.5q0 -22 -18 -50q-15 14 -21 20.5t-11.5 17t-5.5 21.5zM312 342q30 20 42 34q29 -29 -1 -80q-33 38 -41 46zM261 219q-22 0 -37 15.5t-15 38.5q0 24 16 40q34 -32 74 -82q-15 -12 -38 -12z
M382 264q20 26 46 42q15 -25 43 -25q21 0 35.5 15.5t14.5 38.5t-14.5 37.5t-35.5 14.5q-35 0 -60 -38q-3 39 -49 37q9 15 9 34q0 29 -25.5 51.5t-69.5 22.5q-48 0 -78.5 -25.5t-30.5 -59.5q0 -37 31 -69q-82 -28 -82 -91q0 -39 32 -66t77 -27q63 0 104 45q44 -45 85 -45
q33 0 56 25.5t24 68.5l-7 2q-17 -29 -43 -29q-27 0 -62 41zM286 124l-12 -2v-9h-7v-7h7v-20q0 -13 12 -13q11 0 14 13l-5 2q-1 -7 -5 -7t-4 5v20h13v7h-13v11zM174 94q0 -21 21 -21q9 0 15 6t6 15q0 20 -21 20t-21 -20zM203 94q0 -16 -8 -16t-8 16q0 15 8 15t8 -15zM219 81
v-7h22v7h-4v15q0 10 7 10q6 0 6 -7v-18h-4v-7h22v7h-6v19q0 14 -12 14q-9 0 -14 -11v10h-17v-7h6v-25h-6zM379 93q0 -13 -7 -13q-8 0 -8 13t8 13q7 0 7 -13zM125 81v-7h30v7h-10v16h4q5 0 6 -8h7v23h-7q-1 -8 -6 -8h-4v18h12q9 0 11 -13h8v20h-51v-7h7v-41h-7zM302 88v-14h7
l1 4q7 -5 13 -5q14 0 14 13q0 9 -12 12t-12 6q0 4 5 4t10 -7h7v13h-6l-2 -5q-3 5 -11 5q-14 0 -14 -12q0 -9 12 -12.5t12 -6.5q0 -4 -5 -4q-6 0 -12 9h-7zM352 125v-52h6l4 8q5 -8 14 -8q16 0 16 21q0 20 -15 20q-10 0 -13 -9v27h-18v-7h6zM405 65q3 2 1.5 6t-6.5 4
q-7 0 -7 -7q0 -9 11 -9q12 0 18 16l13 31h5v7h-17v-7h5l-8 -20l-9 20h6v7h-25v-7h5q12 -23 16 -33q-2 -8 -8 -8zM294 39v3q0 12 6 12l3 -1q-1 -1 -1 -3q0 -6 6 -6v-5h-14zM464 33h-18v-7h6q-2 -5 -6 -9q-2 2 -5.5 6t-6.5 7q11 5 11 12q0 12 -14 12q-17 0 -17 -14q0 -6 6 -12
q-13 -4 -13 -15q0 -14 18 -14q9 0 15 6q5 -6 12 -6q10 0 13 12l-5 1q-1 -5 -4 -5t-6 5q6 8 9 14h5v7zM469 27q0 -28 29 -28q22 0 24 23h-8q-2 -16 -14 -16q-16 0 -16 22t14 22q10 0 15 -16h8v22h-8l-1 -6q-7 7 -16 7q-11 0 -19 -8.5t-8 -21.5zM431 33q-6 6 -6 10q0 5 5 5
q6 0 6 -6t-5 -9zM340 18h26q2 22 -19 22q-8 0 -14 -6t-6 -15q0 -20 21 -20q14 0 18 14h-7q-1 -7 -9 -7q-10 0 -10 12zM525 20q0 -21 21 -21q9 0 15 6t6 15q0 20 -21 20t-21 -20zM189 20q0 -21 21 -21q9 0 15 6t6 15q0 20 -21 20t-21 -20zM247 18h26q2 22 -19 22q-8 0 -14 -6
t-6 -15q0 -20 21 -20q15 0 18 14h-7q-1 -7 -9 -7q-10 0 -10 12zM340 23q0 12 7 12t7 -12h-14zM554 20q0 -16 -8 -16t-8 16q0 15 8 15t8 -15zM218 20q0 -16 -8 -16t-8 16q0 15 8 15t8 -15zM247 23q0 12 7 12t7 -12h-14zM368 7v-7h26v7h-8v16q4 9 7 9v-1q0 -6 6 -6q7 0 7 7
q0 8 -8 8t-12 -11v10h-18v-7h6v-25h-6zM276 7v-7h23v7h-5v25h14v-25h-5v-7h23v7h-6v52l-10 -2q-4 2 -9 2q-19 0 -19 -19v-1h-7v-7h7v-25h-6zM124 7v-7h29v7h-8v18h22v-18h-8v-7h29v7h-8v41h8v7h-29v-7h8v-16h-22v16h8v7h-29v-7h8v-41h-8zM437 9q-5 -3 -8 -3q-10 0 -10 10
q0 5 4 9q4 -4 14 -16zM583 6q0 7 -7 7t-7 -7t7 -7t7 7z" />
    <glyph glyph-name="space.tab" horiz-adv-x="315" 
 />
    <glyph glyph-name="NUL" horiz-adv-x="0" 
 />
    <glyph glyph-name="caron.alt" 
d="M215 612l13 195h96v-4l-58 -191h-51z" />
    <glyph glyph-name="descendercyrillic" 
d="M197 12h86q56 -47 56 -94q0 -41 -35.5 -66t-98.5 -25q-23 0 -42 3v59q4 -1 11 -1q34 -1 53.5 11t19.5 35q0 34 -50 78z" />
    <glyph glyph-name="acute.cap" 
d="M170 789l115 149l110 -49l-131 -100h-94z" />
    <glyph glyph-name="hungarumlaut.cap" 
d="M245 789l116 149l106 -49l-131 -100h-91zM66 789l115 149l107 -49l-131 -100h-91z" />
    <glyph glyph-name="grave.cap" 
d="M357 789h-95l-131 100l110 49z" />
    <glyph glyph-name="circumflex.cap" 
d="M83 789l124 138h114l124 -138h-102l-80 60l-80 -60h-100z" />
    <glyph glyph-name="caron.cap" 
d="M445 927l-124 -138h-114l-124 138h102l80 -60l80 60h100z" />
    <glyph glyph-name="breve.cap" 
d="M264 787q-75 0 -123 36t-54 101h86q20 -52 91 -52t91 52h86q-6 -65 -54 -101t-123 -36z" />
    <glyph glyph-name="tilde.cap" 
d="M345 789q-30 0 -91 23q-43 17 -60 17q-21 0 -33.5 -11.5t-24.5 -38.5l-68 20q18 64 44.5 95t70.5 31q33 0 91 -24q43 -17 60 -17q21 0 33 11.5t24 38.5l68 -20q-17 -63 -43.5 -94t-70.5 -31z" />
    <glyph glyph-name="macron.cap" 
d="M79 802v90h370v-90h-370z" />
    <glyph glyph-name="dieresis.cap" 
d="M95 789v113h126v-113h-126zM307 789v113h125v-113h-125z" />
    <glyph glyph-name="dotaccent.cap" 
d="M199 789v113h130v-113h-130z" />
    <glyph glyph-name="ring.cap" 
d="M264 787q-50 0 -86 31t-36 78t36 78t86 31t86 -31t36 -78t-36 -78t-86 -31zM264 835q30 0 48.5 17.5t18.5 43.5t-18.5 43t-48.5 17t-48.5 -17t-18.5 -43t18.5 -43.5t48.5 -17.5z" />
    <glyph glyph-name="uni0384.cap" 
d="M158 526l14 202h121l-71 -202h-64z" />
    <glyph glyph-name="commaaccent.rot" 
d="M333 831l8 -40q-77 -9 -72 -69h55v-103h-120v88q0 118 129 124z" />
    <glyph glyph-name="acute.altlc" 
d="M173 881l113 142l108 -50l-130 -92h-91z" />
    <glyph glyph-name="acute.altuc" 
d="M169 914l120 132l109 -48l-134 -84h-95z" />
    <glyph glyph-name="caron.alt.cap" 
d="M215 612l13 195h96v-4l-58 -191h-51z" />
    <glyph glyph-name="cedilla.cap" 
d="M249 -171l-106 45l97 143h90z" />
    <glyph glyph-name="commaaccent.cap" 
d="M195 -279l-8 40q77 9 72 69h-55v103h120v-88q0 -118 -129 -124z" />
    <glyph glyph-name="ogonek.cap" 
d="M362 -112v-59q-22 -2 -31 -2q-65 1 -100.5 25t-35.5 63q0 45 55 98l81 -6q-44 -40 -44 -74q0 -45 75 -45z" />
    <glyph glyph-name="uni0385.cap" 
d="M204 619l44 198l105 -23l-80 -175h-69zM61 619v119h111v-119h-111zM356 619v119h111v-119h-111z" />
    </font>
</defs>
</svg>
